  0
SECTION
  2
HEADER
  9
$ACADVER
  1
AC1021
  9
$ACADMAINTVER
 70
    25
  9
$DWGCODEPAGE
  3
ANSI_1252
  9
$INSBASE
 10
0.0
 20
0.0
 30
0.0
  9
$EXTMIN
 10
0.0
 20
0.0
 30
0.0
  9
$EXTMAX
 10
420.0
 20
297.0
 30
0.0
  9
$LIMMIN
 10
0.0
 20
0.0
  9
$LIMMAX
 10
420.0
 20
297.0
  9
$ORTHOMODE
 70
     0
  9
$REGENMODE
 70
     1
  9
$FILLMODE
 70
     1
  9
$QTEXTMODE
 70
     0
  9
$MIRRTEXT
 70
     1
  9
$LTSCALE
 40
1.0
  9
$ATTMODE
 70
     1
  9
$TEXTSIZE
 40
3.5
  9
$TRACEWID
 40
1.0
  9
$TEXTSTYLE
  7
Standard
  9
$CLAYER
  8
0
  9
$CELTYPE
  6
ByLayer
  9
$CECOLOR
 62
   256
  9
$CELTSCALE
 40
1.0
  9
$DISPSILH
 70
     0
  9
$DIMSCALE
 40
1.0
  9
$DIMASZ
 40
2.5
  9
$DIMEXO
 40
0.625
  9
$DIMDLI
 40
3.75
  9
$DIMRND
 40
0.0
  9
$DIMDLE
 40
0.0
  9
$DIMEXE
 40
1.25
  9
$DIMTP
 40
0.0
  9
$DIMTM
 40
0.0
  9
$DIMTXT
 40
2.5
  9
$DIMCEN
 40
2.5
  9
$DIMTSZ
 40
0.0
  9
$DIMTOL
 70
     0
  9
$DIMLIM
 70
     0
  9
$DIMTIH
 70
     0
  9
$DIMTOH
 70
     0
  9
$DIMSE1
 70
     0
  9
$DIMSE2
 70
     0
  9
$DIMTAD
 70
     1
  9
$DIMZIN
 70
     8
  9
$DIMBLK
  1

  9
$DIMASO
 70
     1
  9
$DIMSHO
 70
     1
  9
$DIMPOST
  1

  9
$DIMAPOST
  1

  9
$DIMALT
 70
     0
  9
$DIMALTD
 70
     3
  9
$DIMALTF
 40
0.0393700787
  9
$DIMLFAC
 40
1.0
  9
$DIMTOFL
 70
     1
  9
$DIMTVP
 40
0.0
  9
$DIMTIX
 70
     0
  9
$DIMSOXD
 70
     0
  9
$DIMSAH
 70
     0
  9
$DIMBLK1
  1

  9
$DIMBLK2
  1

  9
$DIMSTYLE
  2
ISO-25
  9
$DIMCLRD
 70
     0
  9
$DIMCLRE
 70
     0
  9
$DIMCLRT
 70
     0
  9
$DIMTFAC
 40
1.0
  9
$DIMGAP
 40
0.625
  9
$DIMJUST
 70
     0
  9
$DIMSD1
 70
     0
  9
$DIMSD2
 70
     0
  9
$DIMTOLJ
 70
     0
  9
$DIMTZIN
 70
     8
  9
$DIMALTZ
 70
     0
  9
$DIMALTTZ
 70
     0
  9
$DIMUPT
 70
     0
  9
$DIMDEC
 70
     2
  9
$DIMTDEC
 70
     2
  9
$DIMALTU
 70
     2
  9
$DIMALTTD
 70
     3
  9
$DIMTXSTY
  7
Standard
  9
$DIMAUNIT
 70
     0
  9
$DIMADEC
 70
     0
  9
$DIMALTRND
 40
0.0
  9
$DIMAZIN
 70
     0
  9
$DIMDSEP
 70
    44
  9
$DIMATFIT
 70
     3
  9
$DIMFRAC
 70
     0
  9
$DIMLDRBLK
  1

  9
$DIMLUNIT
 70
     2
  9
$DIMLWD
 70
    -2
  9
$DIMLWE
 70
    -2
  9
$DIMTMOVE
 70
     0
  9
$DIMFXL
 40
1.0
  9
$DIMFXLON
 70
     0
  9
$DIMJOGANG
 40
0.7853981634
  9
$DIMTFILL
 70
     0
  9
$DIMTFILLCLR
 70
     0
  9
$DIMARCSYM
 70
     0
  9
$DIMLTYPE
  6

  9
$DIMLTEX1
  6

  9
$DIMLTEX2
  6

  9
$LUNITS
 70
     2
  9
$LUPREC
 70
     4
  9
$SKETCHINC
 40
1.0
  9
$FILLETRAD
 40
10.0
  9
$AUNITS
 70
     0
  9
$AUPREC
 70
     0
  9
$MENU
  1
.
  9
$ELEVATION
 40
0.0
  9
$PELEVATION
 40
0.0
  9
$THICKNESS
 40
0.0
  9
$LIMCHECK
 70
     0
  9
$CHAMFERA
 40
0.0
  9
$CHAMFERB
 40
0.0
  9
$CHAMFERC
 40
0.0
  9
$CHAMFERD
 40
0.0
  9
$SKPOLY
 70
     0
  9
$TDCREATE
 40
2460219.450720232
  9
$TDUCREATE
 40
2460219.367386898
  9
$TDUPDATE
 40
2460219.450722037
  9
$TDUUPDATE
 40
2460219.367388704
  9
$TDINDWG
 40
0.0000000116
  9
$TDUSRTIMER
 40
0.0000000116
  9
$USRTIMER
 70
     1
  9
$ANGBASE
 50
0.0
  9
$ANGDIR
 70
     0
  9
$PDMODE
 70
     0
  9
$PDSIZE
 40
0.0
  9
$PLINEWID
 40
0.0
  9
$SPLFRAME
 70
     0
  9
$SPLINETYPE
 70
     6
  9
$SPLINESEGS
 70
     8
  9
$HANDSEED
  5
246
  9
$SURFTAB1
 70
     6
  9
$SURFTAB2
 70
     6
  9
$SURFTYPE
 70
     6
  9
$SURFU
 70
     6
  9
$SURFV
 70
     6
  9
$UCSBASE
  2

  9
$UCSNAME
  2

  9
$UCSORG
 10
0.0
 20
0.0
 30
0.0
  9
$UCSXDIR
 10
1.0
 20
0.0
 30
0.0
  9
$UCSYDIR
 10
0.0
 20
1.0
 30
0.0
  9
$UCSORTHOREF
  2

  9
$UCSORTHOVIEW
 70
     0
  9
$UCSORGTOP
 10
0.0
 20
0.0
 30
0.0
  9
$UCSORGBOTTOM
 10
0.0
 20
0.0
 30
0.0
  9
$UCSORGLEFT
 10
0.0
 20
0.0
 30
0.0
  9
$UCSORGRIGHT
 10
0.0
 20
0.0
 30
0.0
  9
$UCSORGFRONT
 10
0.0
 20
0.0
 30
0.0
  9
$UCSORGBACK
 10
0.0
 20
0.0
 30
0.0
  9
$PUCSBASE
  2

  9
$PUCSNAME
  2

  9
$PUCSORG
 10
0.0
 20
0.0
 30
0.0
  9
$PUCSXDIR
 10
1.0
 20
0.0
 30
0.0
  9
$PUCSYDIR
 10
0.0
 20
1.0
 30
0.0
  9
$PUCSORTHOREF
  2

  9
$PUCSORTHOVIEW
 70
     0
  9
$PUCSORGTOP
 10
0.0
 20
0.0
 30
0.0
  9
$PUCSORGBOTTOM
 10
0.0
 20
0.0
 30
0.0
  9
$PUCSORGLEFT
 10
0.0
 20
0.0
 30
0.0
  9
$PUCSORGRIGHT
 10
0.0
 20
0.0
 30
0.0
  9
$PUCSORGFRONT
 10
0.0
 20
0.0
 30
0.0
  9
$PUCSORGBACK
 10
0.0
 20
0.0
 30
0.0
  9
$USERI1
 70
     0
  9
$USERI2
 70
     0
  9
$USERI3
 70
     0
  9
$USERI4
 70
     0
  9
$USERI5
 70
     0
  9
$USERR1
 40
0.0
  9
$USERR2
 40
0.0
  9
$USERR3
 40
0.0
  9
$USERR4
 40
0.0
  9
$USERR5
 40
0.0
  9
$WORLDVIEW
 70
     1
  9
$SHADEDGE
 70
     3
  9
$SHADEDIF
 70
    70
  9
$TILEMODE
 70
     1
  9
$MAXACTVP
 70
    64
  9
$PINSBASE
 10
0.0
 20
0.0
 30
0.0
  9
$PLIMCHECK
 70
     0
  9
$PEXTMIN
 10
0.0
 20
0.0
 30
0.0
  9
$PEXTMAX
 10
420.0
 20
297.0
 30
0.0
  9
$PLIMMIN
 10
0.0
 20
0.0
  9
$PLIMMAX
 10
420.0
 20
297.0
  9
$UNITMODE
 70
     0
  9
$VISRETAIN
 70
     1
  9
$PLINEGEN
 70
     0
  9
$PSLTSCALE
 70
     1
  9
$TREEDEPTH
 70
  3020
  9
$CMLSTYLE
  2
Standard
  9
$CMLJUST
 70
     0
  9
$CMLSCALE
 40
20.0
  9
$PROXYGRAPHICS
 70
     1
  9
$MEASUREMENT
 70
     1
  9
$CELWEIGHT
370
    -1
  9
$ENDCAPS
280
     0
  9
$JOINSTYLE
280
     0
  9
$LWDISPLAY
290
     0
  9
$INSUNITS
 70
     4
  9
$HYPERLINKBASE
  1

  9
$STYLESHEET
  1

  9
$XEDIT
290
     1
  9
$CEPSNTYPE
380
     0
  9
$PSTYLEMODE
290
     1
  9
$FINGERPRINTGUID
  2
{C58A18C5-7730-40E4-95DB-56F0114B96AE}
  9
$VERSIONGUID
  2
{FAEB1C32-E019-11D5-929B-00C0DF256EC4}
  9
$EXTNAMES
290
     1
  9
$PSVPSCALE
 40
0.0
  9
$OLESTARTUP
290
     0
  9
$SORTENTS
280
   127
  9
$INDEXCTL
280
     0
  9
$HIDETEXT
280
     1
  9
$XCLIPFRAME
290
     0
  9
$HALOGAP
280
     0
  9
$OBSCOLOR
 70
   257
  9
$OBSLTYPE
280
     0
  9
$INTERSECTIONDISPLAY
280
     0
  9
$INTERSECTIONCOLOR
 70
   257
  9
$DIMASSOC
280
     2
  9
$PROJECTNAME
  1

  9
$CAMERADISPLAY
290
     0
  9
$LENSLENGTH
 40
50.0
  9
$CAMERAHEIGHT
 40
0.0
  9
$STEPSPERSEC
 40
2.0
  9
$STEPSIZE
 40
6.0
  9
$3DDWFPREC
 40
2.0
  9
$PSOLWIDTH
 40
5.0
  9
$PSOLHEIGHT
 40
80.0
  9
$LOFTANG1
 40
1.5707963268
  9
$LOFTANG2
 40
1.5707963268
  9
$LOFTMAG1
 40
0.0
  9
$LOFTMAG2
 40
0.0
  9
$LOFTPARAM
 70
     7
  9
$LOFTNORMALS
280
     1
  9
$LATITUDE
 40
37.795
  9
$LONGITUDE
 40
-122.394
  9
$NORTHDIRECTION
 40
0.0
  9
$TIMEZONE
 70
 -8000
  9
$LIGHTGLYPHDISPLAY
280
     1
  9
$TILEMODELIGHTSYNCH
280
     1
  9
$CMATERIAL
347
44
  9
$SOLIDHIST
280
     0
  9
$SHOWHIST
280
     1
  9
$DWFFRAME
280
     2
  9
$DGNFRAME
280
     2
  9
$REALWORLDSCALE
290
     1
  9
$INTERFERECOLOR
 62
   256
  9
$CSHADOW
280
     0
  9
$SHADOWPLANELOCATION
 40
0.0
  0
ENDSEC
  0
SECTION
  2
CLASSES
  0
CLASS
  1
ACDBDICTIONARYWDFLT
  2
AcDbDictionaryWithDefault
  3
ObjectDBX Classes
 90
        0
 91
        4
280
     0
281
     0
  0
CLASS
  1
VISUALSTYLE
  2
AcDbVisualStyle
  3
ObjectDBX Classes
 90
     4095
 91
        4
280
     0
281
     0
  0
CLASS
  1
MATERIAL
  2
AcDbMaterial
  3
ObjectDBX Classes
 90
     1153
 91
        4
280
     0
281
     0
  0
CLASS
  1
SCALE
  2
AcDbScale
  3
ObjectDBX Classes
 90
     1153
 91
        4
280
     0
281
     0
  0
CLASS
  1
TABLESTYLE
  2
AcDbTableStyle
  3
ObjectDBX Classes
 90
     4095
 91
        4
280
     0
281
     0
  0
CLASS
  1
MLEADERSTYLE
  2
AcDbMLeaderStyle
  3
ACDB_MLEADERSTYLE_CLASS
 90
     4095
 91
        4
280
     0
281
     0
  0
CLASS
  1
SUN
  2
AcDbSun
  3
SCENEOE
 90
     1153
 91
        4
280
     0
281
     0
  0
CLASS
  1
MULTILEADER
  2
AcDbMLeader
  3
ACDB_MLEADER_CLASS
 90
     1025
 91
        4
280
     0
281
     1
  0
CLASS
  1
DICTIONARYVAR
  2
AcDbDictionaryVar
  3
ObjectDBX Classes
 90
        0
 91
        4
280
     0
281
     0
  0
CLASS
  1
CELLSTYLEMAP
  2
AcDbCellStyleMap
  3
ObjectDBX Classes
 90
     1152
 91
        4
280
     0
281
     0
  0
ENDSEC
  0
SECTION
  2
TABLES
  0
TABLE
  2
VPORT
  5
8
330
0
100
AcDbSymbolTable
 70
     1
  0
VPORT
  5
29
330
8
100
AcDbSymbolTableRecord
100
AcDbViewportTableRecord
  2
*Active
 70
     0
 10
0.0
 20
0.0
 11
1.0
 21
1.0
 12
344.1869158879
 22
148.5
 13
0.0
 23
0.0
 14
10.0
 24
10.0
 15
10.0
 25
10.0
 16
0.0
 26
0.0
 36
1.0
 17
0.0
 27
0.0
 37
0.0
 40
297.0
 41
1.9729729729
 42
50.0
 43
0.0
 44
0.0
 50
0.0
 51
0.0
 71
     0
 72
   100
 73
     1
 74
     3
 75
     0
 76
     0
 77
     0
 78
     0
281
     0
 65
     1
110
0.0
120
0.0
130
0.0
111
1.0
121
0.0
131
0.0
112
0.0
122
1.0
132
0.0
 79
     0
146
0.0
348
2F
 60
     3
 61
     5
292
     1
282
     1
141
0.0
142
0.0
 63
   250
361
6D
  0
ENDTAB
  0
TABLE
  2
LTYPE
  5
5
330
0
100
AcDbSymbolTable
 70
     2
  0
LTYPE
  5
14
330
5
100
AcDbSymbolTableRecord
100
AcDbLinetypeTableRecord
  2
ByBlock
 70
     0
  3

 72
    65
 73
     0
 40
0.0
  0
LTYPE
  5
15
330
5
100
AcDbSymbolTableRecord
100
AcDbLinetypeTableRecord
  2
ByLayer
 70
     0
  3

 72
    65
 73
     0
 40
0.0
  0
LTYPE
  5
16
330
5
100
AcDbSymbolTableRecord
100
AcDbLinetypeTableRecord
  2
Continuous
 70
     0
  3
Solid line
 72
    65
 73
     0
 40
0.0
  0
LTYPE
  5
7A
330
5
100
AcDbSymbolTableRecord
100
AcDbLinetypeTableRecord
  2
DOT2
 70
     0
  3
Dot (.5x) ........................................
 72
    65
 73
     2
 40
3.175
 49
0.0
 74
     4
 75
     0
340
0
 46
0.0
 50
0.0
 44
0.0
 45
0.0
 49
-3.175
 74
     4
 75
     0
340
0
 46
0.0
 50
0.0
 44
0.0
 45
0.0
  0
ENDTAB
  0
TABLE
  2
LAYER
  5
2
330
0
100
AcDbSymbolTable
 70
    10
  0
LAYER
  5
10
330
2
100
AcDbSymbolTableRecord
100
AcDbLayerTableRecord
  2
0
 70
     0
 62
     7
  6
Continuous
370
    -3
390
F
347
46
  0
LAYER
  5
6E
330
2
100
AcDbSymbolTableRecord
100
AcDbLayerTableRecord
  2
Default
 70
     0
 62
     7
  6
Continuous
370
    -3
390
F
347
46
  0
LAYER
  5
91
330
2
100
AcDbSymbolTableRecord
100
AcDbLayerTableRecord
  2
TAPACOM230
 70
     0
 62
     7
  6
Continuous
370
    -3
390
F
347
46
  0
LAYER
  5
97
330
2
100
AcDbSymbolTableRecord
100
AcDbLayerTableRecord
  2
EXHAUST230
 70
     0
 62
     7
  6
Continuous
370
    -3
390
F
347
46
  0
LAYER
  5
BF
330
2
100
AcDbSymbolTableRecord
100
AcDbLayerTableRecord
  2
TORX3X6
 70
     0
 62
     7
  6
Continuous
370
    -3
390
F
347
46
  0
LAYER
  5
C7
330
2
100
AcDbSymbolTableRecord
100
AcDbLayerTableRecord
  2
SOPSTARTBL_243_2
 70
     0
 62
     7
  6
Continuous
370
    -3
390
F
347
46
  0
LAYER
  5
F9
330
2
100
AcDbSymbolTableRecord
100
AcDbLayerTableRecord
  2
TAPSTARTINT24
 70
     0
 62
     7
  6
Continuous
370
    -3
390
F
347
46
  0
LAYER
  5
109
330
2
100
AcDbSymbolTableRecord
100
AcDbLayerTableRecord
  2
CARCASA230
 70
     0
 62
     7
  6
Continuous
370
    -3
390
F
347
46
  0
LAYER
  5
121
330
2
100
AcDbSymbolTableRecord
100
AcDbLayerTableRecord
  2
TAPASENSX230
 70
     0
 62
     7
  6
Continuous
370
    -3
390
F
347
46
  0
LAYER
  5
12F
330
2
100
AcDbSymbolTableRecord
100
AcDbLayerTableRecord
  2
FESTOCOLM5T4
 70
     0
 62
     7
  6
Continuous
370
    -3
390
F
347
46
  0
ENDTAB
  0
TABLE
  2
STYLE
  5
3
330
0
100
AcDbSymbolTable
 70
     2
  0
STYLE
  5
11
330
3
100
AcDbSymbolTableRecord
100
AcDbTextStyleTableRecord
  2
Standard
 70
     0
 40
0.0
 41
1.0
 50
0.0
 71
     0
 42
3.5
  3
txt
  4

  0
STYLE
  5
155
330
3
100
AcDbSymbolTableRecord
100
AcDbTextStyleTableRecord
  2
SEACAD_Solid_Edge_ISO
 70
     0
 40
0.0
 41
1.0
 50
0.0
 71
     0
 42
5.0
  3
seiso.ttf
  4

1001
ACAD
1000
Solid Edge ISO
1071
        0
  0
ENDTAB
  0
TABLE
  2
VIEW
  5
6
330
0
100
AcDbSymbolTable
 70
     0
  0
ENDTAB
  0
TABLE
  2
UCS
  5
7
330
0
100
AcDbSymbolTable
 70
     0
  0
ENDTAB
  0
TABLE
  2
APPID
  5
9
330
0
100
AcDbSymbolTable
 70
     2
  0
APPID
  5
12
330
9
100
AcDbSymbolTableRecord
100
AcDbRegAppTableRecord
  2
ACAD
 70
     0
  0
APPID
  5
207
330
9
100
AcDbSymbolTableRecord
100
AcDbRegAppTableRecord
  2
ACAD_MLEADERVER
 70
     0
  0
ENDTAB
  0
TABLE
  2
DIMSTYLE
  5
A
330
0
100
AcDbSymbolTable
 70
     3
100
AcDbDimStyleTable
  0
DIMSTYLE
105
27
330
A
100
AcDbSymbolTableRecord
100
AcDbDimStyleTableRecord
  2
ISO-25
 70
     0
 41
2.5
 42
0.625
 43
3.75
 44
1.25
 73
     0
 74
     0
 77
     1
 78
     8
140
2.5
141
2.5
143
0.0393700787
147
0.625
171
     3
172
     1
178
     0
271
     2
272
     2
274
     3
278
    44
283
     0
284
     8
340
11
  0
DIMSTYLE
105
146
330
A
100
AcDbSymbolTableRecord
100
AcDbDimStyleTableRecord
  2
Standard
 70
     0
178
     0
340
11
  0
DIMSTYLE
105
156
102
{ACAD_REACTORS
330
157
330
161
330
16B
330
176
330
180
330
18A
330
194
330
19F
330
1A9
330
1B4
330
1BE
330
1C9
102
}
330
A
100
AcDbSymbolTableRecord
100
AcDbDimStyleTableRecord
  2
ISO_(mm)
 70
     0
 41
3.5
 42
0.0
 44
1.75
 73
     0
 74
     0
 77
     1
 78
     8
140
3.5
141
1.75
143
0.0393700787
146
0.5
147
0.875
172
     1
173
     1
178
     0
271
     1
272
     2
278
    44
283
     0
284
     8
340
155
343
150
344
150
  0
ENDTAB
  0
TABLE
  2
BLOCK_RECORD
  5
1
330
0
100
AcDbSymbolTable
 70
    20
  0
BLOCK_RECORD
  5
1F
330
1
100
AcDbSymbolTableRecord
100
AcDbBlockTableRecord
  2
*Model_Space
340
22
 70
     0
280
     1
281
     0
  0
BLOCK_RECORD
  5
1B
330
1
100
AcDbSymbolTableRecord
100
AcDbBlockTableRecord
  2
*Paper_Space
340
1E
 70
     0
280
     1
281
     0
  0
BLOCK_RECORD
  5
8F
330
1
100
AcDbSymbolTableRecord
100
AcDbBlockTableRecord
  2
SE
340
0
102
{BLKREFS
331
90
102
}
 70
     0
280
     1
281
     0
  0
BLOCK_RECORD
  5
147
330
1
100
AcDbSymbolTableRecord
100
AcDbBlockTableRecord
  2
_Oblique
340
0
 70
     0
280
     1
281
     0
  0
BLOCK_RECORD
  5
14B
330
1
100
AcDbSymbolTableRecord
100
AcDbBlockTableRecord
  2
_Dot
340
0
 70
     0
280
     1
281
     0
  0
BLOCK_RECORD
  5
150
330
1
100
AcDbSymbolTableRecord
100
AcDbBlockTableRecord
  2
_SE_FILLED
340
0
 70
     0
280
     1
281
     0
  0
BLOCK_RECORD
  5
158
330
1
100
AcDbSymbolTableRecord
100
AcDbBlockTableRecord
  2
DMBLK1
340
0
 70
     0
280
     1
281
     0
  0
BLOCK_RECORD
  5
162
330
1
100
AcDbSymbolTableRecord
100
AcDbBlockTableRecord
  2
DMBLK2
340
0
 70
     0
280
     1
281
     0
  0
BLOCK_RECORD
  5
16C
330
1
100
AcDbSymbolTableRecord
100
AcDbBlockTableRecord
  2
DMBLK3
340
0
 70
     0
280
     1
281
     0
  0
BLOCK_RECORD
  5
177
330
1
100
AcDbSymbolTableRecord
100
AcDbBlockTableRecord
  2
DMBLK4
340
0
 70
     0
280
     1
281
     0
  0
BLOCK_RECORD
  5
181
330
1
100
AcDbSymbolTableRecord
100
AcDbBlockTableRecord
  2
DMBLK5
340
0
 70
     0
280
     1
281
     0
  0
BLOCK_RECORD
  5
18B
330
1
100
AcDbSymbolTableRecord
100
AcDbBlockTableRecord
  2
DMBLK6
340
0
 70
     0
280
     1
281
     0
  0
BLOCK_RECORD
  5
195
330
1
100
AcDbSymbolTableRecord
100
AcDbBlockTableRecord
  2
DMBLK7
340
0
 70
     0
280
     1
281
     0
  0
BLOCK_RECORD
  5
1A0
330
1
100
AcDbSymbolTableRecord
100
AcDbBlockTableRecord
  2
DMBLK8
340
0
 70
     0
280
     1
281
     0
  0
BLOCK_RECORD
  5
1AA
330
1
100
AcDbSymbolTableRecord
100
AcDbBlockTableRecord
  2
DMBLK9
340
0
 70
     0
280
     1
281
     0
  0
BLOCK_RECORD
  5
1B5
330
1
100
AcDbSymbolTableRecord
100
AcDbBlockTableRecord
  2
DMBLK10
340
0
 70
     0
280
     1
281
     0
  0
BLOCK_RECORD
  5
1BF
330
1
100
AcDbSymbolTableRecord
100
AcDbBlockTableRecord
  2
DMBLK11
340
0
 70
     0
280
     1
281
     0
  0
BLOCK_RECORD
  5
1CA
330
1
100
AcDbSymbolTableRecord
100
AcDbBlockTableRecord
  2
DMBLK12
340
0
 70
     0
280
     1
281
     0
  0
BLOCK_RECORD
  5
1EF
330
1
100
AcDbSymbolTableRecord
100
AcDbBlockTableRecord
  2
SEANNOT_GROUP
340
0
102
{BLKREFS
331
1F0
102
}
 70
     0
280
     1
281
     0
  0
BLOCK_RECORD
  5
1F9
330
1
100
AcDbSymbolTableRecord
100
AcDbBlockTableRecord
  2
SEANNOT_GROUP1
340
0
102
{BLKREFS
331
1FA
102
}
 70
     0
280
     1
281
     0
  0
BLOCK_RECORD
  5
200
330
1
100
AcDbSymbolTableRecord
100
AcDbBlockTableRecord
  2
SEANNOT_GROUP2
340
0
102
{BLKREFS
331
201
102
}
 70
     0
280
     1
281
     0
  0
ENDTAB
  0
ENDSEC
  0
SECTION
  2
BLOCKS
  0
BLOCK
  5
20
330
1F
100
AcDbEntity
  8
0
100
AcDbBlockBegin
  2
*Model_Space
 70
     0
 10
0.0
 20
0.0
 30
0.0
  3
*Model_Space
  1

  0
ENDBLK
  5
21
330
1F
100
AcDbEntity
  8
0
100
AcDbBlockEnd
  0
BLOCK
  5
1C
330
1B
100
AcDbEntity
 67
     1
  8
0
100
AcDbBlockBegin
  2
*Paper_Space
 70
     0
 10
0.0
 20
0.0
 30
0.0
  3
*Paper_Space
  1

  0
ENDBLK
  5
1D
330
1B
100
AcDbEntity
 67
     1
  8
0
100
AcDbBlockEnd
  0
BLOCK
  5
144
330
8F
100
AcDbEntity
  8
0
100
AcDbBlockBegin
  2
SE
 70
     0
 10
0.0
 20
0.0
 30
0.0
  3
SE
  1

  0
LINE
  5
92
330
8F
100
AcDbEntity
  8
TAPACOM230
  6
Continuous
 62
     7
100
AcDbLine
 10
115.2453863937
 20
217.1699222428
 30
0.0
 11
115.2453863937
 21
170.5738394613
 31
0.0
  0
SPLINE
  5
93
330
8F
100
AcDbEntity
  8
TAPACOM230
  6
Continuous
 62
     7
100
AcDbSpline
210
0.0
220
0.0
230
1.0
 70
    11
 71
     3
 72
    62
 73
    58
 74
     0
 42
0.000000001
 43
0.0000000001
 40
0.0
 40
0.0
 40
0.0
 40
0.0
 40
0.0536962824203661
 40
0.0536962824203661
 40
0.0536962824203661
 40
0.1073920541323995
 40
0.1073920541323995
 40
0.1073920541323995
 40
0.1610954848341253
 40
0.1610954848341253
 40
0.1610954848341253
 40
0.2148041381264699
 40
0.2148041381264699
 40
0.2148041381264699
 40
0.2685045330750651
 40
0.2685045330750651
 40
0.2685045330750651
 40
0.3221960792687095
 40
0.3221960792687095
 40
0.3221960792687095
 40
0.3758919985695888
 40
0.3758919985695888
 40
0.3758919985695888
 40
0.4295986855951538
 40
0.4295986855951538
 40
0.4295986855951538
 40
0.4833057295871719
 40
0.4833057295871719
 40
0.4833057295871719
 40
0.5370021642131176
 40
0.5370021642131176
 40
0.5370021642131176
 40
0.5906935840518308
 40
0.5906935840518308
 40
0.5906935840518308
 40
0.6443934051294347
 40
0.6443934051294347
 40
0.6443934051294347
 40
0.6981019370016678
 40
0.6981019370016678
 40
0.6981019370016678
 40
0.7518058908801294
 40
0.7518058908801294
 40
0.7518058908801294
 40
0.805499119784203
 40
0.805499119784203
 40
0.805499119784203
 40
0.8591922196560459
 40
0.8591922196560459
 40
0.8591922196560459
 40
0.9128959852776587
 40
0.9128959852776587
 40
0.9128959852776587
 40
0.9666045653997142
 40
0.9666045653997142
 40
0.9666045653997142
 40
1.0
 40
1.0
 40
1.0
 40
1.0
 10
160.3839529418323
 20
186.5646019745642
 30
0.0
 10
160.3839529418323
 20
186.6982158825284
 30
0.0
 10
160.3601999599006
 20
186.8335493938119
 30
0.0
 10
160.314662593036
 20
186.9594137207916
 30
0.0
 10
160.269125472342
 20
187.0852773673609
 30
0.0
 10
160.2005490450391
 20
187.2051449475915
 30
0.0
 10
160.1146115336657
 20
187.3091438627049
 30
0.0
 10
160.028661964882
 20
187.4131573693229
 30
0.0
 10
159.9229759662604
 20
187.5041692977913
 30
0.0
 10
159.8063017452203
 20
187.5747021042799
 30
0.0
 10
159.6896168591306
 20
187.6452413580872
 30
0.0
 10
159.5587223665633
 20
187.6972456350063
 30
0.0
 10
159.4244590145486
 20
187.7264456435242
 30
0.0
 10
159.2902161344226
 20
187.7556411997524
 30
0.0
 10
159.148902219511
 20
187.7628456521833
 30
0.0
 10
159.0122230817049
 20
187.7474677529858
 30
0.0
 10
158.8755655904776
 20
187.7320922892654
 30
0.0
 10
158.7397726838269
 20
187.6937174863093
 30
0.0
 10
158.6160861784584
 20
187.6354916432278
 30
0.0
 10
158.4923894104317
 20
187.5772609689651
 30
0.0
 10
158.3773897389904
 20
187.4975685421933
 30
0.0
 10
158.2806040337297
 20
187.4029570101499
 30
0.0
 10
158.1837994747835
 20
187.3083270479461
 30
0.0
 10
158.1025459998785
 20
187.1961590471725
 30
0.0
 10
158.043572251503
 20
187.0756854798476
 30
0.0
 10
157.9845983496333
 20
186.9552115989599
 30
0.0
 10
157.9462779714403
 20
186.8231060818742
 30
0.0
 10
157.9317875003183
 20
186.6902819256292
 30
0.0
 10
157.9172998343143
 20
186.5574834819673
 30
0.0
 10
157.9262332803096
 20
186.4203031707404
 30
0.0
 10
157.9578473506573
 20
186.2901099336171
 30
0.0
 10
157.989458651191
 20
186.1599281031567
 30
0.0
 10
158.0446176357363
 20
186.033143338757
 30
0.0
 10
158.118756337584
 20
185.9202903660049
 30
0.0
 10
158.1929065352228
 20
185.8074198945083
 30
0.0
 10
158.2880869512894
 20
185.7053751223939
 30
0.0
 10
158.396419365792
 20
185.6226586150923
 30
0.0
 10
158.5047686594612
 20
185.5399292198134
 30
0.0
 10
158.6292632701707
 20
185.4742550474956
 30
0.0
 10
158.759594434009
 20
185.4311244250786
 30
0.0
 10
158.8899143064177
 20
185.3879975393457
 30
0.0
 10
159.0296650390722
 20
185.3662227650457
 30
0.0
 10
159.1672698489783
 20
185.3676230540746
 30
0.0
 10
159.3048479756514
 20
185.3690230715705
 30
0.0
 10
159.4440753843183
 20
185.3936274397696
 30
0.0
 10
159.5734233280635
 20
185.4393772465293
 30
0.0
 10
159.7027714704604
 20
185.4851271235513
 30
0.0
 10
159.8258071647624
 20
185.5532816619989
 30
0.0
 10
159.9323483418123
 20
185.6381492666897
 30
0.0
 10
160.0389102498542
 20
185.7230333850862
 30
0.0
 10
160.131910267011
 20
185.8269755144174
 30
0.0
 10
160.2036493555144
 20
185.941315155611
 30
0.0
 10
160.2753944647436
 20
186.0556643927951
 30
0.0
 10
160.3278537391261
 20
186.183565383554
 30
0.0
 10
160.3566798738074
 20
186.3143858099964
 30
0.0
 10
160.3747606828111
 20
186.3964411799046
 30
0.0
 10
160.3839529418323
 20
186.4807755849412
 30
0.0
 10
160.3839529418323
 20
186.5646019745642
 30
0.0
  0
ELLIPSE
  5
94
330
8F
100
AcDbEntity
  8
TAPACOM230
  6
Continuous
 62
     7
100
AcDbEllipse
 10
159.1544529418
 20
185.1320591783
 30
0.0
 11
-1.229499999999994
 21
1.700029006457271E-13
 31
0.0
210
0.0
220
0.0
230
1.0
 40
0.9710793127
 41
3.792739316019965
 42
5.634572975367563
  0
SPLINE
  5
95
330
8F
100
AcDbEntity
  8
TAPACOM230
  6
Continuous
 62
     7
100
AcDbSpline
210
0.0
220
0.0
230
1.0
 70
     8
 71
     3
 72
    29
 73
    25
 74
     0
 42
0.000000001
 43
0.0000000001
 40
0.5594774884875872
 40
0.5594774884875872
 40
0.5594774884875872
 40
0.5594774884875872
 40
0.5906935840518299
 40
0.5906935840518299
 40
0.5906935840518299
 40
0.644393405129434
 40
0.644393405129434
 40
0.644393405129434
 40
0.6981019370016672
 40
0.6981019370016672
 40
0.6981019370016672
 40
0.7518058908801288
 40
0.7518058908801288
 40
0.7518058908801288
 40
0.8054991197842024
 40
0.8054991197842024
 40
0.8054991197842024
 40
0.8591922196560454
 40
0.8591922196560454
 40
0.8591922196560454
 40
0.9128959852776586
 40
0.9128959852776586
 40
0.9128959852776586
 40
0.940908321245013
 40
0.940908321245013
 40
0.940908321245013
 40
0.940908321245013
 10
158.0095885308246
 20
122.9993443101778
 30
0.0
 10
158.0389637177316
 20
122.9603039255994
 30
0.0
 10
158.0756522287927
 20
122.9228140539185
 30
0.0
 10
158.118756337584
 20
122.8879477716822
 30
0.0
 10
158.1929065352228
 20
122.8279687629229
 30
0.0
 10
158.2880869512894
 20
122.7740906617267
 30
0.0
 10
158.396419365792
 20
122.7305704721556
 30
0.0
 10
158.5047686594612
 20
122.6870435017468
 30
0.0
 10
158.6292632701707
 20
122.6526676825419
 30
0.0
 10
158.759594434009
 20
122.6301206461384
 30
0.0
 10
158.8899143064177
 20
122.6075755631302
 30
0.0
 10
159.0296650390722
 20
122.5962295882131
 30
0.0
 10
159.1672698489783
 20
122.59696004117
 30
0.0
 10
159.3048479756514
 20
122.5976903524832
 30
0.0
 10
159.4440753843183
 20
122.6105126129314
 30
0.0
 10
159.5734233280635
 20
122.6344355043079
 30
0.0
 10
159.7027714704604
 20
122.6583584324251
 30
0.0
 10
159.8258071647624
 20
122.6940476339391
 30
0.0
 10
159.9323483418123
 20
122.7387227890832
 30
0.0
 10
160.0389102498542
 20
122.7834066372069
 30
0.0
 10
160.131910267011
 20
122.8383219015121
 30
0.0
 10
160.2036493555144
 20
122.8991241914979
 30
0.0
 10
160.2410688534639
 20
122.9308389959776
 30
0.0
 10
160.2732420920921
 20
122.9646142424836
 30
0.0
 10
160.2995522817715
 20
122.9996662522087
 30
0.0
  0
LINE
  5
96
330
8F
100
AcDbEntity
  8
TAPACOM230
  6
Continuous
 62
     7
100
AcDbLine
 10
115.2453863937
 20
165.2005424981
 30
0.0
 11
115.2453863937
 21
128.1775017431
 31
0.0
  0
LINE
  5
98
330
8F
100
AcDbEntity
  8
EXHAUST230
  6
Continuous
 62
     7
100
AcDbLine
 10
326.7847903853
 20
143.373711993
 30
0.0
 11
326.7847903853
 21
201.973711993
 31
0.0
  0
LINE
  5
99
330
8F
100
AcDbEntity
  8
EXHAUST230
  6
Continuous
 62
     7
100
AcDbLine
 10
281.0417557671
 20
134.4724183726
 30
0.0
 11
281.0417557671
 21
210.8750056134
 31
0.0
  0
LINE
  5
9A
330
8F
100
AcDbEntity
  8
EXHAUST230
  6
Continuous
 62
     7
100
AcDbLine
 10
277.1544529418
 20
167.4187148988
 30
0.0
 11
277.1544529418
 21
206.1913483112
 31
0.0
  0
LINE
  5
9B
330
8F
100
AcDbEntity
  8
EXHAUST230
  6
Continuous
 62
     7
100
AcDbLine
 10
277.1544529418
 20
167.4187148988
 30
0.0
 11
277.1544529418
 21
162.027677894
 31
0.0
  0
LINE
  5
9C
330
8F
100
AcDbEntity
  8
EXHAUST230
  6
Continuous
 62
     7
100
AcDbLine
 10
277.1544529418
 20
162.027677894
 30
0.0
 11
277.1544529418
 21
161.51329668
 31
0.0
  0
SPLINE
  5
9D
330
8F
100
AcDbEntity
  8
EXHAUST230
  6
Continuous
 62
     7
100
AcDbSpline
210
0.0
220
0.0
230
1.0
 70
     8
 71
     3
 72
    10
 73
     6
 74
     0
 42
0.000000001
 43
0.0000000001
 40
0.0
 40
0.0
 40
0.0
 40
0.0
 40
0.5
 40
0.5
 40
1.0
 40
1.0
 40
1.0
 40
1.0
 10
277.1544529418323
 20
161.5132966799512
 30
0.0
 10
277.1544529418323
 20
161.4900110502975
 30
0.0
 10
277.1005661838644
 20
161.4670643519329
 30
0.0
 10
276.9159283207288
 20
161.4342978897393
 30
0.0
 10
276.7862940883491
 20
161.4246850567414
 30
0.0
 10
276.6544529418323
 20
161.4246850567414
 30
0.0
  0
LINE
  5
9E
330
8F
100
AcDbEntity
  8
EXHAUST230
  6
Continuous
 62
     7
100
AcDbLine
 10
276.6544529418
 20
161.4246850567
 30
0.0
 11
275.6544529418
 21
161.4246850567
 31
0.0
  0
LINE
  5
9F
330
8F
100
AcDbEntity
  8
EXHAUST230
  6
Continuous
 62
     7
100
AcDbLine
 10
275.6544529418
 20
167.3301032756
 30
0.0
 11
276.6544529418
 21
167.3301032756
 31
0.0
  0
SPLINE
  5
A0
330
8F
100
AcDbEntity
  8
EXHAUST230
  6
Continuous
 62
     7
100
AcDbSpline
210
0.0
220
0.0
230
1.0
 70
     8
 71
     3
 72
    10
 73
     6
 74
     0
 42
0.000000001
 43
0.0000000001
 40
0.0
 40
0.0
 40
0.0
 40
0.0
 40
0.5
 40
0.5
 40
1.0
 40
1.0
 40
1.0
 40
1.0
 10
276.6544529418323
 20
167.3301032756049
 30
0.0
 10
276.7849833794031
 20
167.3301032756048
 30
0.0
 10
276.9165798679651
 20
167.3398028291494
 30
0.0
 10
277.1005405080389
 20
167.372507017981
 30
0.0
 10
277.1544529418323
 20
167.3956110355153
 30
0.0
 10
277.1544529418323
 20
167.4187148988147
 30
0.0
  0
LINE
  5
A1
330
8F
100
AcDbEntity
  8
EXHAUST230
  6
Continuous
 62
     7
100
AcDbLine
 10
277.1544529418
 20
130.0293881084
 30
0.0
 11
277.1544529418
 21
161.51329668
 31
0.0
  0
LINE
  5
A2
330
8F
100
AcDbEntity
  8
EXHAUST230
  6
Continuous
 62
     7
100
AcDbLine
 10
277.1544529418
 20
130.0293881084
 30
0.0
 11
277.1544529418
 21
127.9956603618
 31
0.0
  0
ARC
  5
A3
330
8F
100
AcDbEntity
  8
EXHAUST230
  6
Continuous
 62
     7
100
AcDbCircle
 10
276.6683784234
 20
128.0103857438
 30
0.0
 40
0.4862975162986148
100
AcDbArc
 50
268.3590695465
 51
358.2647840088
  0
LINE
  5
A4
330
8F
100
AcDbEntity
  8
EXHAUST230
  6
Continuous
 62
     7
100
AcDbLine
 10
276.6544529418
 20
127.5242876515
 30
0.0
 11
275.6544529418
 21
127.5242876515
 31
0.0
  0
LINE
  5
A5
330
8F
100
AcDbEntity
  8
EXHAUST230
  6
Continuous
 62
     7
100
AcDbLine
 10
275.6544529418
 20
129.5580153981
 30
0.0
 11
276.6544529418
 21
129.5580153981
 31
0.0
  0
ARC
  5
A6
330
8F
100
AcDbEntity
  8
EXHAUST230
  6
Continuous
 62
     7
100
AcDbCircle
 10
276.6683776163
 20
130.0441143464
 30
0.0
 40
0.4862983489205911
100
AcDbArc
 50
268.3591674848
 51
358.2646860705
  0
LINE
  5
A7
330
8F
100
AcDbEntity
  8
EXHAUST230
  6
Continuous
 62
     7
100
AcDbLine
 10
277.1544529418
 20
127.9956603618
 30
0.0
 11
277.1544529418
 21
126.1684068341
 31
0.0
  0
LINE
  5
A8
330
8F
100
AcDbEntity
  8
EXHAUST230
  6
Continuous
 62
     7
100
AcDbLine
 10
277.1544529418
 20
210.0630387834
 30
0.0
 11
277.1544529418
 21
219.1790171519
 31
0.0
  0
LINE
  5
A9
330
8F
100
AcDbEntity
  8
EXHAUST230
  6
Continuous
 62
     7
100
AcDbLine
 10
277.1544529418
 20
207.8411506663
 30
0.0
 11
277.1544529418
 21
206.1973023948
 31
0.0
  0
SPLINE
  5
AA
330
8F
100
AcDbEntity
  8
EXHAUST230
  6
Continuous
 62
     7
100
AcDbSpline
210
0.0
220
0.0
230
1.0
 70
     8
 71
     3
 72
    10
 73
     6
 74
     0
 42
0.000000001
 43
0.0000000001
 40
0.0
 40
0.0
 40
0.0
 40
0.0
 40
0.5
 40
0.5
 40
1.0
 40
1.0
 40
1.0
 40
1.0
 10
277.1544529418323
 20
206.191348311168
 30
0.0
 10
277.1544529418323
 20
206.2910572927358
 30
0.0
 10
277.1015368187067
 20
206.3902731973201
 30
0.0
 10
276.915122046378
 20
206.5332377138533
 30
0.0
 10
276.7866536737661
 20
206.5741093982535
 30
0.0
 10
276.6544529418323
 20
206.5741093982532
 30
0.0
  0
LINE
  5
AB
330
8F
100
AcDbEntity
  8
EXHAUST230
  6
Continuous
 62
     7
100
AcDbLine
 10
276.6544529418
 20
206.5741093983
 30
0.0
 11
275.6544529418
 21
206.5741093983
 31
0.0
  0
LINE
  5
AC
330
8F
100
AcDbEntity
  8
EXHAUST230
  6
Continuous
 62
     7
100
AcDbLine
 10
275.6544529418
 20
210.4457998705
 30
0.0
 11
276.6544529418
 21
210.4457998705
 31
0.0
  0
SPLINE
  5
AD
330
8F
100
AcDbEntity
  8
EXHAUST230
  6
Continuous
 62
     7
100
AcDbSpline
210
0.0
220
0.0
230
1.0
 70
     8
 71
     3
 72
    10
 73
     6
 74
     0
 42
0.000000001
 43
0.0000000001
 40
0.0
 40
0.0
 40
0.0
 40
0.0
 40
0.5
 40
0.5
 40
1.0
 40
1.0
 40
1.0
 40
1.0
 10
276.6544529418323
 20
210.4457998705191
 30
0.0
 10
276.78675721153
 20
210.4457998705191
 30
0.0
 10
276.9161158562986
 20
210.4041602127712
 30
0.0
 10
277.1005140137279
 20
210.2627538788022
 30
0.0
 10
277.1544529418323
 20
210.1628305490299
 30
0.0
 10
277.1544529418323
 20
210.0630387834338
 30
0.0
  0
LINE
  5
AE
330
8F
100
AcDbEntity
  8
EXHAUST230
  6
Continuous
 62
     7
100
AcDbLine
 10
277.1544529418
 20
210.0630387834
 30
0.0
 11
277.1544529418
 21
207.8411506663
 31
0.0
  0
ARC
  5
AF
330
8F
100
AcDbEntity
  8
EXHAUST230
  6
Continuous
 62
     7
100
AcDbCircle
 10
290.3417557671
 20
127.1332710741
 30
0.0
 40
83.241734539321
100
AcDbArc
 50
64.0365541188
 51
90.0
  0
ARC
  5
B0
330
8F
100
AcDbEntity
  8
EXHAUST230
  6
Continuous
 62
     7
100
AcDbCircle
 10
290.3417557671
 20
218.2141529119
 30
0.0
 40
83.241734539321
100
AcDbArc
 50
270.0
 51
295.9634458812
  0
LINE
  5
B1
330
8F
100
AcDbEntity
  8
EXHAUST230
  6
Continuous
 62
     7
100
AcDbLine
 10
281.4346914825
 20
134.9724183726
 30
0.0
 11
290.3417557671
 21
134.9724183726
 31
0.0
  0
LINE
  5
B2
330
8F
100
AcDbEntity
  8
EXHAUST230
  6
Continuous
 62
     7
100
AcDbLine
 10
290.3417557671
 20
210.3750056134
 30
0.0
 11
281.4346914825
 21
210.3750056134
 31
0.0
  0
ARC
  5
B3
330
8F
100
AcDbEntity
  8
EXHAUST230
  6
Continuous
 62
     7
100
AcDbCircle
 10
281.4346914825
 20
134.5794826572
 30
0.0
 40
0.3929357153301186
100
AcDbArc
 50
89.9999999996
 51
180.0
  0
ARC
  5
B4
330
8F
100
AcDbEntity
  8
EXHAUST230
  6
Continuous
 62
     7
100
AcDbCircle
 10
281.4346914825
 20
210.7679413287
 30
0.0
 40
0.3929357153301186
100
AcDbArc
 50
180.0
 51
270.0000000004
  0
ARC
  5
B5
330
8F
100
AcDbEntity
  8
EXHAUST230
  6
Continuous
 62
     7
100
AcDbCircle
 10
280.0417557671
 20
134.4724183726
 30
0.0
 40
0.999999999997031
100
AcDbArc
 50
270.0
 51
0.0
  0
ARC
  5
B6
330
8F
100
AcDbEntity
  8
EXHAUST230
  6
Continuous
 62
     7
100
AcDbCircle
 10
280.0417557671
 20
210.8750056134
 30
0.0
 40
0.999999999997031
100
AcDbArc
 50
0.0
 51
90.0
  0
LINE
  5
B7
330
8F
100
AcDbEntity
  8
EXHAUST230
  6
Continuous
 62
     7
100
AcDbLine
 10
277.6544529418
 20
133.4724183726
 30
0.0
 11
280.0417557671
 21
133.4724183726
 31
0.0
  0
LINE
  5
B8
330
8F
100
AcDbEntity
  8
EXHAUST230
  6
Continuous
 62
     7
100
AcDbLine
 10
280.0417557671
 20
211.8750056134
 30
0.0
 11
277.6544529418
 21
211.8750056134
 31
0.0
  0
ARC
  5
B9
330
8F
100
AcDbEntity
  8
EXHAUST230
  6
Continuous
 62
     7
100
AcDbCircle
 10
277.6544529418
 20
132.9724183726
 30
0.0
 40
0.4999999999999935
100
AcDbArc
 50
90.0
 51
180.0
  0
ARC
  5
BA
330
8F
100
AcDbEntity
  8
EXHAUST230
  6
Continuous
 62
     7
100
AcDbCircle
 10
277.6544529418
 20
212.3750056134
 30
0.0
 40
0.5000000000000004
100
AcDbArc
 50
180.0
 51
270.0
  0
ARC
  5
BB
330
8F
100
AcDbEntity
  8
EXHAUST230
  6
Continuous
 62
     7
100
AcDbCircle
 10
276.6544529418
 20
126.1684068341
 30
0.0
 40
0.4999999999999935
100
AcDbArc
 50
270.0
 51
360.0
  0
LINE
  5
BC
330
8F
100
AcDbEntity
  8
EXHAUST230
  6
Continuous
 62
     7
100
AcDbLine
 10
275.6544529418
 20
125.6684068341
 30
0.0
 11
276.6544529418
 21
125.6684068341
 31
0.0
  0
ARC
  5
BD
330
8F
100
AcDbEntity
  8
EXHAUST230
  6
Continuous
 62
     7
100
AcDbCircle
 10
276.6544529418
 20
219.1790171519
 30
0.0
 40
0.5000000000000004
100
AcDbArc
 50
0.0
 51
90.0
  0
LINE
  5
BE
330
8F
100
AcDbEntity
  8
EXHAUST230
  6
Continuous
 62
     7
100
AcDbLine
 10
276.6544529418
 20
219.6790171519
 30
0.0
 11
275.6544529418
 21
219.6790171519
 31
0.0
  0
LINE
  5
C0
330
8F
100
AcDbEntity
  8
TORX3X6
  6
Continuous
 62
     7
100
AcDbLine
 10
279.7544529398
 20
213.9791437675
 30
0.0
 11
279.7544529398
 21
216.996844392
 31
0.0
  0
ARC
  5
C1
330
8F
100
AcDbEntity
  8
TORX3X6
  6
Continuous
 62
     7
100
AcDbCircle
 10
278.2633032521
 20
216.996844392
 30
0.0
 40
1.491149687710483
100
AcDbArc
 50
0.0
 51
90.0
  0
ARC
  5
C2
330
8F
100
AcDbEntity
  8
TORX3X6
  6
Continuous
 62
     7
100
AcDbCircle
 10
278.2633032521
 20
213.9791437675
 30
0.0
 40
1.491149687710483
100
AcDbArc
 50
270.0
 51
0.0
  0
LINE
  5
C3
330
8F
100
AcDbEntity
  8
TORX3X6
  6
Continuous
 62
     7
100
AcDbLine
 10
278.2633032521
 20
218.4879940797
 30
0.0
 11
277.5957340861
 21
218.4879940797
 31
0.0
  0
LINE
  5
C4
330
8F
100
AcDbEntity
  8
TORX3X6
  6
Continuous
 62
     7
100
AcDbLine
 10
277.5957340861
 20
212.4879940797
 30
0.0
 11
278.2633032521
 21
212.4879940797
 31
0.0
  0
ARC
  5
C5
330
8F
100
AcDbEntity
  8
TORX3X6
  6
Continuous
 62
     7
100
AcDbCircle
 10
277.5957340861
 20
218.0467129355
 30
0.0
 40
0.441281144234397
100
AcDbArc
 50
90.0
 51
180.0
  0
ARC
  5
C6
330
8F
100
AcDbEntity
  8
TORX3X6
  6
Continuous
 62
     7
100
AcDbCircle
 10
277.5957340861
 20
212.929275224
 30
0.0
 40
0.441281144234397
100
AcDbArc
 50
180.0
 51
270.0
  0
LINE
  5
C8
330
8F
100
AcDbEntity
  8
SOPSTARTBL_243_2
  6
Continuous
 62
     7
100
AcDbLine
 10
69.4988320205
 20
161.833990134
 30
0.0
 11
69.4988320205
 21
183.513433852
 31
0.0
  0
LINE
  5
C9
330
8F
100
AcDbEntity
  8
SOPSTARTBL_243_2
  6
Continuous
 62
     7
100
AcDbLine
 10
109.51176663
 20
188.4502428945
 30
0.0
 11
109.51176663
 21
187.4261606897
 31
0.0
  0
LINE
  5
CA
330
8F
100
AcDbEntity
  8
SOPSTARTBL_243_2
  6
Continuous
 62
     7
100
AcDbLine
 10
109.51176663
 20
187.4261606897
 30
0.0
 11
109.51176663
 21
186.473711993
 31
0.0
  0
LINE
  5
CB
330
8F
100
AcDbEntity
  8
SOPSTARTBL_243_2
  6
Continuous
 62
     7
100
AcDbLine
 10
109.51176663
 20
186.473711993
 30
0.0
 11
109.51176663
 21
174.6626185264
 31
0.0
  0
LINE
  5
CC
330
8F
100
AcDbEntity
  8
SOPSTARTBL_243_2
  6
Continuous
 62
     7
100
AcDbLine
 10
109.51176663
 20
174.6626185264
 30
0.0
 11
109.51176663
 21
172.9666824182
 31
0.0
  0
LINE
  5
CD
330
8F
100
AcDbEntity
  8
SOPSTARTBL_243_2
  6
Continuous
 62
     7
100
AcDbLine
 10
109.51176663
 20
172.9666824182
 30
0.0
 11
109.51176663
 21
172.8255811045
 31
0.0
  0
LINE
  5
CE
330
8F
100
AcDbEntity
  8
SOPSTARTBL_243_2
  6
Continuous
 62
     7
100
AcDbLine
 10
109.51176663
 20
168.0972731576
 30
0.0
 11
109.51176663
 21
167.7871626975
 31
0.0
  0
LINE
  5
CF
330
8F
100
AcDbEntity
  8
SOPSTARTBL_243_2
  6
Continuous
 62
     7
100
AcDbLine
 10
109.51176663
 20
167.7871626975
 30
0.0
 11
109.51176663
 21
158.873711993
 31
0.0
  0
LINE
  5
D0
330
8F
100
AcDbEntity
  8
SOPSTARTBL_243_2
  6
Continuous
 62
     7
100
AcDbLine
 10
109.51176663
 20
158.873711993
 30
0.0
 11
109.51176663
 21
158.0343198074
 31
0.0
  0
LINE
  5
D1
330
8F
100
AcDbEntity
  8
SOPSTARTBL_243_2
  6
Continuous
 62
     7
100
AcDbLine
 10
112.1332083438
 20
188.4502428945
 30
0.0
 11
112.1332083438
 21
186.8739886475
 31
0.0
  0
LINE
  5
D2
330
8F
100
AcDbEntity
  8
SOPSTARTBL_243_2
  6
Continuous
 62
     7
100
AcDbLine
 10
112.1332083438
 20
160.9864187847
 30
0.0
 11
112.1332083438
 21
158.0343198074
 31
0.0
  0
LINE
  5
D3
330
8F
100
AcDbEntity
  8
SOPSTARTBL_243_2
  6
Continuous
 62
     7
100
AcDbLine
 10
104.2159642906
 20
168.0856897151
 30
0.0
 11
104.2159642906
 21
174.3404389016
 31
0.0
  0
LINE
  5
D4
330
8F
100
AcDbEntity
  8
SOPSTARTBL_243_2
  6
Continuous
 62
     7
100
AcDbLine
 10
100.2611439903
 20
174.3404389016
 30
0.0
 11
100.2611439903
 21
186.5049782141
 31
0.0
  0
LINE
  5
D5
330
8F
100
AcDbEntity
  8
SOPSTARTBL_243_2
  6
Continuous
 62
     7
100
AcDbLine
 10
100.2611439903
 20
158.8424457719
 30
0.0
 11
100.2611439903
 21
168.0856897151
 31
0.0
  0
LINE
  5
D6
330
8F
100
AcDbEntity
  8
SOPSTARTBL_243_2
  6
Continuous
 62
     7
100
AcDbLine
 10
115.2453863937
 20
149.3650780981
 30
0.0
 11
112.1332083438
 21
160.9864187847
 31
0.0
  0
LINE
  5
D7
330
8F
100
AcDbEntity
  8
SOPSTARTBL_243_2
  6
Continuous
 62
     7
100
AcDbLine
 10
112.1332083438
 20
160.9864187847
 30
0.0
 11
111.01176663
 21
160.9864187847
 31
0.0
  0
ARC
  5
D8
330
8F
100
AcDbEntity
  8
SOPSTARTBL_243_2
  6
Continuous
 62
     7
100
AcDbCircle
 10
5444.7970300321
 20
2916.3601577174
 30
0.0
 40
6009.83838939144
100
AcDbArc
 50
207.3115518204
 51
207.5255934813
  0
LINE
  5
D9
330
8F
100
AcDbEntity
  8
SOPSTARTBL_243_2
  6
Continuous
 62
     7
100
AcDbLine
 10
109.51176663
 20
158.0343198074
 30
0.0
 11
112.1332083438
 21
158.0343198074
 31
0.0
  0
LINE
  5
DA
330
8F
100
AcDbEntity
  8
SOPSTARTBL_243_2
  6
Continuous
 62
     7
100
AcDbLine
 10
112.1332083438
 20
158.0343198074
 30
0.0
 11
115.2453863937
 21
146.4129791209
 31
0.0
  0
LINE
  5
DB
330
8F
100
AcDbEntity
  8
SOPSTARTBL_243_2
  6
Continuous
 62
     7
100
AcDbLine
 10
100.2611439903
 20
168.0856897151
 30
0.0
 11
104.2159642906
 21
168.0856897151
 31
0.0
  0
SPLINE
  5
DC
330
8F
100
AcDbEntity
  8
SOPSTARTBL_243_2
  6
Continuous
 62
     7
100
AcDbSpline
210
0.0
220
0.0
230
1.0
 70
     8
 71
     3
 72
    12
 73
     8
 74
     0
 42
0.000000001
 43
0.0000000001
 40
0.0
 40
0.0
 40
0.0
 40
0.0
 40
0.2500000000000003
 40
0.2500000000000003
 40
0.5000000000000006
 40
0.5000000000000006
 40
1.0
 40
1.0
 40
1.0
 40
1.0
 10
104.2159642905925
 20
168.0856897150928
 30
0.0
 10
104.2316827491343
 20
168.257145729676
 30
0.0
 10
104.260537114822
 20
168.4083132993658
 30
0.0
 10
104.3416898997009
 20
168.6729412071082
 30
0.0
 10
104.392826025944
 20
168.7817093603004
 30
0.0
 10
104.5696100761027
 20
169.0354014076663
 30
0.0
 10
104.7160547749058
 20
169.1037108243434
 30
0.0
 10
104.8687634897617
 20
169.0709999158371
 30
0.0
  0
LINE
  5
DD
330
8F
100
AcDbEntity
  8
SOPSTARTBL_243_2
  6
Continuous
 62
     7
100
AcDbLine
 10
104.8687634898
 20
169.0709999158
 30
0.0
 11
114.9925513067
 21
166.916798633
 31
0.0
  0
LINE
  5
DE
330
8F
100
AcDbEntity
  8
SOPSTARTBL_243_2
  6
Continuous
 62
     7
100
AcDbLine
 10
114.9925513067
 20
166.916798633
 30
0.0
 11
115.2453863937
 21
166.7729350631
 31
0.0
  0
LINE
  5
DF
330
8F
100
AcDbEntity
  8
SOPSTARTBL_243_2
  6
Continuous
 62
     7
100
AcDbLine
 10
115.2453863937
 20
169.9505806618
 30
0.0
 11
114.9928964957
 21
169.9352805727
 31
0.0
  0
ARC
  5
E0
330
8F
100
AcDbEntity
  8
SOPSTARTBL_243_2
  6
Continuous
 62
     7
100
AcDbCircle
 10
1639.6353652935
 20
5279.3645528343
 30
0.0
 40
5332.054214456665
100
AcDbArc
 50
253.2714696821
 51
253.3850122482
  0
LINE
  5
E1
330
8F
100
AcDbEntity
  8
SOPSTARTBL_243_2
  6
Continuous
 62
     7
100
AcDbLine
 10
109.51176663
 20
172.8255811045
 30
0.0
 11
112.1332083438
 21
172.8255811045
 31
0.0
  0
LINE
  5
E2
330
8F
100
AcDbEntity
  8
SOPSTARTBL_243_2
  6
Continuous
 62
     7
100
AcDbLine
 10
112.1332083438
 20
172.8255811045
 30
0.0
 11
115.2453863937
 21
171.0200118426
 31
0.0
  0
SPLINE
  5
E3
330
8F
100
AcDbEntity
  8
SOPSTARTBL_243_2
  6
Continuous
 62
     7
100
AcDbSpline
210
0.0
220
0.0
230
1.0
 70
     8
 71
     3
 72
    14
 73
    10
 74
     0
 42
0.000000001
 43
0.0000000001
 40
0.0
 40
0.0
 40
0.0
 40
0.0
 40
0.25
 40
0.25
 40
0.5
 40
0.5
 40
0.75
 40
0.75
 40
1.0
 40
1.0
 40
1.0
 40
1.0
 10
104.8705836687821
 20
172.9666824182182
 30
0.0
 10
104.7939008967525
 20
172.9897955808279
 30
0.0
 10
104.7201098212105
 20
173.0372421734226
 30
0.0
 10
104.578912145521
 20
173.1811843072205
 30
0.0
 10
104.5119514309591
 20
173.2782832033949
 30
0.0
 10
104.394440884912
 20
173.514149220899
 30
0.0
 10
104.3421374405661
 20
173.6570284696405
 30
0.0
 10
104.2613019829103
 20
173.9740609223071
 30
0.0
 10
104.2317584692984
 20
174.1505697896528
 30
0.0
 10
104.2159642905925
 20
174.3404389015735
 30
0.0
  0
LINE
  5
E4
330
8F
100
AcDbEntity
  8
SOPSTARTBL_243_2
  6
Continuous
 62
     7
100
AcDbLine
 10
104.2159642906
 20
174.3404389016
 30
0.0
 11
100.2611439903
 21
174.3404389016
 31
0.0
  0
SPLINE
  5
E5
330
8F
100
AcDbEntity
  8
SOPSTARTBL_243_2
  6
Continuous
 62
     7
100
AcDbSpline
210
0.0
220
0.0
230
1.0
 70
     8
 71
     3
 72
    10
 73
     6
 74
     0
 42
0.000000001
 43
0.0000000001
 40
0.3711147753792439
 40
0.3711147753792439
 40
0.3711147753792439
 40
0.3711147753792439
 40
0.500000000000001
 40
0.500000000000001
 40
1.0
 40
1.0
 40
1.0
 40
1.0
 10
104.3672067281476
 20
186.4543428232899
 30
0.0
 10
104.3930653806089
 20
186.495746819913
 30
0.0
 10
104.4213742351201
 20
186.5434162204415
 30
0.0
 10
104.5696100675615
 20
186.8039171530368
 30
0.0
 10
104.716054747753
 20
187.0933815196869
 30
0.0
 10
104.8687634895989
 20
187.4261606896648
 30
0.0
  0
LINE
  5
E6
330
8F
100
AcDbEntity
  8
SOPSTARTBL_243_2
  6
Continuous
 62
     7
100
AcDbLine
 10
104.8687634896
 20
187.4261606897
 30
0.0
 11
114.9925512694
 21
209.3415772362
 31
0.0
  0
LINE
  5
E7
330
8F
100
AcDbEntity
  8
SOPSTARTBL_243_2
  6
Continuous
 62
     7
100
AcDbLine
 10
115.2453863937
 20
201.5015154781
 30
0.0
 11
112.1332083438
 21
188.4502428945
 31
0.0
  0
LINE
  5
E8
330
8F
100
AcDbEntity
  8
SOPSTARTBL_243_2
  6
Continuous
 62
     7
100
AcDbLine
 10
112.1332083438
 20
188.4502428945
 30
0.0
 11
109.51176663
 21
188.4502428945
 31
0.0
  0
LINE
  5
E9
330
8F
100
AcDbEntity
  8
SOPSTARTBL_243_2
  6
Continuous
 62
     7
100
AcDbLine
 10
114.9925512694
 20
209.3415772362
 30
0.0
 11
115.2453863937
 21
209.9210304295
 31
0.0
  0
LINE
  5
EA
330
8F
100
AcDbEntity
  8
SOPSTARTBL_243_2
  6
Continuous
 62
     7
100
AcDbLine
 10
111.01176663
 20
186.8739886475
 30
0.0
 11
112.1332083438
 21
186.8739886475
 31
0.0
  0
LINE
  5
EB
330
8F
100
AcDbEntity
  8
SOPSTARTBL_243_2
  6
Continuous
 62
     7
100
AcDbLine
 10
112.1332083438
 20
186.8739886475
 30
0.0
 11
115.2453863937
 21
200.1276453643
 31
0.0
  0
ARC
  5
EC
330
8F
100
AcDbEntity
  8
SOPSTARTBL_243_2
  6
Continuous
 62
     7
100
AcDbCircle
 10
105.8867107378
 20
171.1522788998
 30
0.0
 40
1.580325638357086
100
AcDbArc
 50
150.4631108046
 51
209.5368891954
  0
SPLINE
  5
ED
330
8F
100
AcDbEntity
  8
SOPSTARTBL_243_2
  6
Continuous
 62
     7
100
AcDbSpline
210
0.0
220
0.0
230
1.0
 70
     8
 71
     3
 72
    35
 73
    31
 74
     0
 42
0.000000001
 43
0.0000000001
 40
0.0
 40
0.0
 40
0.0
 40
0.0
 40
0.1198172128840754
 40
0.1198172128840754
 40
0.1198172128840754
 40
0.2401780937356675
 40
0.2401780937356675
 40
0.2401780937356675
 40
0.3547817043446088
 40
0.3547817043446088
 40
0.3547817043446088
 40
0.4604752527074084
 40
0.4604752527074084
 40
0.4604752527074084
 40
0.5595234278701603
 40
0.5595234278701603
 40
0.5595234278701603
 40
0.6564153167595842
 40
0.6564153167595842
 40
0.6564153167595842
 40
0.7556703465135555
 40
0.7556703465135555
 40
0.7556703465135555
 40
0.8608074843682735
 40
0.8608074843682735
 40
0.8608074843682735
 40
0.9736790026588981
 40
0.9736790026588981
 40
0.9736790026588981
 40
1.0
 40
1.0
 40
1.0
 40
1.0
 10
104.5117666300031
 20
170.3732039202356
 30
0.0
 10
104.5507094223201
 20
170.3650152923609
 30
0.0
 10
104.5897662272658
 20
170.373500776902
 30
0.0
 10
104.6257904532431
 20
170.3985778570623
 30
0.0
 10
104.6619331682698
 20
170.4237374194776
 30
0.0
 10
104.6960760663283
 20
170.4664586992877
 30
0.0
 10
104.7249851945337
 20
170.52401855788
 30
0.0
 10
104.752507127281
 20
170.5788164246945
 30
0.0
 10
104.7761095275323
 20
170.6488605701949
 30
0.0
 10
104.7932596847309
 20
170.7282665796865
 30
0.0
 10
104.8090966178938
 20
170.8015923020394
 30
0.0
 10
104.8198949391602
 20
170.8851367381755
 30
0.0
 10
104.8244775888293
 20
170.9713251981462
 30
0.0
 10
104.8287789961475
 20
171.052224175645
 30
0.0
 10
104.8277352832177
 20
171.137737076797
 30
0.0
 10
104.821452538698
 20
171.2204905565769
 30
0.0
 10
104.8152997358381
 20
171.3015325033668
 30
0.0
 10
104.8039795035733
 20
171.3820919297469
 30
0.0
 10
104.7885225368766
 20
171.4559817057385
 30
0.0
 10
104.7726823934606
 20
171.5317032021777
 30
0.0
 10
104.7521144959474
 20
171.602379533513
 30
0.0
 10
104.7284932896014
 20
171.6632839715573
 30
0.0
 10
104.703478524142
 20
171.7277815340779
 30
0.0
 10
104.6744255130607
 20
171.7829792383611
 30
0.0
 10
104.6435092317304
 20
171.8256321238832
 30
0.0
 10
104.6103443519297
 20
171.871387232862
 30
0.0
 10
104.5741933660977
 20
171.9039066122896
 30
0.0
 10
104.5377074799866
 20
171.9213969174825
 30
0.0
 10
104.5290982256717
 20
171.9255239512893
 30
0.0
 10
104.5204398156878
 20
171.928846335846
 30
0.0
 10
104.5117666300031
 20
171.9313538792906
 30
0.0
  0
LINE
  5
EE
330
8F
100
AcDbEntity
  8
SOPSTARTBL_243_2
  6
Continuous
 62
     7
100
AcDbLine
 10
104.51176663
 20
171.9313538793
 30
0.0
 11
104.51176663
 21
170.3732039202
 31
0.0
  0
ARC
  5
EF
330
8F
100
AcDbEntity
  8
SOPSTARTBL_243_2
  6
Continuous
 62
     7
100
AcDbCircle
 10
72.4903763825
 20
159.8424457719
 30
0.0
 40
1.000000000000017
100
AcDbArc
 50
225.0
 51
270.0
  0
ARC
  5
F0
330
8F
100
AcDbEntity
  8
SOPSTARTBL_243_2
  6
Continuous
 62
     7
100
AcDbCircle
 10
72.4903763825
 20
185.5049782141
 30
0.0
 40
0.9999999999999991
100
AcDbArc
 50
90.0
 51
135.0
  0
LINE
  5
F1
330
8F
100
AcDbEntity
  8
SOPSTARTBL_243_2
  6
Continuous
 62
     7
100
AcDbLine
 10
71.7832696014
 20
186.2120849952
 30
0.0
 11
69.7917252393
 21
184.2205406332
 31
0.0
  0
LINE
  5
F2
330
8F
100
AcDbEntity
  8
SOPSTARTBL_243_2
  6
Continuous
 62
     7
100
AcDbLine
 10
69.7917252393
 20
161.1268833528
 30
0.0
 11
71.7832696014
 21
159.1353389907
 31
0.0
  0
ARC
  5
F3
330
8F
100
AcDbEntity
  8
SOPSTARTBL_243_2
  6
Continuous
 62
     7
100
AcDbCircle
 10
70.4988320205
 20
161.833990134
 30
0.0
 40
1.000000000000001
100
AcDbArc
 50
180.0
 51
225.0
  0
ARC
  5
F4
330
8F
100
AcDbEntity
  8
SOPSTARTBL_243_2
  6
Continuous
 62
     7
100
AcDbCircle
 10
70.4988320205
 20
183.513433852
 30
0.0
 40
0.9999999999999795
100
AcDbArc
 50
135.0
 51
180.0
  0
LINE
  5
F5
330
8F
100
AcDbEntity
  8
SOPSTARTBL_243_2
  6
Continuous
 62
     7
100
AcDbLine
 10
72.4903763825
 20
158.8424457719
 30
0.0
 11
100.2611439903
 21
158.8424457719
 31
0.0
  0
LINE
  5
F6
330
8F
100
AcDbEntity
  8
SOPSTARTBL_243_2
  6
Continuous
 62
     7
100
AcDbLine
 10
100.2611439903
 20
186.5049782141
 30
0.0
 11
72.4903763825
 21
186.5049782141
 31
0.0
  0
LINE
  5
F7
330
8F
100
AcDbEntity
  8
SOPSTARTBL_243_2
  6
Continuous
 62
     7
100
AcDbLine
 10
100.2611439903
 20
158.873711993
 30
0.0
 11
109.51176663
 21
158.873711993
 31
0.0
  0
LINE
  5
F8
330
8F
100
AcDbEntity
  8
SOPSTARTBL_243_2
  6
Continuous
 62
     7
100
AcDbLine
 10
109.51176663
 20
186.473711993
 30
0.0
 11
100.2611439903
 21
186.473711993
 31
0.0
  0
LINE
  5
FA
330
8F
100
AcDbEntity
  8
TAPSTARTINT24
  6
Continuous
 62
     7
100
AcDbLine
 10
111.01176663
 20
167.7407741778
 30
0.0
 11
111.01176663
 21
158.873711993
 31
0.0
  0
LINE
  5
FB
330
8F
100
AcDbEntity
  8
TAPSTARTINT24
  6
Continuous
 62
     7
100
AcDbLine
 10
111.01176663
 20
173.0624929955
 30
0.0
 11
111.01176663
 21
172.8255811045
 31
0.0
  0
LINE
  5
FC
330
8F
100
AcDbEntity
  8
TAPSTARTINT24
  6
Continuous
 62
     7
100
AcDbLine
 10
111.01176663
 20
173.1274517141
 30
0.0
 11
111.01176663
 21
173.0624929955
 31
0.0
  0
LINE
  5
FD
330
8F
100
AcDbEntity
  8
TAPSTARTINT24
  6
Continuous
 62
     7
100
AcDbLine
 10
111.01176663
 20
186.473711993
 30
0.0
 11
111.01176663
 21
173.1274517141
 31
0.0
  0
LINE
  5
FE
330
8F
100
AcDbEntity
  8
TAPSTARTINT24
  6
Continuous
 62
     7
100
AcDbLine
 10
111.01176663
 20
186.758622545
 30
0.0
 11
111.01176663
 21
186.473711993
 31
0.0
  0
LINE
  5
FF
330
8F
100
AcDbEntity
  8
TAPSTARTINT24
  6
Continuous
 62
     7
100
AcDbLine
 10
111.01176663
 20
186.758622545
 30
0.0
 11
111.01176663
 21
187.9565207782
 31
0.0
  0
LINE
  5
100
330
8F
100
AcDbEntity
  8
TAPSTARTINT24
  6
Continuous
 62
     7
100
AcDbLine
 10
109.51176663
 20
167.7871626975
 30
0.0
 11
109.51176663
 21
158.873711993
 31
0.0
  0
LINE
  5
101
330
8F
100
AcDbEntity
  8
TAPSTARTINT24
  6
Continuous
 62
     7
100
AcDbLine
 10
109.51176663
 20
173.0624929955
 30
0.0
 11
111.01176663
 21
173.0624929955
 31
0.0
  0
LINE
  5
102
330
8F
100
AcDbEntity
  8
TAPSTARTINT24
  6
Continuous
 62
     7
100
AcDbLine
 10
109.51176663
 20
173.1274517141
 30
0.0
 11
111.01176663
 21
173.1274517141
 31
0.0
  0
LINE
  5
103
330
8F
100
AcDbEntity
  8
TAPSTARTINT24
  6
Continuous
 62
     7
100
AcDbLine
 10
109.51176663
 20
186.473711993
 30
0.0
 11
109.51176663
 21
174.6626185264
 31
0.0
  0
LINE
  5
104
330
8F
100
AcDbEntity
  8
TAPSTARTINT24
  6
Continuous
 62
     7
100
AcDbLine
 10
109.51176663
 20
158.873711993
 30
0.0
 11
111.01176663
 21
158.873711993
 31
0.0
  0
LINE
  5
105
330
8F
100
AcDbEntity
  8
TAPSTARTINT24
  6
Continuous
 62
     7
100
AcDbLine
 10
111.01176663
 20
186.473711993
 30
0.0
 11
109.51176663
 21
186.473711993
 31
0.0
  0
LINE
  5
106
330
8F
100
AcDbEntity
  8
TAPSTARTINT24
  6
Continuous
 62
     7
100
AcDbLine
 10
111.01176663
 20
187.9565207782
 30
0.0
 11
109.51176663
 21
187.9565207782
 31
0.0
  0
LINE
  5
107
330
8F
100
AcDbEntity
  8
TAPSTARTINT24
  6
Continuous
 62
     7
100
AcDbLine
 10
111.01176663
 20
163.173711993
 30
0.0
 11
115.2425263935
 21
163.173711993
 31
0.0
  0
LINE
  5
108
330
8F
100
AcDbEntity
  8
TAPSTARTINT24
  6
Continuous
 62
     7
100
AcDbLine
 10
115.2425263935
 20
182.173711993
 30
0.0
 11
111.01176663
 21
182.173711993
 31
0.0
  0
LINE
  5
10A
330
8F
100
AcDbEntity
  8
CARCASA230
  6
Continuous
 62
     7
100
AcDbLine
 10
155.6952688902
 20
113.573711993
 30
0.0
 11
155.6952688902
 21
231.773711993
 31
0.0
  0
LINE
  5
10B
330
8F
100
AcDbEntity
  8
CARCASA230
  6
Continuous
 62
     7
100
AcDbLine
 10
175.5546440368
 20
113.573711993
 30
0.0
 11
175.5546440368
 21
231.773711993
 31
0.0
  0
LINE
  5
10C
330
8F
100
AcDbEntity
  8
CARCASA230
  6
Continuous
 62
     7
100
AcDbLine
 10
187.5546440368
 20
113.573711993
 30
0.0
 11
187.5546440368
 21
231.773711993
 31
0.0
  0
LINE
  5
10D
330
8F
100
AcDbEntity
  8
CARCASA230
  6
Continuous
 62
     7
100
AcDbLine
 10
236.3392478631
 20
113.573711993
 30
0.0
 11
236.3392478631
 21
231.773711993
 31
0.0
  0
LINE
  5
10E
330
8F
100
AcDbEntity
  8
CARCASA230
  6
Continuous
 62
     7
100
AcDbLine
 10
248.3392478631
 20
113.573711993
 30
0.0
 11
248.3392478631
 21
231.773711993
 31
0.0
  0
LINE
  5
10F
330
8F
100
AcDbEntity
  8
CARCASA230
  6
Continuous
 62
     7
100
AcDbLine
 10
275.6544529418
 20
124.7763472906
 30
0.0
 11
275.6544529418
 21
220.5710766953
 31
0.0
  0
SPLINE
  5
110
330
8F
100
AcDbEntity
  8
CARCASA230
  6
Continuous
 62
     7
100
AcDbSpline
210
0.0
220
0.0
230
1.0
 70
    11
 71
     3
 72
    62
 73
    58
 74
     0
 42
0.000000001
 43
0.0000000001
 40
0.0
 40
0.0
 40
0.0
 40
0.0
 40
0.0536918777743362
 40
0.0536918777743362
 40
0.0536918777743362
 40
0.1073829692265468
 40
0.1073829692265468
 40
0.1073829692265468
 40
0.161085853360939
 40
0.161085853360939
 40
0.161085853360939
 40
0.2147967855916135
 40
0.2147967855916135
 40
0.2147967855916135
 40
0.2684950001846365
 40
0.2684950001846365
 40
0.2684950001846365
 40
0.3221795820964637
 40
0.3221795820964637
 40
0.3221795820964637
 40
0.3758708956624002
 40
0.3758708956624002
 40
0.3758708956624002
 40
0.4295787950166539
 40
0.4295787950166539
 40
0.4295787950166539
 40
0.4832872507784886
 40
0.4832872507784886
 40
0.4832872507784886
 40
0.5369793689166882
 40
0.5369793689166882
 40
0.5369793689166882
 40
0.5906637580184015
 40
0.5906637580184015
 40
0.5906637580184015
 40
0.6443610761021591
 40
0.6443610761021591
 40
0.6443610761021591
 40
0.6980718174358926
 40
0.6980718174358926
 40
0.6980718174358926
 40
0.7517755204772091
 40
0.7517755204772091
 40
0.7517755204772091
 40
0.8054627000457664
 40
0.8054627000457664
 40
0.8054627000457664
 40
0.8591496673631823
 40
0.8591496673631823
 40
0.8591496673631823
 40
0.9128530588543229
 40
0.9128530588543229
 40
0.9128530588543229
 40
0.9665638800919433
 40
0.9665638800919433
 40
0.9665638800919433
 40
1.0
 40
1.0
 40
1.0
 40
1.0
 10
160.7044529418323
 20
231.6159929891393
 30
0.0
 10
160.7044529418323
 20
231.6033297647543
 30
0.0
 10
160.6745119881818
 20
231.5896885353676
 30
0.0
 10
160.6171126146119
 20
231.5763224333787
 30
0.0
 10
160.5597137188338
 20
231.562956442649
 30
0.0
 10
160.4732753053925
 20
231.5495081711037
 30
0.0
 10
160.364954172773
 20
231.5374064459339
 30
0.0
 10
160.2566096372993
 20
231.5253021061781
 30
0.0
 10
160.1233848866935
 20
231.5142285144702
 30
0.0
 10
159.9763051434547
 20
231.5054728442998
 30
0.0
 10
159.8292046816107
 20
231.4967159407489
 30
0.0
 10
159.6641860487242
 20
231.4900522587777
 30
0.0
 10
159.4949170646305
 20
231.4862969583416
 30
0.0
 10
159.325687825035
 20
231.4825425396532
 30
0.0
 10
159.1475414775624
 20
231.4815993376059
 30
0.0
 10
158.9752372851254
 20
231.4835849376847
 30
0.0
 10
158.8029751365814
 20
231.4855700532579
 30
0.0
 10
158.6318019779319
 20
231.4905330383941
 30
0.0
 10
158.4758864198448
 20
231.4978616780753
 30
0.0
 10
158.3199509446793
 20
231.5051912539369
 30
0.0
 10
158.1749768441834
 20
231.5150749649941
 30
0.0
 10
158.0529572479915
 20
231.5263416894909
 30
0.0
 10
157.9309010360058
 20
231.5376117949205
 30
0.0
 10
157.8284466659061
 20
231.55055871954
 30
0.0
 10
157.7540784379096
 20
231.5637599072092
 30
0.0
 10
157.6797099029032
 20
231.5769611493761
 30
0.0
 10
157.6313770592312
 20
231.5907670268725
 30
0.0
 10
157.6130883068235
 20
231.6038391635751
 30
0.0
 10
157.5948050062605
 20
231.6169074034969
 30
0.0
 10
157.6060436466349
 20
231.6295990572289
 30
0.0
 10
157.6458721848696
 20
231.6409097599571
 30
0.0
 10
157.6856953441635
 20
231.6522189351475
 30
0.0
 10
157.7551974121301
 20
231.6624674202931
 30
0.0
 10
157.8486224470838
 20
231.671074715279
 30
0.0
 10
157.942069779053
 20
231.6796840645
 30
0.0
 10
158.0620278429166
 20
231.686905134488
 30
0.0
 10
158.1985700627892
 20
231.6925117215864
 30
0.0
 10
158.335145068837
 20
231.6981196549245
 30
0.0
 10
158.4920806801503
 20
231.7022844167073
 30
0.0
 10
158.6563823369866
 20
231.7049734499987
 30
0.0
 10
158.8206621081271
 20
231.7076621250993
 30
0.0
 10
158.996838819336
 20
231.7089605419128
 30
0.0
 10
159.1703155019483
 20
231.7088773731131
 30
0.0
 10
159.3437403571907
 20
231.7087942291606
 30
0.0
 10
159.5192496774576
 20
231.7073276780484
 30
0.0
 10
159.6823108780439
 20
231.704468644456
 30
0.0
 10
159.8453724241889
 20
231.7016096048048
 30
0.0
 10
160.0004821991544
 20
231.6972678078656
 30
0.0
 10
160.1348082490983
 20
231.6914825266814
 30
0.0
 10
160.2691745534788
 20
231.6856955117811
 30
0.0
 10
160.3864505399436
 20
231.6782869754009
 30
0.0
 10
160.4769290755308
 20
231.6695003905286
 30
0.0
 10
160.5674193305478
 20
231.6607126675547
 30
0.0
 10
160.6336007227659
 20
231.6502880532598
 30
0.0
 10
160.6699866666197
 20
231.6388328907567
 30
0.0
 10
160.6928358476596
 20
231.6316394238804
 30
0.0
 10
160.7044529418323
 20
231.6239478341097
 30
0.0
 10
160.7044529418323
 20
231.6159929891393
 30
0.0
  0
SPLINE
  5
111
330
8F
100
AcDbEntity
  8
CARCASA230
  6
Continuous
 62
     7
100
AcDbSpline
210
0.0
220
0.0
230
1.0
 70
    11
 71
     3
 72
    62
 73
    58
 74
     0
 42
0.000000001
 43
0.0000000001
 40
0.0
 40
0.0
 40
0.0
 40
0.0
 40
0.0536918777743368
 40
0.0536918777743368
 40
0.0536918777743368
 40
0.107382969226548
 40
0.107382969226548
 40
0.107382969226548
 40
0.1610858533609397
 40
0.1610858533609397
 40
0.1610858533609397
 40
0.2147967855916147
 40
0.2147967855916147
 40
0.2147967855916147
 40
0.2684950001846378
 40
0.2684950001846378
 40
0.2684950001846378
 40
0.3221795820964655
 40
0.3221795820964655
 40
0.3221795820964655
 40
0.3758708956624017
 40
0.3758708956624017
 40
0.3758708956624017
 40
0.4295787950166561
 40
0.4295787950166561
 40
0.4295787950166561
 40
0.4832872507784904
 40
0.4832872507784904
 40
0.4832872507784904
 40
0.5369793689166902
 40
0.5369793689166902
 40
0.5369793689166902
 40
0.5906637580184033
 40
0.5906637580184033
 40
0.5906637580184033
 40
0.6443610761021608
 40
0.6443610761021608
 40
0.6443610761021608
 40
0.6980718174358937
 40
0.6980718174358937
 40
0.6980718174358937
 40
0.7517755204772102
 40
0.7517755204772102
 40
0.7517755204772102
 40
0.805462700045767
 40
0.805462700045767
 40
0.805462700045767
 40
0.859149667363183
 40
0.859149667363183
 40
0.859149667363183
 40
0.9128530588543229
 40
0.9128530588543229
 40
0.9128530588543229
 40
0.9665638800919435
 40
0.9665638800919435
 40
0.9665638800919435
 40
1.0
 40
1.0
 40
1.0
 40
1.0
 10
160.7044529418324
 20
186.784258536666
 30
0.0
 10
160.7044529418324
 20
186.6158261214022
 30
0.0
 10
160.6745119881818
 20
186.4448787310945
 30
0.0
 10
160.6171126146119
 20
186.2856033933536
 30
0.0
 10
160.5597137188338
 20
186.1263293814188
 30
0.0
 10
160.4732753053925
 20
185.9743372810652
 30
0.0
 10
160.364954172773
 20
185.8422789318379
 30
0.0
 10
160.2566096372994
 20
185.7101920513148
 30
0.0
 10
160.1233848866936
 20
185.5944085177733
 30
0.0
 10
159.9763051434547
 20
185.504600272023
 30
0.0
 10
159.8292046816107
 20
185.4147793753015
 30
0.0
 10
159.6641860487243
 20
185.348467854042
 30
0.0
 10
159.4949170646305
 20
185.3112257465197
 30
0.0
 10
159.325687825035
 20
185.2739923834753
 30
0.0
 10
159.1475414775625
 20
185.2647901145913
 30
0.0
 10
158.9752372851254
 20
185.2843916954501
 30
0.0
 10
158.8029751365814
 20
185.3039884933332
 30
0.0
 10
158.6318019779319
 20
185.3529134839013
 30
0.0
 10
158.4758864198449
 20
185.4270646407954
 30
0.0
 10
158.3199509446793
 20
185.5012252699605
 30
0.0
 10
158.1749768441834
 20
185.6026589673643
 30
0.0
 10
158.0529572479915
 20
185.7228866490237
 30
0.0
 10
157.9309010360058
 20
185.843150408757
 30
0.0
 10
157.8284466659061
 20
185.9855328756302
 30
0.0
 10
157.7540784379096
 20
186.1381642497159
 30
0.0
 10
157.6797099029033
 20
186.2907962539004
 30
0.0
 10
157.6313770592313
 20
186.4578858043189
 30
0.0
 10
157.6130883068235
 20
186.6255436208332
 30
0.0
 10
157.5948050062605
 20
186.7931514588494
 30
0.0
 10
157.6060436466349
 20
186.9659495236104
 30
0.0
 10
157.6458721848696
 20
187.1296360823865
 30
0.0
 10
157.6856953441635
 20
187.2933005348953
 30
0.0
 10
157.7551974121301
 20
187.4523708482183
 30
0.0
 10
157.8486224470838
 20
187.5937486903543
 30
0.0
 10
157.942069779053
 20
187.7351602740237
 30
0.0
 10
158.0620278429166
 20
187.86277474591
 30
0.0
 10
158.1985700627892
 20
187.9661220887949
 30
0.0
 10
158.335145068837
 20
188.0694942471847
 30
0.0
 10
158.4920806801503
 20
188.1514428307233
 30
0.0
 10
158.6563823369866
 20
188.2052525717798
 30
0.0
 10
158.8206621081271
 20
188.2590551451446
 30
0.0
 10
158.9968388193361
 20
188.2862123820539
 30
0.0
 10
159.1703155019484
 20
188.284499411956
 30
0.0
 10
159.3437403571907
 20
188.28278695362
 30
0.0
 10
159.5192496774576
 20
188.2521747524205
 30
0.0
 10
159.6823108780439
 20
188.1951692274887
 30
0.0
 10
159.845372424189
 20
188.1381635817509
 30
0.0
 10
160.0004821991544
 20
188.0531912268686
 30
0.0
 10
160.1348082490983
 20
187.9472095894724
 30
0.0
 10
160.2691745534788
 20
187.8411961918101
 30
0.0
 10
160.3864505399436
 20
187.7112328869377
 30
0.0
 10
160.4769290755308
 20
187.5679866619959
 30
0.0
 10
160.5674193305478
 20
187.4247218827742
 30
0.0
 10
160.633600722766
 20
187.2642134738643
 30
0.0
 10
160.6699866666198
 20
187.0996944832107
 30
0.0
 10
160.6928358476596
 20
186.9963819453516
 30
0.0
 10
160.7044529418324
 20
186.8900652183355
 30
0.0
 10
160.7044529418324
 20
186.784258536666
 30
0.0
  0
SPLINE
  5
112
330
8F
100
AcDbEntity
  8
CARCASA230
  6
Continuous
 62
     7
100
AcDbSpline
210
0.0
220
0.0
230
1.0
 70
     8
 71
     3
 72
    35
 73
    31
 74
     0
 42
0.000000001
 43
0.0000000001
 40
0.0
 40
0.0
 40
0.0
 40
0.0
 40
0.0536915086200096
 40
0.0536915086200096
 40
0.0536915086200096
 40
0.1073822078256279
 40
0.1073822078256279
 40
0.1073822078256279
 40
0.1610850460659931
 40
0.1610850460659931
 40
0.1610850460659931
 40
0.2147961693614202
 40
0.2147961693614202
 40
0.2147961693614202
 40
0.268494201317769
 40
0.268494201317769
 40
0.268494201317769
 40
0.3221781995005782
 40
0.3221781995005782
 40
0.3221781995005782
 40
0.3758691269006
 40
0.3758691269006
 40
0.3758691269006
 40
0.4295771277792426
 40
0.4295771277792426
 40
0.4295771277792426
 40
0.4832857019923857
 40
0.4832857019923857
 40
0.4832857019923857
 40
0.4999963498898178
 40
0.4999963498898178
 40
0.4999963498898178
 40
0.4999963498898178
 10
160.7044529418324
 20
186.5813149738544
 30
0.0
 10
160.7044529418324
 20
186.7497464414415
 30
0.0
 10
160.6745123098727
 20
186.9203054099763
 30
0.0
 10
160.6171136444193
 20
187.0788964943564
 30
0.0
 10
160.5597154707865
 20
187.2374862198487
 30
0.0
 10
160.4732782455717
 20
187.388484741396
 30
0.0
 10
160.3649586336466
 20
187.5194751748008
 30
0.0
 10
160.2566149316597
 20
187.6504947402121
 30
0.0
 10
160.1233910993201
 20
187.7651153295129
 30
0.0
 10
159.976312072068
 20
187.8539401487783
 30
0.0
 10
159.8292117162486
 20
187.9427778489159
 30
0.0
 10
159.6641928143502
 20
188.0082661924294
 30
0.0
 10
159.4949232833834
 20
188.0450399343369
 30
0.0
 10
159.3256946648064
 20
188.0818047880432
 30
0.0
 10
159.1475487010221
 20
188.0908843783251
 30
0.0
 10
158.9752448258544
 20
188.0715350654191
 30
0.0
 10
158.8029842316643
 20
188.0521906128635
 30
0.0
 10
158.6318125460533
 20
188.0038981194029
 30
0.0
 10
158.4758980723951
 20
187.9306103429218
 30
0.0
 10
158.3199630970021
 20
187.8573129295768
 30
0.0
 10
158.1749892584344
 20
187.7569902275458
 30
0.0
 10
158.0529693048719
 20
187.6378589034096
 30
0.0
 10
157.9309116584474
 20
187.5186907787302
 30
0.0
 10
157.8284556005805
 20
187.3774105234407
 30
0.0
 10
157.7540855711705
 20
187.2256273380401
 30
0.0
 10
157.6797152249511
 20
187.0738435060574
 30
0.0
 10
157.6313804283438
 20
186.9073647308361
 30
0.0
 10
157.6130899176715
 20
186.7399360038429
 30
0.0
 10
157.607399053491
 20
186.6878426444884
 30
0.0
 10
157.6045678252676
 20
186.6352100195599
 30
0.0
 10
157.6045681375817
 20
186.5824703466824
 30
0.0
  0
SPLINE
  5
113
330
8F
100
AcDbEntity
  8
CARCASA230
  6
Continuous
 62
     7
100
AcDbSpline
210
0.0
220
0.0
230
1.0
 70
    11
 71
     3
 72
    62
 73
    58
 74
     0
 42
0.000000001
 43
0.0000000001
 40
0.0
 40
0.0
 40
0.0
 40
0.0
 40
0.0536918777743368
 40
0.0536918777743368
 40
0.0536918777743368
 40
0.1073829692265477
 40
0.1073829692265477
 40
0.1073829692265477
 40
0.1610858533609399
 40
0.1610858533609399
 40
0.1610858533609399
 40
0.2147967855916148
 40
0.2147967855916148
 40
0.2147967855916148
 40
0.2684950001846381
 40
0.2684950001846381
 40
0.2684950001846381
 40
0.3221795820964656
 40
0.3221795820964656
 40
0.3221795820964656
 40
0.3758708956624024
 40
0.3758708956624024
 40
0.3758708956624024
 40
0.4295787950166568
 40
0.4295787950166568
 40
0.4295787950166568
 40
0.4832872507784906
 40
0.4832872507784906
 40
0.4832872507784906
 40
0.5369793689166907
 40
0.5369793689166907
 40
0.5369793689166907
 40
0.5906637580184037
 40
0.5906637580184037
 40
0.5906637580184037
 40
0.6443610761021612
 40
0.6443610761021612
 40
0.6443610761021612
 40
0.6980718174358943
 40
0.6980718174358943
 40
0.6980718174358943
 40
0.7517755204772106
 40
0.7517755204772106
 40
0.7517755204772106
 40
0.8054627000457676
 40
0.8054627000457676
 40
0.8054627000457676
 40
0.8591496673631832
 40
0.8591496673631832
 40
0.8591496673631832
 40
0.9128530588543232
 40
0.9128530588543232
 40
0.9128530588543232
 40
0.966563880091944
 40
0.966563880091944
 40
0.966563880091944
 40
1.0
 40
1.0
 40
1.0
 40
1.0
 10
160.7044529418324
 20
122.4522283606602
 30
0.0
 10
160.7044529418324
 20
122.3607946276048
 30
0.0
 10
160.6745119881818
 20
122.2687845594933
 30
0.0
 10
160.6171126146119
 20
122.1837130891887
 30
0.0
 10
160.5597137188338
 20
122.0986423270181
 30
0.0
 10
160.4732753053925
 20
122.0181543145235
 30
0.0
 10
160.364954172773
 20
121.9486394913726
 30
0.0
 10
160.2566096372994
 20
121.8791096494971
 30
0.0
 10
160.1233848866936
 20
121.8186250821388
 30
0.0
 10
159.9763051434547
 20
121.7718762039655
 30
0.0
 10
159.8292046816107
 20
121.7251207404425
 30
0.0
 10
159.6641860487243
 20
121.6908016484297
 30
0.0
 10
159.4949170646305
 20
121.6715400606043
 30
0.0
 10
159.325687825035
 20
121.6522829954158
 30
0.0
 10
159.1475414775625
 20
121.6475388825193
 30
0.0
 10
158.9752372851254
 20
121.6576677256444
 30
0.0
 10
158.8029751365814
 20
121.6677940972336
 30
0.0
 10
158.6318019779319
 20
121.6930684191677
 30
0.0
 10
158.4758864198449
 20
121.7315677147522
 30
0.0
 10
158.3199509446793
 20
121.7700719283417
 30
0.0
 10
158.1749768441834
 20
121.8228776898847
 30
0.0
 10
158.0529572479915
 20
121.885915759042
 30
0.0
 10
157.9309010360058
 20
121.9489727447424
 30
0.0
 10
157.8284466659061
 20
122.0240230240526
 30
0.0
 10
157.7540784379096
 20
122.1051532133179
 30
0.0
 10
157.6797099029033
 20
122.1862837375081
 30
0.0
 10
157.6313770592313
 20
122.2757448813353
 30
0.0
 10
157.6130883068235
 20
122.3662909737181
 30
0.0
 10
157.5948050062605
 20
122.4568100744712
 30
0.0
 10
157.6060436466349
 20
122.5509134979518
 30
0.0
 10
157.6458721848696
 20
122.6407666520486
 30
0.0
 10
157.6856953441635
 20
122.7306076712588
 30
0.0
 10
157.7551974121301
 20
122.8186700463479
 30
0.0
 10
157.8486224470838
 20
122.8974390630582
 30
0.0
 10
157.942069779053
 20
122.9762268789479
 30
0.0
 10
158.0620278429166
 20
123.0478758900419
 30
0.0
 10
158.1985700627892
 20
123.1061414734934
 30
0.0
 10
158.335145068837
 20
123.1644210475306
 30
0.0
 10
158.4920806801503
 20
123.2109032957047
 30
0.0
 10
158.6563823369866
 20
123.2414705113119
 30
0.0
 10
158.8206621081271
 20
123.272033655233
 30
0.0
 10
158.9968388193361
 20
123.2875193338699
 30
0.0
 10
159.1703155019484
 20
123.2865438289275
 30
0.0
 10
159.3437403571907
 20
123.285568615424
 30
0.0
 10
159.5192496774576
 20
123.2681157857245
 30
0.0
 10
159.6823108780439
 20
123.2357434673624
 30
0.0
 10
159.845372424189
 20
123.2033710803971
 30
0.0
 10
160.0004821991544
 20
123.1551970739149
 30
0.0
 10
160.1348082490983
 20
123.0954821010049
 30
0.0
 10
160.2691745534788
 20
123.035749232887
 30
0.0
 10
160.3864505399436
 20
122.9628360295658
 30
0.0
 10
160.4769290755308
 20
122.8830915786639
 30
0.0
 10
160.5674193305478
 20
122.8033367986881
 30
0.0
 10
160.633600722766
 20
122.7145617607965
 30
0.0
 10
160.6699866666198
 20
122.6243385952808
 30
0.0
 10
160.6928358476596
 20
122.5676814022962
 30
0.0
 10
160.7044529418324
 20
122.5096656411984
 30
0.0
 10
160.7044529418324
 20
122.4522283606602
 30
0.0
  0
SPLINE
  5
114
330
8F
100
AcDbEntity
  8
CARCASA230
  6
Continuous
 62
     7
100
AcDbSpline
210
0.0
220
0.0
230
1.0
 70
     8
 71
     3
 72
    29
 73
    25
 74
     0
 42
0.000000001
 43
0.0000000001
 40
0.5739287203203699
 40
0.5739287203203699
 40
0.5739287203203699
 40
0.5739287203203699
 40
0.5906612584146739
 40
0.5906612584146739
 40
0.5906612584146739
 40
0.644358366417117
 40
0.644358366417117
 40
0.644358366417117
 40
0.698069292868083
 40
0.698069292868083
 40
0.698069292868083
 40
0.7517729752199633
 40
0.7517729752199633
 40
0.7517729752199633
 40
0.8054596479365483
 40
0.8054596479365483
 40
0.8054596479365483
 40
0.8591461009962925
 40
0.8591461009962925
 40
0.8591461009962925
 40
0.9128494607757773
 40
0.9128494607757773
 40
0.9128494607757773
 40
0.9264812823734706
 40
0.9264812823734706
 40
0.9264812823734706
 40
0.9264812823734706
 10
157.7684010457228
 20
122.8124432640962
 30
0.0
 10
157.7926969830231
 20
122.7872884963285
 30
0.0
 10
157.8194912541655
 20
122.7628832066619
 30
0.0
 10
157.8486095763458
 20
122.7394335374343
 30
0.0
 10
157.942054228297
 20
122.6641803629628
 30
0.0
 10
158.0620094826868
 20
122.5966792793246
 30
0.0
 10
158.198549207759
 20
122.5421942756908
 30
0.0
 10
158.3351226838631
 20
122.4876958039978
 30
0.0
 10
158.4920573187076
 20
122.4447017053158
 30
0.0
 10
158.656358673751
 20
122.4165042540822
 30
0.0
 10
158.8206375030687
 20
122.3883106687209
 30
0.0
 10
158.9968139171637
 20
122.3741228926992
 30
0.0
 10
159.170290745518
 20
122.3750172617914
 30
0.0
 10
159.343714221481
 20
122.3759113558225
 30
0.0
 10
159.5192226030708
 20
122.3919030177716
 30
0.0
 10
159.6822834242036
 20
122.421779459908
 30
0.0
 10
159.8453445975882
 20
122.4516559665849
 30
0.0
 10
160.0004545172104
 20
122.4962503342644
 30
0.0
 10
160.1347815919053
 20
122.5521477972219
 30
0.0
 10
160.2691501045078
 20
122.6080625037167
 30
0.0
 10
160.3864288708351
 20
122.6768445786061
 30
0.0
 10
160.4769106621556
 20
122.7531214234372
 30
0.0
 10
160.4998779484448
 20
122.7724830221291
 30
0.0
 10
160.5212794236903
 20
122.7924640134191
 30
0.0
 10
160.5410253834366
 20
122.8129517098464
 30
0.0
  0
LINE
  5
115
330
8F
100
AcDbEntity
  8
CARCASA230
  6
Continuous
 62
     7
100
AcDbLine
 10
156.0471229786
 20
113.573711993
 30
0.0
 11
175.5546440368
 21
113.573711993
 31
0.0
  0
LINE
  5
116
330
8F
100
AcDbEntity
  8
CARCASA230
  6
Continuous
 62
     7
100
AcDbLine
 10
175.5546440368
 20
231.773711993
 30
0.0
 11
155.6952688902
 21
231.773711993
 31
0.0
  0
LINE
  5
117
330
8F
100
AcDbEntity
  8
CARCASA230
  6
Continuous
 62
     7
100
AcDbLine
 10
175.5546440368
 20
113.773711993
 30
0.0
 11
187.5546440368
 21
113.773711993
 31
0.0
  0
LINE
  5
118
330
8F
100
AcDbEntity
  8
CARCASA230
  6
Continuous
 62
     7
100
AcDbLine
 10
187.5546440368
 20
231.573711993
 30
0.0
 11
175.5546440368
 21
231.573711993
 31
0.0
  0
LINE
  5
119
330
8F
100
AcDbEntity
  8
CARCASA230
  6
Continuous
 62
     7
100
AcDbLine
 10
187.5546440368
 20
113.573711993
 30
0.0
 11
236.3392478631
 21
113.573711993
 31
0.0
  0
LINE
  5
11A
330
8F
100
AcDbEntity
  8
CARCASA230
  6
Continuous
 62
     7
100
AcDbLine
 10
236.3392478631
 20
231.773711993
 30
0.0
 11
187.5546440368
 21
231.773711993
 31
0.0
  0
LINE
  5
11B
330
8F
100
AcDbEntity
  8
CARCASA230
  6
Continuous
 62
     7
100
AcDbLine
 10
236.3392478631
 20
113.773711993
 30
0.0
 11
248.3392478631
 21
113.773711993
 31
0.0
  0
LINE
  5
11C
330
8F
100
AcDbEntity
  8
CARCASA230
  6
Continuous
 62
     7
100
AcDbLine
 10
248.3392478631
 20
231.573711993
 30
0.0
 11
236.3392478631
 21
231.573711993
 31
0.0
  0
LINE
  5
11D
330
8F
100
AcDbEntity
  8
CARCASA230
  6
Continuous
 62
     7
100
AcDbLine
 10
248.3392478631
 20
113.573711993
 30
0.0
 11
264.4518176442
 21
113.573711993
 31
0.0
  0
LINE
  5
11E
330
8F
100
AcDbEntity
  8
CARCASA230
  6
Continuous
 62
     7
100
AcDbLine
 10
264.4518176442
 20
231.773711993
 30
0.0
 11
248.3392478631
 21
231.773711993
 31
0.0
  0
ARC
  5
11F
330
8F
100
AcDbEntity
  8
CARCASA230
  6
Continuous
 62
     7
100
AcDbCircle
 10
264.4518176442
 20
124.7763472906
 30
0.0
 40
11.20263529764226
100
AcDbArc
 50
270.0
 51
0.0
  0
ARC
  5
120
330
8F
100
AcDbEntity
  8
CARCASA230
  6
Continuous
 62
     7
100
AcDbCircle
 10
264.4518176442
 20
220.5710766953
 30
0.0
 40
11.20263529764226
100
AcDbArc
 50
0.0
 51
90.0
  0
LINE
  5
122
330
8F
100
AcDbEntity
  8
TAPASENSX230
  6
Continuous
 62
     7
100
AcDbLine
 10
115.2425263935
 20
125.6897698798
 30
0.0
 11
115.2425263935
 21
219.6576541062
 31
0.0
  0
LINE
  5
123
330
8F
100
AcDbEntity
  8
TAPASENSX230
  6
Continuous
 62
     7
100
AcDbLine
 10
155.6604533904
 20
231.773711993
 30
0.0
 11
155.6604533904
 21
114.1036642934
 31
0.0
  0
SPLINE
  5
124
330
8F
100
AcDbEntity
  8
TAPASENSX230
  6
Continuous
 62
     7
100
AcDbSpline
210
0.0
220
0.0
230
1.0
 70
     8
 71
     3
 72
    12
 73
     8
 74
     0
 42
0.000000001
 43
0.0000000001
 40
0.0
 40
0.0
 40
0.0
 40
0.0
 40
0.2500000000000001
 40
0.2500000000000001
 40
0.5
 40
0.5
 40
0.6651183222793605
 40
0.6651183222793605
 40
0.6651183222793605
 40
0.6651183222793605
 10
152.3227764615395
 20
114.1036642933504
 30
0.0
 10
151.1336341727985
 20
114.1036642933504
 30
0.0
 10
149.9713405207994
 20
114.034450709026
 30
0.0
 10
148.3120982527093
 20
113.8492640784821
 30
0.0
 10
147.8249838238725
 20
113.7405806026332
 30
0.0
 10
147.8236289596977
 20
113.6278277285883
 30
0.0
 10
148.0315221586155
 20
113.6007323544522
 30
0.0
 10
148.414541085698
 20
113.5865299332947
 30
0.0
  0
LINE
  5
125
330
8F
100
AcDbEntity
  8
TAPASENSX230
  6
Continuous
 62
     7
100
AcDbLine
 10
155.6604533904
 20
114.1036642934
 30
0.0
 11
152.3227764615
 21
114.1036642934
 31
0.0
  0
ARC
  5
126
330
8F
100
AcDbEntity
  8
TAPASENSX230
  6
Continuous
 62
     7
100
AcDbCircle
 10
121.8023755965
 20
125.6897698798
 30
0.0
 40
6.559849203025381
100
AcDbArc
 50
180.0
 51
210.0
  0
ARC
  5
127
330
8F
100
AcDbEntity
  8
TAPASENSX230
  6
Continuous
 62
     7
100
AcDbCircle
 10
121.8023755965
 20
219.6576541062
 30
0.0
 40
6.55984920302539
100
AcDbArc
 50
150.0
 51
180.0
  0
LINE
  5
128
330
8F
100
AcDbEntity
  8
TAPASENSX230
  6
Continuous
 62
     7
100
AcDbLine
 10
119.490872665
 20
228.773711993
 30
0.0
 11
116.1213795417
 21
222.9375787077
 31
0.0
  0
LINE
  5
129
330
8F
100
AcDbEntity
  8
TAPASENSX230
  6
Continuous
 62
     7
100
AcDbLine
 10
116.1213795417
 20
122.4098452783
 30
0.0
 11
119.490872665
 21
116.573711993
 31
0.0
  0
ARC
  5
12A
330
8F
100
AcDbEntity
  8
TAPASENSX230
  6
Continuous
 62
     7
100
AcDbCircle
 10
124.6870250877
 20
119.573711993
 30
0.0
 40
5.999999999999979
100
AcDbArc
 50
210.0
 51
270.0
  0
ARC
  5
12B
330
8F
100
AcDbEntity
  8
TAPASENSX230
  6
Continuous
 62
     7
100
AcDbCircle
 10
124.6870250877
 20
225.773711993
 30
0.0
 40
5.999999999999998
100
AcDbArc
 50
90.0
 51
150.0
  0
LINE
  5
12C
330
8F
100
AcDbEntity
  8
TAPASENSX230
  6
Continuous
 62
     7
100
AcDbLine
 10
124.6870250877
 20
113.573711993
 30
0.0
 11
148.4471229786
 21
113.573711993
 31
0.0
  0
LINE
  5
12D
330
8F
100
AcDbEntity
  8
TAPASENSX230
  6
Continuous
 62
     7
100
AcDbLine
 10
155.6604533904
 20
231.773711993
 30
0.0
 11
124.6870250877
 21
231.773711993
 31
0.0
  0
ARC
  5
12E
330
8F
100
AcDbEntity
  8
TAPASENSX230
  6
Continuous
 62
     7
100
AcDbCircle
 10
155.8578519703
 20
231.5527293172
 30
0.0
 40
0.1973985799225736
100
AcDbArc
 50
180.0
 51
214.5503206469
  0
ELLIPSE
  5
130
330
8F
100
AcDbEntity
  8
FESTOCOLM5T4
  6
Continuous
 62
     7
100
AcDbEllipse
 10
152.2471229786
 20
107.5247402265
 30
0.0
 11
-3.000000000000002
 21
0.0
 31
0.0
210
0.0
220
0.0
230
1.0
 40
0.0597880429
 41
3.141592653589793
 42
3.721528938765569
  0
LINE
  5
131
330
8F
100
AcDbEntity
  8
FESTOCOLM5T4
  6
Continuous
 62
     7
100
AcDbLine
 10
156.4935310213
 20
113.1059108462
 30
0.0
 11
155.9438625258
 21
113.3800975195
 31
0.0
  0
LINE
  5
132
330
8F
100
AcDbEntity
  8
FESTOCOLM5T4
  6
Continuous
 62
     7
100
AcDbLine
 10
155.9438625258
 20
113.3800975195
 30
0.0
 11
151.6974544831
 21
113.4887301406
 31
0.0
  0
LINE
  5
133
330
8F
100
AcDbEntity
  8
FESTOCOLM5T4
  6
Continuous
 62
     7
100
AcDbLine
 10
151.6974544831
 20
113.4887301406
 30
0.0
 11
148.0007149359
 21
113.3231760883
 31
0.0
  0
LINE
  5
134
330
8F
100
AcDbEntity
  8
FESTOCOLM5T4
  6
Continuous
 62
     7
100
AcDbLine
 10
151.6974544831
 20
113.4887301406
 30
0.0
 11
151.6974544831
 21
109.5571980139
 31
0.0
  0
LINE
  5
135
330
8F
100
AcDbEntity
  8
FESTOCOLM5T4
  6
Continuous
 62
     7
100
AcDbLine
 10
155.9438625258
 20
113.3800975195
 30
0.0
 11
155.9438625258
 21
107.6902942787
 31
0.0
  0
LINE
  5
136
330
8F
100
AcDbEntity
  8
FESTOCOLM5T4
  6
Continuous
 62
     7
100
AcDbLine
 10
156.4935310213
 20
113.1059108462
 30
0.0
 11
156.4935310213
 21
107.4161076054
 31
0.0
  0
LINE
  5
137
330
8F
100
AcDbEntity
  8
FESTOCOLM5T4
  6
Continuous
 62
     7
100
AcDbLine
 10
148.0007149359
 20
113.3231760883
 30
0.0
 11
148.0007149359
 21
108.8225309796
 31
0.0
  0
LINE
  5
138
330
8F
100
AcDbEntity
  8
FESTOCOLM5T4
  6
Continuous
 62
     7
100
AcDbLine
 10
154.6808786413
 20
107.722604233
 30
0.0
 11
155.9438625258
 21
107.6902942787
 31
0.0
  0
LINE
  5
139
330
8F
100
AcDbEntity
  8
FESTOCOLM5T4
  6
Continuous
 62
     7
100
AcDbLine
 10
155.9438625258
 20
107.6902942787
 30
0.0
 11
156.4935310213
 21
107.4161076054
 31
0.0
  0
LINE
  5
13A
330
8F
100
AcDbEntity
  8
FESTOCOLM5T4
  6
Continuous
 62
     7
100
AcDbLine
 10
156.4935310213
 20
107.4161076054
 30
0.0
 11
155.2471229786
 21
107.3602887143
 31
0.0
  0
ELLIPSE
  5
13B
330
8F
100
AcDbEntity
  8
FESTOCOLM5T4
  6
Continuous
 62
     7
100
AcDbEllipse
 10
152.2471229786
 20
104.0310013944
 30
0.0
 11
1.785480027494346
 21
3.579393953090231
 31
0.0
210
0.0
220
0.0
230
1.0
 40
0.9911172566
 41
3.577811195775961
 42
5.846966764939549
  0
ELLIPSE
  5
13C
330
8F
100
AcDbEntity
  8
FESTOCOLM5T4
  6
Continuous
 62
     7
100
AcDbEllipse
 10
150.6798044736
 20
104.8128141605
 30
0.0
 11
2.167126383370493
 21
4.344489410563646
 31
0.0
210
0.0
220
0.0
230
1.0
 40
0.9911172566
 41
0.0
 42
6.283185307179586
  0
ELLIPSE
  5
13D
330
8F
100
AcDbEntity
  8
FESTOCOLM5T4
  6
Continuous
 62
     7
100
AcDbEllipse
 10
150.882115898
 20
104.7118967951
 30
0.0
 11
2.167126383362972
 21
4.344489410567435
 31
0.0
210
0.0
220
0.0
230
1.0
 40
0.9911172566
 41
3.141592653589793
 42
6.283185307179584
  0
ELLIPSE
  5
13E
330
8F
100
AcDbEntity
  8
FESTOCOLM5T4
  6
Continuous
 62
     7
100
AcDbEllipse
 10
151.8698716756
 20
104.2191825993
 30
0.0
 11
-0.8927400137475339
 21
-1.789696976544922
 31
0.0
210
0.0
220
0.0
230
1.0
 40
0.9911172566
 41
3.483683024732125
 42
5.941094936037921
  0
ELLIPSE
  5
13F
330
8F
100
AcDbEntity
  8
FESTOCOLM5T4
  6
Continuous
 62
     7
100
AcDbEllipse
 10
150.6798044736
 20
104.8128141605
 30
0.0
 11
0.8927400137472286
 21
1.789696976545088
 31
0.0
210
0.0
220
0.0
230
1.0
 40
0.9911172566
 41
0.0
 42
6.283185307179586
  0
LINE
  5
140
330
8F
100
AcDbEntity
  8
FESTOCOLM5T4
  6
Continuous
 62
     7
100
AcDbLine
 10
148.4471229786
 20
113.8453869657
 30
0.0
 11
148.4471229786
 21
113.3431679378
 31
0.0
  0
LINE
  5
141
330
8F
100
AcDbEntity
  8
FESTOCOLM5T4
  6
Continuous
 62
     7
100
AcDbLine
 10
155.2471229786
 20
106.7995929066
 30
0.0
 11
155.2471229786
 21
107.5247402265
 31
0.0
  0
LINE
  5
142
330
8F
100
AcDbEntity
  8
FESTOCOLM5T4
  6
Continuous
 62
     7
100
AcDbLine
 10
148.5126780903
 20
100.4683247499
 30
0.0
 11
148.7149895146
 21
100.3674073845
 31
0.0
  0
LINE
  5
143
330
8F
100
AcDbEntity
  8
FESTOCOLM5T4
  6
Continuous
 62
     7
100
AcDbLine
 10
153.0492422813
 20
109.0563862057
 30
0.0
 11
152.846930857
 21
109.1573035711
 31
0.0
  0
ENDBLK
  5
145
330
8F
100
AcDbEntity
  8
0
100
AcDbBlockEnd
  0
BLOCK
  5
148
330
147
100
AcDbEntity
  8
0
100
AcDbBlockBegin
  2
_Oblique
 70
     0
 10
0.0
 20
0.0
 30
0.0
  3
_Oblique
  1

  0
LINE
  5
14A
330
147
100
AcDbEntity
  8
0
  6
ByBlock
 62
     0
370
    -2
100
AcDbLine
 10
-0.5
 20
-0.5
 30
0.0
 11
0.5
 21
0.5
 31
0.0
  0
ENDBLK
  5
149
330
147
100
AcDbEntity
  8
0
100
AcDbBlockEnd
  0
BLOCK
  5
14C
330
14B
100
AcDbEntity
  8
0
100
AcDbBlockBegin
  2
_Dot
 70
     0
 10
0.0
 20
0.0
 30
0.0
  3
_Dot
  1

  0
LWPOLYLINE
  5
14E
330
14B
100
AcDbEntity
  8
0
  6
ByBlock
 62
     0
100
AcDbPolyline
 90
        2
 70
     1
 43
0.5
 10
-0.25
 20
0.0
 42
1.0
 10
0.25
 20
0.0
 42
1.0
  0
LINE
  5
14F
330
14B
100
AcDbEntity
  8
0
  6
ByBlock
 62
     0
370
    -2
100
AcDbLine
 10
-0.5
 20
0.0
 30
0.0
 11
-1.0
 21
0.0
 31
0.0
  0
ENDBLK
  5
14D
330
14B
100
AcDbEntity
  8
0
100
AcDbBlockEnd
  0
BLOCK
  5
153
330
150
100
AcDbEntity
  8
0
100
AcDbBlockBegin
  2
_SE_FILLED
 70
     0
 10
0.0
 20
0.0
 30
0.0
  3
_SE_FILLED
  1

  0
SOLID
  5
151
330
150
100
AcDbEntity
  8
0
 62
     0
100
AcDbTrace
 10
0.0
 20
0.0
 30
0.0
 11
-1.0
 21
-0.1665
 31
0.0
 12
-1.0
 22
0.1665
 32
0.0
 13
0.0
 23
0.0
 33
0.0
  0
LINE
  5
152
330
150
100
AcDbEntity
  8
0
 62
     0
100
AcDbLine
 10
0.0
 20
0.0
 30
0.0
 11
-1.0
 21
0.0
 31
0.0
  0
ENDBLK
  5
154
330
150
100
AcDbEntity
  8
0
100
AcDbBlockEnd
  0
BLOCK
  5
15F
330
158
100
AcDbEntity
  8
0
100
AcDbBlockBegin
  2
DMBLK1
 70
     0
 10
0.0
 20
0.0
 30
0.0
  3
DMBLK1
  1

  0
HATCH
  5
159
330
158
100
AcDbEntity
  8
Default
  6
Continuous
 62
     7
100
AcDbHatch
 10
0.0
 20
0.0
 30
0.0
210
0.0
220
0.0
230
1.0
  2
SOLID
 70
     1
 71
     0
 91
        1
 92
        1
 93
        3
 72
     1
 10
72.99883212851621
 20
277.2189812822378
 11
69.4988320204828
 21
276.6356479308989
 72
     1
 10
69.4988320204828
 20
276.6356479308989
 11
72.99883212851621
 21
276.05231457956
 72
     1
 10
72.99883212851621
 20
276.05231457956
 11
72.99883212851621
 21
277.2189812822378
 97
        0
 75
     0
 76
     1
 98
        0
  0
HATCH
  5
15A
330
158
100
AcDbEntity
  8
Default
  6
Continuous
 62
     7
100
AcDbHatch
 10
0.0
 20
0.0
 30
0.0
210
0.0
220
0.0
230
1.0
  2
SOLID
 70
     1
 71
     0
 91
        1
 92
        1
 93
        3
 72
     1
 10
323.2847844805036
 20
277.2189812822378
 11
323.2847844805036
 21
276.0523145795599
 72
     1
 10
323.2847844805036
 20
276.05231457956
 11
326.784784588537
 21
276.6356479308989
 72
     1
 10
326.784784588537
 20
276.6356479308989
 11
323.2847844805036
 21
277.2189812822378
 97
        0
 75
     0
 76
     1
 98
        0
  0
LINE
  5
15B
330
158
100
AcDbEntity
  8
Default
  6
Continuous
 62
     7
100
AcDbLine
 10
69.4988320205
 20
183.513433852
 30
0.0
 11
69.4988320205
 21
278.3856479849
 31
0.0
  0
LINE
  5
15C
330
158
100
AcDbEntity
  8
Default
  6
Continuous
 62
     7
100
AcDbLine
 10
326.7847903853
 20
172.673711993
 30
0.0
 11
326.7847903853
 21
278.3856479849
 31
0.0
  0
LINE
  5
15D
330
158
100
AcDbEntity
  8
Default
  6
Continuous
 62
     7
100
AcDbLine
 10
69.4988320205
 20
276.6356479309
 30
0.0
 11
326.7847845885
 21
276.6356479309
 31
0.0
  0
TEXT
  5
15E
330
158
100
AcDbEntity
  8
Default
  6
Continuous
 62
     7
100
AcDbText
 10
193.7270355772
 20
277.5106479309
 30
0.0
 40
3.5
  1
257,3
  7
SEACAD_Solid_Edge_ISO
 11
193.7270355772
 21
281.0106479309
 31
0.0
100
AcDbText
 73
     3
  0
ENDBLK
  5
160
330
158
100
AcDbEntity
  8
0
100
AcDbBlockEnd
  0
BLOCK
  5
169
330
162
100
AcDbEntity
  8
0
100
AcDbBlockBegin
  2
DMBLK2
 70
     0
 10
0.0
 20
0.0
 30
0.0
  3
DMBLK2
  1

  0
HATCH
  5
163
330
162
100
AcDbEntity
  8
Default
  6
Continuous
 62
     7
100
AcDbHatch
 10
0.0
 20
0.0
 30
0.0
210
0.0
220
0.0
230
1.0
  2
SOLID
 70
     1
 71
     0
 91
        1
 92
        1
 93
        3
 72
     1
 10
24.13516894926164
 20
228.2737118849496
 11
25.30183565193945
 21
228.2737118849496
 72
     1
 10
25.30183565193945
 20
228.2737118849496
 11
24.71850230060055
 21
231.773711992983
 72
     1
 10
24.71850230060055
 20
231.773711992983
 11
24.13516894926164
 21
228.2737118849496
 97
        0
 75
     0
 76
     1
 98
        0
  0
HATCH
  5
164
330
162
100
AcDbEntity
  8
Default
  6
Continuous
 62
     7
100
AcDbHatch
 10
0.0
 20
0.0
 30
0.0
210
0.0
220
0.0
230
1.0
  2
SOLID
 70
     1
 71
     0
 91
        1
 92
        1
 93
        3
 72
     1
 10
24.13516894926164
 20
117.0737154507975
 11
24.71850230060055
 21
113.573715342764
 72
     1
 10
24.71850230060055
 20
113.573715342764
 11
25.30183565193945
 21
117.0737154507975
 72
     1
 10
25.30183565193945
 20
117.0737154507975
 11
24.13516894926164
 21
117.0737154507975
 97
        0
 75
     0
 76
     1
 98
        0
  0
LINE
  5
165
330
162
100
AcDbEntity
  8
Default
  6
Continuous
 62
     7
100
AcDbLine
 10
124.6870250877
 20
231.773711993
 30
0.0
 11
22.9685022466
 21
231.773711993
 31
0.0
  0
LINE
  5
166
330
162
100
AcDbEntity
  8
Default
  6
Continuous
 62
     7
100
AcDbLine
 10
137.0791503482
 20
113.573711993
 30
0.0
 11
22.9685022466
 21
113.573711993
 31
0.0
  0
LINE
  5
167
330
162
100
AcDbEntity
  8
Default
  6
Continuous
 62
     7
100
AcDbLine
 10
24.7185023006
 20
231.773711993
 30
0.0
 11
24.7185023006
 21
113.5737153428
 31
0.0
  0
TEXT
  5
168
330
162
100
AcDbEntity
  8
Default
  6
Continuous
 62
     7
100
AcDbText
 10
23.8435023006
 20
170.1282591224
 30
0.0
 40
3.5
  1
118
 50
90.0
  7
SEACAD_Solid_Edge_ISO
 11
20.3435023006
 21
170.1282591224
 31
0.0
100
AcDbText
 73
     3
  0
ENDBLK
  5
16A
330
162
100
AcDbEntity
  8
0
100
AcDbBlockEnd
  0
BLOCK
  5
174
330
16C
100
AcDbEntity
  8
0
100
AcDbBlockBegin
  2
DMBLK3
 70
     0
 10
0.0
 20
0.0
 30
0.0
  3
DMBLK3
  1

  0
HATCH
  5
16D
330
16C
100
AcDbEntity
  8
Default
  6
Continuous
 62
     7
100
AcDbHatch
 10
0.0
 20
0.0
 30
0.0
210
0.0
220
0.0
230
1.0
  2
SOLID
 70
     1
 71
     0
 91
        1
 92
        1
 93
        3
 72
     1
 10
400.48010065422
 20
248.0243987033202
 11
399.8967673028811
 21
251.5243988113536
 72
     1
 10
399.8967673028811
 20
251.5243988113536
 11
399.3134339515422
 21
248.0243987033202
 72
     1
 10
399.3134339515422
 20
248.0243987033202
 11
400.48010065422
 21
248.0243987033202
 97
        0
 75
     0
 76
     1
 98
        0
  0
HATCH
  5
16E
330
16C
100
AcDbEntity
  8
Default
  6
Continuous
 62
     7
100
AcDbHatch
 10
0.0
 20
0.0
 30
0.0
210
0.0
220
0.0
230
1.0
  2
SOLID
 70
     1
 71
     0
 91
        1
 92
        1
 93
        3
 72
     1
 10
400.48010065422
 20
97.32302581910623
 11
399.3134339515422
 21
97.32302581910623
 72
     1
 10
399.3134339515422
 20
97.32302581910623
 11
399.8967673028811
 21
93.82302571107282
 72
     1
 10
399.8967673028811
 20
93.82302571107282
 11
400.48010065422
 21
97.32302581910623
 97
        0
 75
     0
 76
     1
 98
        0
  0
LINE
  5
16F
330
16C
100
AcDbEntity
  8
Default
  6
Continuous
 62
     7
100
AcDbLine
 10
211.9469459499
 20
251.5243988114
 30
0.0
 11
401.6467673569
 21
251.5243988114
 31
0.0
  0
LINE
  5
170
330
16C
100
AcDbEntity
  8
Default
  6
Continuous
 62
     7
100
AcDbLine
 10
242.5619460584
 20
93.8230251746
 30
0.0
 11
401.6467673569
 21
93.8230251746
 31
0.0
  0
LINE
  5
171
330
16C
100
AcDbEntity
  8
Default
  6
Continuous
 62
     7
100
AcDbLine
 10
399.8967673029
 20
251.5243988114
 30
0.0
 11
399.8967673029
 21
93.8230257111
 31
0.0
  0
TEXT
  5
172
330
16C
100
AcDbEntity
  8
Default
  6
Continuous
 62
     7
100
AcDbText
 10
399.0217673029
 20
165.7532577158
 30
0.0
 40
3.5
  1
157,7
 50
90.0
  7
SEACAD_Solid_Edge_ISO
 11
395.5217673029
 21
165.7532577158
 31
0.0
100
AcDbText
 73
     3
  0
TEXT
  5
173
330
16C
100
AcDbEntity
  8
Default
  6
Continuous
 62
     7
100
AcDbText
 10
399.0217673029
 20
176.0146213521
 30
0.0
 40
3.5
  1
±1
 50
90.0
  7
SEACAD_Solid_Edge_ISO
 11
395.5217673029
 21
176.0146213521
 31
0.0
100
AcDbText
 73
     3
  0
ENDBLK
  5
175
330
16C
100
AcDbEntity
  8
0
100
AcDbBlockEnd
  0
BLOCK
  5
17E
330
177
100
AcDbEntity
  8
0
100
AcDbBlockBegin
  2
DMBLK4
 70
     0
 10
0.0
 20
0.0
 30
0.0
  3
DMBLK4
  1

  0
HATCH
  5
178
330
177
100
AcDbEntity
  8
Default
  6
Continuous
 62
     7
100
AcDbHatch
 10
0.0
 20
0.0
 30
0.0
210
0.0
220
0.0
230
1.0
  2
SOLID
 70
     1
 71
     0
 91
        1
 92
        1
 93
        3
 72
     1
 10
72.99883212851621
 20
270.2346803708112
 11
69.4988320204828
 21
269.6513470194723
 72
     1
 10
69.4988320204828
 20
269.6513470194724
 11
72.99883212851621
 21
269.0680136681335
 72
     1
 10
72.99883212851621
 20
269.0680136681335
 11
72.99883212851621
 21
270.2346803708113
 97
        0
 75
     0
 76
     1
 98
        0
  0
HATCH
  5
179
330
177
100
AcDbEntity
  8
Default
  6
Continuous
 62
     7
100
AcDbHatch
 10
0.0
 20
0.0
 30
0.0
210
0.0
220
0.0
230
1.0
  2
SOLID
 70
     1
 71
     0
 91
        1
 92
        1
 93
        3
 72
     1
 10
208.446944281033
 20
270.2346803708112
 11
208.446944281033
 21
269.0680136681334
 72
     1
 10
208.446944281033
 20
269.0680136681335
 11
211.9469443890665
 21
269.6513470194724
 72
     1
 10
211.9469443890665
 20
269.6513470194724
 11
208.446944281033
 21
270.2346803708113
 97
        0
 75
     0
 76
     1
 98
        0
  0
LINE
  5
17A
330
177
100
AcDbEntity
  8
Default
  6
Continuous
 62
     7
100
AcDbLine
 10
69.4988320205
 20
183.513433852
 30
0.0
 11
69.4988320205
 21
271.4013470735
 31
0.0
  0
LINE
  5
17B
330
177
100
AcDbEntity
  8
Default
  6
Continuous
 62
     7
100
AcDbLine
 10
211.9469459499
 20
245.0338327736
 30
0.0
 11
211.9469459499
 21
271.4013470735
 31
0.0
  0
LINE
  5
17C
330
177
100
AcDbEntity
  8
Default
  6
Continuous
 62
     7
100
AcDbLine
 10
69.4988320205
 20
269.6513470195
 30
0.0
 11
211.9469443891
 21
269.6513470195
 31
0.0
  0
TEXT
  5
17D
330
177
100
AcDbEntity
  8
Default
  6
Continuous
 62
     7
100
AcDbText
 10
136.5467518411
 20
270.5263470195
 30
0.0
 40
3.5
  1
142,4
  7
SEACAD_Solid_Edge_ISO
 11
136.5467518411
 21
274.0263470195
 31
0.0
100
AcDbText
 73
     3
  0
ENDBLK
  5
17F
330
177
100
AcDbEntity
  8
0
100
AcDbBlockEnd
  0
BLOCK
  5
188
330
181
100
AcDbEntity
  8
0
100
AcDbBlockBegin
  2
DMBLK5
 70
     0
 10
0.0
 20
0.0
 30
0.0
  3
DMBLK5
  1

  0
HATCH
  5
182
330
181
100
AcDbEntity
  8
Default
  6
Continuous
 62
     7
100
AcDbHatch
 10
0.0
 20
0.0
 30
0.0
210
0.0
220
0.0
230
1.0
  2
SOLID
 70
     1
 71
     0
 91
        1
 92
        1
 93
        3
 72
     1
 10
185.8319460579558
 20
76.64261663674436
 11
185.8319460579558
 21
77.80928333942218
 72
     1
 10
185.8319460579558
 20
77.80928333942218
 11
182.3319459499224
 21
77.22594998808327
 72
     1
 10
182.3319459499224
 20
77.22594998808327
 11
185.8319460579558
 21
76.64261663674436
 97
        0
 75
     0
 76
     1
 98
        0
  0
HATCH
  5
183
330
181
100
AcDbEntity
  8
Default
  6
Continuous
 62
     7
100
AcDbHatch
 10
0.0
 20
0.0
 30
0.0
210
0.0
220
0.0
230
1.0
  2
SOLID
 70
     1
 71
     0
 91
        1
 92
        1
 93
        3
 72
     1
 10
208.4469457322164
 20
76.64261663674436
 11
211.9469458402499
 21
77.22594998808327
 72
     1
 10
211.9469458402499
 20
77.22594998808327
 11
208.4469457322164
 21
77.80928333942218
 72
     1
 10
208.4469457322164
 20
77.80928333942218
 11
208.4469457322164
 21
76.64261663674436
 97
        0
 75
     0
 76
     1
 98
        0
  0
LINE
  5
184
330
181
100
AcDbEntity
  8
Default
  6
Continuous
 62
     7
100
AcDbLine
 10
182.3319459499
 20
100.3135912123
 30
0.0
 11
182.3319459499
 21
75.4759499341
 31
0.0
  0
LINE
  5
185
330
181
100
AcDbEntity
  8
Default
  6
Continuous
 62
     7
100
AcDbLine
 10
211.9469459499
 20
100.3135912123
 30
0.0
 11
211.9469459499
 21
75.4759499341
 31
0.0
  0
LINE
  5
186
330
181
100
AcDbEntity
  8
Default
  6
Continuous
 62
     7
100
AcDbLine
 10
182.3319459499
 20
77.2259499881
 30
0.0
 11
211.9469458402
 21
77.2259499881
 31
0.0
  0
TEXT
  5
187
330
181
100
AcDbEntity
  8
Default
  6
Continuous
 62
     7
100
AcDbText
 10
193.5996731678
 20
78.1009499881
 30
0.0
 40
3.5
  1
29,6
  7
SEACAD_Solid_Edge_ISO
 11
193.5996731678
 21
81.6009499881
 31
0.0
100
AcDbText
 73
     3
  0
ENDBLK
  5
189
330
181
100
AcDbEntity
  8
0
100
AcDbBlockEnd
  0
BLOCK
  5
192
330
18B
100
AcDbEntity
  8
0
100
AcDbBlockBegin
  2
DMBLK6
 70
     0
 10
0.0
 20
0.0
 30
0.0
  3
DMBLK6
  1

  0
HATCH
  5
18C
330
18B
100
AcDbEntity
  8
Default
  6
Continuous
 62
     7
100
AcDbHatch
 10
0.0
 20
0.0
 30
0.0
210
0.0
220
0.0
230
1.0
  2
SOLID
 70
     1
 71
     0
 91
        1
 92
        1
 93
        3
 72
     1
 10
201.8894460579558
 20
87.14261677518913
 11
201.8894460579558
 21
88.30928347786694
 72
     1
 10
201.8894460579558
 20
88.30928347786694
 11
198.3894459499224
 21
87.72595012652803
 72
     1
 10
198.3894459499224
 20
87.72595012652803
 11
201.8894460579558
 21
87.14261677518913
 97
        0
 75
     0
 76
     1
 98
        0
  0
HATCH
  5
18D
330
18B
100
AcDbEntity
  8
Default
  6
Continuous
 62
     7
100
AcDbHatch
 10
0.0
 20
0.0
 30
0.0
210
0.0
220
0.0
230
1.0
  2
SOLID
 70
     1
 71
     0
 91
        1
 92
        1
 93
        3
 72
     1
 10
222.004446253757
 20
87.14261677518913
 11
225.5044463617905
 21
87.72595012652803
 72
     1
 10
225.5044463617905
 20
87.72595012652803
 11
222.004446253757
 21
88.30928347786694
 72
     1
 10
222.004446253757
 20
88.30928347786694
 11
222.004446253757
 21
87.14261677518913
 97
        0
 75
     0
 76
     1
 98
        0
  0
LINE
  5
18E
330
18B
100
AcDbEntity
  8
Default
  6
Continuous
 62
     7
100
AcDbLine
 10
198.3894459499
 20
103.5733685838
 30
0.0
 11
198.3894459499
 21
85.9759500725
 31
0.0
  0
LINE
  5
18F
330
18B
100
AcDbEntity
  8
Default
  6
Continuous
 62
     7
100
AcDbLine
 10
225.5044459499
 20
103.5733685838
 30
0.0
 11
225.5044459499
 21
85.9759500725
 31
0.0
  0
LINE
  5
190
330
18B
100
AcDbEntity
  8
Default
  6
Continuous
 62
     7
100
AcDbLine
 10
198.3894459499
 20
87.7259501265
 30
0.0
 11
225.5044463618
 21
87.7259501265
 31
0.0
  0
TEXT
  5
191
330
18B
100
AcDbEntity
  8
Default
  6
Continuous
 62
     7
100
AcDbText
 10
215.5880356745
 20
88.6009501265
 30
0.0
 40
3.5
  1
27,1
  7
SEACAD_Solid_Edge_ISO
 11
215.5880356745
 21
92.1009501265
 31
0.0
100
AcDbText
 73
     3
  0
ENDBLK
  5
193
330
18B
100
AcDbEntity
  8
0
100
AcDbBlockEnd
  0
BLOCK
  5
19D
330
195
100
AcDbEntity
  8
0
100
AcDbBlockBegin
  2
DMBLK7
 70
     0
 10
0.0
 20
0.0
 30
0.0
  3
DMBLK7
  1

  0
HATCH
  5
196
330
195
100
AcDbEntity
  8
Default
  6
Continuous
 62
     7
100
AcDbHatch
 10
0.0
 20
0.0
 30
0.0
210
0.0
220
0.0
230
1.0
  2
SOLID
 70
     1
 71
     0
 91
        1
 92
        1
 93
        3
 72
     1
 10
171.1107509220694
 20
231.8237118849497
 11
172.2774176247472
 21
231.8237118849497
 72
     1
 10
172.2774176247472
 20
231.8237118849497
 11
171.6940842734083
 21
235.3237119929831
 72
     1
 10
171.6940842734083
 20
235.3237119929831
 11
171.1107509220694
 21
231.8237118849497
 97
        0
 75
     0
 76
     1
 98
        0
  0
HATCH
  5
197
330
195
100
AcDbEntity
  8
Default
  6
Continuous
 62
     7
100
AcDbHatch
 10
0.0
 20
0.0
 30
0.0
210
0.0
220
0.0
230
1.0
  2
SOLID
 70
     1
 71
     0
 91
        1
 92
        1
 93
        3
 72
     1
 10
171.1107509220694
 20
113.5237070227008
 11
171.6940842734083
 21
110.0237069146674
 72
     1
 10
171.6940842734083
 20
110.0237069146674
 11
172.2774176247472
 21
113.5237070227008
 72
     1
 10
172.2774176247472
 20
113.5237070227008
 11
171.1107509220694
 21
113.5237070227008
 97
        0
 75
     0
 76
     1
 98
        0
  0
LINE
  5
198
330
195
100
AcDbEntity
  8
Default
  6
Continuous
 62
     7
100
AcDbLine
 10
182.3319459499
 20
235.323711993
 30
0.0
 11
169.9440842194
 21
235.323711993
 31
0.0
  0
LINE
  5
199
330
195
100
AcDbEntity
  8
Default
  6
Continuous
 62
     7
100
AcDbLine
 10
182.3319459499
 20
110.023711993
 30
0.0
 11
169.9440842194
 21
110.023711993
 31
0.0
  0
LINE
  5
19A
330
195
100
AcDbEntity
  8
Default
  6
Continuous
 62
     7
100
AcDbLine
 10
171.6940842734
 20
235.323711993
 30
0.0
 11
171.6940842734
 21
110.0237069147
 31
0.0
  0
TEXT
  5
19B
330
195
100
AcDbEntity
  8
Default
  6
Continuous
 62
     7
100
AcDbText
 10
170.8190842734
 20
165.991891272
 30
0.0
 40
3.5
  1
125,3
 50
90.0
  7
SEACAD_Solid_Edge_ISO
 11
167.3190842734
 21
165.991891272
 31
0.0
100
AcDbText
 73
     3
  0
TEXT
  5
19C
330
195
100
AcDbEntity
  8
Default
  6
Continuous
 62
     7
100
AcDbText
 10
170.8190842734
 20
175.7759821811
 30
0.0
 40
3.5
  1
±1
 50
90.0
  7
SEACAD_Solid_Edge_ISO
 11
167.3190842734
 21
175.7759821811
 31
0.0
100
AcDbText
 73
     3
  0
ENDBLK
  5
19E
330
195
100
AcDbEntity
  8
0
100
AcDbBlockEnd
  0
BLOCK
  5
1A7
330
1A0
100
AcDbEntity
  8
0
100
AcDbBlockBegin
  2
DMBLK8
 70
     0
 10
0.0
 20
0.0
 30
0.0
  3
DMBLK8
  1

  0
HATCH
  5
1A1
330
1A0
100
AcDbEntity
  8
Default
  6
Continuous
 62
     7
100
AcDbHatch
 10
0.0
 20
0.0
 30
0.0
210
0.0
220
0.0
230
1.0
  2
SOLID
 70
     1
 71
     0
 91
        1
 92
        1
 93
        3
 72
     1
 10
171.1107509220694
 20
231.8237118849497
 11
172.2774176247472
 21
231.8237118849497
 72
     1
 10
172.2774176247472
 20
231.8237118849497
 11
171.6940842734083
 21
235.3237119929831
 72
     1
 10
171.6940842734083
 20
235.3237119929831
 11
171.1107509220694
 21
231.8237118849497
 97
        0
 75
     0
 76
     1
 98
        0
  0
HATCH
  5
1A2
330
1A0
100
AcDbEntity
  8
Default
  6
Continuous
 62
     7
100
AcDbHatch
 10
0.0
 20
0.0
 30
0.0
210
0.0
220
0.0
230
1.0
  2
SOLID
 70
     1
 71
     0
 91
        1
 92
        1
 93
        3
 72
     1
 10
171.1107509220694
 20
248.5338328816511
 11
171.6940842734083
 21
245.0338327736177
 72
     1
 10
171.6940842734083
 20
245.0338327736177
 11
172.2774176247472
 21
248.5338328816511
 72
     1
 10
172.2774176247472
 20
248.5338328816511
 11
171.1107509220694
 21
248.5338328816511
 97
        0
 75
     0
 76
     1
 98
        0
  0
LINE
  5
1A3
330
1A0
100
AcDbEntity
  8
Default
  6
Continuous
 62
     7
100
AcDbLine
 10
182.3319459499
 20
235.323711993
 30
0.0
 11
169.9440842194
 21
235.323711993
 31
0.0
  0
LINE
  5
1A4
330
1A0
100
AcDbEntity
  8
Default
  6
Continuous
 62
     7
100
AcDbLine
 10
182.3319459499
 20
245.0338327736
 30
0.0
 11
169.9440842194
 21
245.0338327736
 31
0.0
  0
LINE
  5
1A5
330
1A0
100
AcDbEntity
  8
Default
  6
Continuous
 62
     7
100
AcDbLine
 10
171.6940842734
 20
228.3237117769
 30
0.0
 11
171.6940842734
 21
252.0338331776
 31
0.0
  0
TEXT
  5
1A6
330
1A0
100
AcDbEntity
  8
Default
  6
Continuous
 62
     7
100
AcDbText
 10
170.8190842734
 20
236.9571815682
 30
0.0
 40
3.5
  1
9,71
 50
90.0
  7
SEACAD_Solid_Edge_ISO
 11
167.3190842734
 21
236.9571815682
 31
0.0
100
AcDbText
 73
     3
  0
ENDBLK
  5
1A8
330
1A0
100
AcDbEntity
  8
0
100
AcDbBlockEnd
  0
BLOCK
  5
1B2
330
1AA
100
AcDbEntity
  8
0
100
AcDbBlockBegin
  2
DMBLK9
 70
     0
 10
0.0
 20
0.0
 30
0.0
  3
DMBLK9
  1

  0
HATCH
  5
1AB
330
1AA
100
AcDbEntity
  8
Default
  6
Continuous
 62
     7
100
AcDbHatch
 10
0.0
 20
0.0
 30
0.0
210
0.0
220
0.0
230
1.0
  2
SOLID
 70
     1
 71
     0
 91
        1
 92
        1
 93
        3
 72
     1
 10
201.5507360671514
 20
238.2740552941349
 11
200.9674027158125
 21
241.7740554021684
 72
     1
 10
200.9674027158125
 20
241.7740554021684
 11
200.3840693644736
 21
238.2740552941349
 72
     1
 10
200.3840693644736
 20
238.2740552941349
 11
201.5507360671514
 21
238.2740552941349
 97
        0
 75
     0
 76
     1
 98
        0
  0
HATCH
  5
1AC
330
1AA
100
AcDbEntity
  8
Default
  6
Continuous
 62
     7
100
AcDbHatch
 10
0.0
 20
0.0
 30
0.0
210
0.0
220
0.0
230
1.0
  2
SOLID
 70
     1
 71
     0
 91
        1
 92
        1
 93
        3
 72
     1
 10
201.5507360671514
 20
107.0733701283124
 11
200.3840693644736
 21
107.0733701283124
 72
     1
 10
200.3840693644736
 20
107.0733701283124
 11
200.9674027158125
 21
103.573370020279
 72
     1
 10
200.9674027158125
 20
103.573370020279
 11
201.5507360671514
 21
107.0733701283124
 97
        0
 75
     0
 76
     1
 98
        0
  0
LINE
  5
1AD
330
1AA
100
AcDbEntity
  8
Default
  6
Continuous
 62
     7
100
AcDbLine
 10
198.3894459499
 20
241.7740554022
 30
0.0
 11
202.7174027698
 21
241.7740554022
 31
0.0
  0
LINE
  5
1AE
330
1AA
100
AcDbEntity
  8
Default
  6
Continuous
 62
     7
100
AcDbLine
 10
198.3894459499
 20
103.5733685838
 30
0.0
 11
202.7174027698
 21
103.5733685838
 31
0.0
  0
LINE
  5
1AF
330
1AA
100
AcDbEntity
  8
Default
  6
Continuous
 62
     7
100
AcDbLine
 10
200.9674027158
 20
241.7740554022
 30
0.0
 11
200.9674027158
 21
103.5733700203
 31
0.0
  0
TEXT
  5
1B0
330
1AA
100
AcDbEntity
  8
Default
  6
Continuous
 62
     7
100
AcDbText
 10
200.0924027158
 20
165.8725763476
 30
0.0
 40
3.5
  1
138,2
 50
90.0
  7
SEACAD_Solid_Edge_ISO
 11
196.5924027158
 21
165.8725763476
 31
0.0
100
AcDbText
 73
     3
  0
TEXT
  5
1B1
330
1AA
100
AcDbEntity
  8
Default
  6
Continuous
 62
     7
100
AcDbText
 10
200.0924027158
 20
175.8953036203
 30
0.0
 40
3.5
  1
±1
 50
90.0
  7
SEACAD_Solid_Edge_ISO
 11
196.5924027158
 21
175.8953036203
 31
0.0
100
AcDbText
 73
     3
  0
ENDBLK
  5
1B3
330
1AA
100
AcDbEntity
  8
0
100
AcDbBlockEnd
  0
BLOCK
  5
1BC
330
1B5
100
AcDbEntity
  8
0
100
AcDbBlockBegin
  2
DMBLK10
 70
     0
 10
0.0
 20
0.0
 30
0.0
  3
DMBLK10
  1

  0
HATCH
  5
1B6
330
1B5
100
AcDbEntity
  8
Default
  6
Continuous
 62
     7
100
AcDbHatch
 10
0.0
 20
0.0
 30
0.0
210
0.0
220
0.0
230
1.0
  2
SOLID
 70
     1
 71
     0
 91
        1
 92
        1
 93
        3
 72
     1
 10
220.4994407968211
 20
248.5338328816671
 11
219.3327740941433
 21
248.5338328816649
 72
     1
 10
219.3327740941433
 20
248.5338328816649
 11
219.9161074454887
 21
245.0338327736326
 72
     1
 10
219.9161074454887
 20
245.0338327736326
 11
220.4994407968211
 21
248.5338328816671
 97
        0
 75
     0
 76
     1
 98
        0
  0
HATCH
  5
1B7
330
1B5
100
AcDbEntity
  8
Default
  6
Continuous
 62
     7
100
AcDbHatch
 10
0.0
 20
0.0
 30
0.0
210
0.0
220
0.0
230
1.0
  2
SOLID
 70
     1
 71
     0
 91
        1
 92
        1
 93
        3
 72
     1
 10
220.4994407968462
 20
235.0338326656003
 11
219.9161074455008
 21
238.5338327736326
 72
     1
 10
219.9161074455008
 20
238.5338327736326
 11
219.3327740941685
 21
235.0338326655981
 72
     1
 10
219.3327740941685
 20
235.0338326655981
 11
220.4994407968462
 21
235.0338326656003
 97
        0
 75
     0
 76
     1
 98
        0
  0
LINE
  5
1B8
330
1B5
100
AcDbEntity
  8
Default
  6
Continuous
 62
     7
100
AcDbLine
 10
211.9469459499
 20
245.0338327736
 30
0.0
 11
221.6661074995
 21
245.0338327736
 31
0.0
  0
LINE
  5
1B9
330
1B5
100
AcDbEntity
  8
Default
  6
Continuous
 62
     7
100
AcDbLine
 10
211.9469459499
 20
238.5338327736
 30
0.0
 11
221.6661074995
 21
238.5338327736
 31
0.0
  0
LINE
  5
1BA
330
1B5
100
AcDbEntity
  8
Default
  6
Continuous
 62
     7
100
AcDbLine
 10
219.9161074455
 20
252.0338329897
 30
0.0
 11
219.9161074455
 21
231.5338324235
 31
0.0
  0
TEXT
  5
1BB
330
1B5
100
AcDbEntity
  8
Default
  6
Continuous
 62
     7
100
AcDbText
 10
219.0411074455
 20
239.3974690702
 30
0.0
 40
3.5
  1
6,5
 50
90.0
  7
SEACAD_Solid_Edge_ISO
 11
215.5411074455
 21
239.3974690702
 31
0.0
100
AcDbText
 73
     3
  0
ENDBLK
  5
1BD
330
1B5
100
AcDbEntity
  8
0
100
AcDbBlockEnd
  0
BLOCK
  5
1C7
330
1BF
100
AcDbEntity
  8
0
100
AcDbBlockBegin
  2
DMBLK11
 70
     0
 10
0.0
 20
0.0
 30
0.0
  3
DMBLK11
  1

  0
HATCH
  5
1C0
330
1BF
100
AcDbEntity
  8
Default
  6
Continuous
 62
     7
100
AcDbHatch
 10
0.0
 20
0.0
 30
0.0
210
0.0
220
0.0
230
1.0
  2
SOLID
 70
     1
 71
     0
 91
        1
 92
        1
 93
        3
 72
     1
 10
216.005196564066
 20
235.0338326655843
 11
215.4218632127271
 21
238.5338327736177
 72
     1
 10
215.4218632127271
 20
238.5338327736177
 11
214.8385298613882
 21
235.0338326655843
 72
     1
 10
214.8385298613882
 20
235.0338326655843
 11
216.005196564066
 21
235.0338326655843
 97
        0
 75
     0
 76
     1
 98
        0
  0
HATCH
  5
1C1
330
1BF
100
AcDbEntity
  8
Default
  6
Continuous
 62
     7
100
AcDbHatch
 10
0.0
 20
0.0
 30
0.0
210
0.0
220
0.0
230
1.0
  2
SOLID
 70
     1
 71
     0
 91
        1
 92
        1
 93
        3
 72
     1
 10
216.005196564066
 20
110.3135879971602
 11
214.8385298613882
 21
110.3135879971602
 72
     1
 10
214.8385298613882
 20
110.3135879971602
 11
215.4218632127271
 21
106.8135878891268
 72
     1
 10
215.4218632127271
 20
106.8135878891268
 11
216.005196564066
 21
110.3135879971602
 97
        0
 75
     0
 76
     1
 98
        0
  0
LINE
  5
1C2
330
1BF
100
AcDbEntity
  8
Default
  6
Continuous
 62
     7
100
AcDbLine
 10
211.9469459499
 20
238.5338327736
 30
0.0
 11
217.1718632667
 21
238.5338327736
 31
0.0
  0
LINE
  5
1C3
330
1BF
100
AcDbEntity
  8
Default
  6
Continuous
 62
     7
100
AcDbLine
 10
211.9469459499
 20
106.8135912123
 30
0.0
 11
217.1718632667
 21
106.8135912123
 31
0.0
  0
LINE
  5
1C4
330
1BF
100
AcDbEntity
  8
Default
  6
Continuous
 62
     7
100
AcDbLine
 10
215.4218632127
 20
238.5338327736
 30
0.0
 11
215.4218632127
 21
106.8135878891
 31
0.0
  0
TEXT
  5
1C5
330
1BF
100
AcDbEntity
  8
Default
  6
Continuous
 62
     7
100
AcDbText
 10
214.5468632127
 20
166.2305285132
 30
0.0
 40
3.5
  1
131,7
 50
90.0
  7
SEACAD_Solid_Edge_ISO
 11
211.0468632127
 21
166.2305285132
 31
0.0
100
AcDbText
 73
     3
  0
TEXT
  5
1C6
330
1BF
100
AcDbEntity
  8
Default
  6
Continuous
 62
     7
100
AcDbText
 10
214.5468632127
 20
175.537346695
 30
0.0
 40
3.5
  1
±1
 50
90.0
  7
SEACAD_Solid_Edge_ISO
 11
211.0468632127
 21
175.537346695
 31
0.0
100
AcDbText
 73
     3
  0
ENDBLK
  5
1C8
330
1BF
100
AcDbEntity
  8
0
100
AcDbBlockEnd
  0
BLOCK
  5
1D1
330
1CA
100
AcDbEntity
  8
0
100
AcDbBlockBegin
  2
DMBLK12
 70
     0
 10
0.0
 20
0.0
 30
0.0
  3
DMBLK12
  1

  0
HATCH
  5
1CB
330
1CA
100
AcDbEntity
  8
Default
  6
Continuous
 62
     7
100
AcDbHatch
 10
0.0
 20
0.0
 30
0.0
210
0.0
220
0.0
230
1.0
  2
SOLID
 70
     1
 71
     0
 91
        1
 92
        1
 93
        3
 72
     1
 10
72.99883212851624
 20
63.30490583137573
 11
72.99883212851624
 21
64.47157253405354
 72
     1
 10
72.99883212851624
 20
64.47157253405354
 11
69.49883202048282
 21
63.88823918271463
 72
     1
 10
69.49883202048282
 20
63.88823918271463
 11
72.99883212851624
 21
63.30490583137573
 97
        0
 75
     0
 76
     1
 98
        0
  0
HATCH
  5
1CC
330
1CA
100
AcDbEntity
  8
Default
  6
Continuous
 62
     7
100
AcDbHatch
 10
0.0
 20
0.0
 30
0.0
210
0.0
220
0.0
230
1.0
  2
SOLID
 70
     1
 71
     0
 91
        1
 92
        1
 93
        3
 72
     1
 10
272.1544598783765
 20
63.30490583137577
 11
275.6544599864099
 21
63.88823918271468
 72
     1
 10
275.6544599864099
 20
63.88823918271468
 11
272.1544598783765
 21
64.47157253405358
 72
     1
 10
272.1544598783765
 20
64.47157253405358
 11
272.1544598783765
 21
63.30490583137576
 97
        0
 75
     0
 76
     1
 98
        0
  0
LINE
  5
1CD
330
1CA
100
AcDbEntity
  8
Default
  6
Continuous
 62
     7
100
AcDbLine
 10
69.4988320205
 20
172.673711993
 30
0.0
 11
69.4988320205
 21
62.1382391287
 31
0.0
  0
LINE
  5
1CE
330
1CA
100
AcDbEntity
  8
Default
  6
Continuous
 62
     7
100
AcDbLine
 10
275.6544529418
 20
124.7763468069
 30
0.0
 11
275.6544529418
 21
62.1382391287
 31
0.0
  0
LINE
  5
1CF
330
1CA
100
AcDbEntity
  8
Default
  6
Continuous
 62
     7
100
AcDbLine
 10
69.4988320205
 20
63.8882391827
 30
0.0
 11
275.6544599864
 21
63.8882391827
 31
0.0
  0
TEXT
  5
1D0
330
1CA
100
AcDbEntity
  8
Default
  6
Continuous
 62
     7
100
AcDbText
 10
167.2868732762
 20
64.7632391827
 30
0.0
 40
3.5
  1
206,16
  7
SEACAD_Solid_Edge_ISO
 11
167.2868732762
 21
68.2632391827
 31
0.0
100
AcDbText
 73
     3
  0
ENDBLK
  5
1D2
330
1CA
100
AcDbEntity
  8
0
100
AcDbBlockEnd
  0
BLOCK
  5
1F1
330
1EF
100
AcDbEntity
  8
0
100
AcDbBlockBegin
  2
SEANNOT_GROUP
 70
     0
 10
0.0
 20
0.0
 30
0.0
  3
SEANNOT_GROUP
  1

  0
ENDBLK
  5
1F2
330
1EF
100
AcDbEntity
  8
0
100
AcDbBlockEnd
  0
BLOCK
  5
1FB
330
1F9
100
AcDbEntity
  8
0
100
AcDbBlockBegin
  2
SEANNOT_GROUP1
 70
     0
 10
0.0
 20
0.0
 30
0.0
  3
SEANNOT_GROUP1
  1

  0
ENDBLK
  5
1FC
330
1F9
100
AcDbEntity
  8
0
100
AcDbBlockEnd
  0
BLOCK
  5
202
330
200
100
AcDbEntity
  8
0
100
AcDbBlockBegin
  2
SEANNOT_GROUP2
 70
     0
 10
0.0
 20
0.0
 30
0.0
  3
SEANNOT_GROUP2
  1

  0
ENDBLK
  5
203
330
200
100
AcDbEntity
  8
0
100
AcDbBlockEnd
  0
ENDSEC
  0
SECTION
  2
ENTITIES
  0
CIRCLE
  5
6F
330
1F
100
AcDbEntity
  8
Default
  6
Continuous
 62
     7
100
AcDbCircle
 10
211.9469459499
 20
245.0338327736
 30
0.0
 40
1.5
  0
CIRCLE
  5
70
330
1F
100
AcDbEntity
  8
Default
  6
Continuous
 62
     7
100
AcDbCircle
 10
241.5619459499
 20
245.0338327736
 30
0.0
 40
1.5
  0
CIRCLE
  5
71
330
1F
100
AcDbEntity
  8
Default
  6
Continuous
 62
     7
100
AcDbCircle
 10
182.3319459499
 20
245.0338327736
 30
0.0
 40
1.5
  0
CIRCLE
  5
72
330
1F
100
AcDbEntity
  8
Default
  6
Continuous
 62
     7
100
AcDbCircle
 10
211.9469459499
 20
238.5338327736
 30
0.0
 40
1.5
  0
ARC
  5
73
330
1F
100
AcDbEntity
  8
Default
  6
Continuous
 62
     7
100
AcDbCircle
 10
242.5619459499
 20
247.5243988114
 30
0.0
 40
4.0
100
AcDbArc
 50
0.0
 51
90.0
  0
ARC
  5
74
330
1F
100
AcDbEntity
  8
Default
  6
Continuous
 62
     7
100
AcDbCircle
 10
181.3319459499
 20
247.5243988114
 30
0.0
 40
4.0
100
AcDbArc
 50
90.0
 51
180.0
  0
LINE
  5
75
330
1F
100
AcDbEntity
  8
Default
  6
Continuous
 62
     7
100
AcDbLine
 10
181.3319459499
 20
251.5243988114
 30
0.0
 11
242.5619459499
 21
251.5243988114
 31
0.0
  0
CIRCLE
  5
76
330
1F
100
AcDbEntity
  8
Default
  6
Continuous
 62
     7
100
AcDbCircle
 10
198.3894459499
 20
241.7740554022
 30
0.0
 40
1.5
  0
CIRCLE
  5
77
330
1F
100
AcDbEntity
  8
Default
  6
Continuous
 62
     7
100
AcDbCircle
 10
225.5044459499
 20
241.7740554022
 30
0.0
 40
1.5
  0
CIRCLE
  5
78
330
1F
100
AcDbEntity
  8
Default
  6
Continuous
 62
     7
100
AcDbCircle
 10
182.3319459499
 20
235.323711993
 30
0.0
 40
1.6
  0
CIRCLE
  5
79
330
1F
100
AcDbEntity
  8
Default
  6
Continuous
 62
     7
100
AcDbCircle
 10
241.5619459499
 20
235.323711993
 30
0.0
 40
1.6
  0
LINE
  5
7B
330
1F
100
AcDbEntity
  8
Default
  6
DOT2
 62
     7
100
AcDbLine
 10
177.3319459499
 20
232.023711993
 30
0.0
 11
187.3319459499
 21
232.023711993
 31
0.0
  0
LINE
  5
7C
330
1F
100
AcDbEntity
  8
Default
  6
DOT2
 62
     7
100
AcDbLine
 10
236.5619459499
 20
232.023711993
 30
0.0
 11
246.5619459499
 21
232.023711993
 31
0.0
  0
LINE
  5
7D
330
1F
100
AcDbEntity
  8
Default
  6
Continuous
 62
     7
100
AcDbLine
 10
177.3319459499
 20
247.5243988114
 30
0.0
 11
177.3319459499
 21
232.023711993
 31
0.0
  0
LINE
  5
7E
330
1F
100
AcDbEntity
  8
Default
  6
Continuous
 62
     7
100
AcDbLine
 10
246.5619459499
 20
247.5243988114
 30
0.0
 11
246.5619459499
 21
232.023711993
 31
0.0
  0
CIRCLE
  5
7F
330
1F
100
AcDbEntity
  8
Default
  6
Continuous
 62
     7
100
AcDbCircle
 10
211.9469459499
 20
100.3135912123
 30
0.0
 40
1.5
  0
CIRCLE
  5
80
330
1F
100
AcDbEntity
  8
Default
  6
Continuous
 62
     7
100
AcDbCircle
 10
241.5619459499
 20
100.3135912123
 30
0.0
 40
1.5
  0
CIRCLE
  5
81
330
1F
100
AcDbEntity
  8
Default
  6
Continuous
 62
     7
100
AcDbCircle
 10
182.3319459499
 20
100.3135912123
 30
0.0
 40
1.5
  0
CIRCLE
  5
82
330
1F
100
AcDbEntity
  8
Default
  6
Continuous
 62
     7
100
AcDbCircle
 10
211.9469459499
 20
106.8135912123
 30
0.0
 40
1.5
  0
ARC
  5
83
330
1F
100
AcDbEntity
  8
Default
  6
Continuous
 62
     7
100
AcDbCircle
 10
242.5619459499
 20
97.8230251746
 30
0.0
 40
4.0
100
AcDbArc
 50
270.0
 51
0.0
  0
ARC
  5
84
330
1F
100
AcDbEntity
  8
Default
  6
Continuous
 62
     7
100
AcDbCircle
 10
181.3319459499
 20
97.8230251746
 30
0.0
 40
4.0
100
AcDbArc
 50
180.0
 51
270.0
  0
LINE
  5
85
330
1F
100
AcDbEntity
  8
Default
  6
Continuous
 62
     7
100
AcDbLine
 10
181.3319459499
 20
93.8230251746
 30
0.0
 11
242.5619459499
 21
93.8230251746
 31
0.0
  0
CIRCLE
  5
86
330
1F
100
AcDbEntity
  8
Default
  6
Continuous
 62
     7
100
AcDbCircle
 10
198.3894459499
 20
103.5733685838
 30
0.0
 40
1.5
  0
CIRCLE
  5
87
330
1F
100
AcDbEntity
  8
Default
  6
Continuous
 62
     7
100
AcDbCircle
 10
225.5044459499
 20
103.5733685838
 30
0.0
 40
1.5
  0
CIRCLE
  5
88
330
1F
100
AcDbEntity
  8
Default
  6
Continuous
 62
     7
100
AcDbCircle
 10
182.3319459499
 20
110.023711993
 30
0.0
 40
1.6
  0
CIRCLE
  5
89
330
1F
100
AcDbEntity
  8
Default
  6
Continuous
 62
     7
100
AcDbCircle
 10
241.5619459499
 20
110.023711993
 30
0.0
 40
1.6
  0
LINE
  5
8A
330
1F
100
AcDbEntity
  8
Default
  6
DOT2
 62
     7
100
AcDbLine
 10
177.3319459499
 20
113.323711993
 30
0.0
 11
187.3319459499
 21
113.323711993
 31
0.0
  0
LINE
  5
8B
330
1F
100
AcDbEntity
  8
Default
  6
DOT2
 62
     7
100
AcDbLine
 10
236.5619459499
 20
113.323711993
 30
0.0
 11
246.5619459499
 21
113.323711993
 31
0.0
  0
LINE
  5
8C
330
1F
100
AcDbEntity
  8
Default
  6
Continuous
 62
     7
100
AcDbLine
 10
177.3319459499
 20
97.8230251746
 30
0.0
 11
177.3319459499
 21
113.323711993
 31
0.0
  0
LINE
  5
8D
330
1F
100
AcDbEntity
  8
Default
  6
Continuous
 62
     7
100
AcDbLine
 10
246.5619459499
 20
97.8230251746
 30
0.0
 11
246.5619459499
 21
113.323711993
 31
0.0
  0
MTEXT
  5
8E
330
1F
100
AcDbEntity
  8
Default
100
AcDbMText
 10
358.0934752423
 20
39.7591735749
 30
0.0
 40
5.0
 41
41.8056713774
 46
9.0941352144
 71
     1
 72
     1
  1
{\fSpace Age|b0||i0||c0|p34;\C7;\H5.;\W1.;x23o}{\fSolid Edge ISO|b0||i0||c0|p34;\C7;\H3.5;\W1.;  }
 73
     1
 44
1.0
1001
ACAD
1000
ACAD_MTEXT_DEFINED_HEIGHT_BEGIN
1070
    46
1040
9.0941352144
1000
ACAD_MTEXT_DEFINED_HEIGHT_END
  0
INSERT
  5
90
330
1F
100
AcDbEntity
  8
Default
100
AcDbBlockReference
  2
SE
 10
0.0
 20
0.0
 30
0.0
  0
DIMENSION
  5
157
330
1F
100
AcDbEntity
  8
Default
  6
Continuous
 62
     7
100
AcDbDimension
  2
DMBLK1
 10
326.7847903853
 20
276.6356479309
 30
0.0
 11
198.1418083045
 21
276.6356479309
 31
0.0
 70
   160
  1
\A1;<>
 71
     5
 42
-1.0
 73
     0
 74
     0
 75
     0
  3
ISO_(mm)
100
AcDbAlignedDimension
 13
69.4988320205
 23
183.513433852
 33
0.0
 14
326.7847903853
 24
172.673711993
 34
0.0
100
AcDbRotatedDimension
  0
DIMENSION
  5
161
330
1F
100
AcDbEntity
  8
Default
  6
Continuous
 62
     7
100
AcDbDimension
  2
DMBLK2
 10
24.7185023006
 20
113.573711993
 30
0.0
 11
24.7185023006
 21
172.6737136679
 31
0.0
 70
   160
  1
\A1;<>
 71
     5
 42
-1.0
 73
     0
 74
     0
 75
     0
  3
ISO_(mm)
100
AcDbAlignedDimension
 13
124.6870250877
 23
231.773711993
 33
0.0
 14
137.0791503482
 24
113.573711993
 34
0.0
 50
90.0
100
AcDbRotatedDimension
1001
ACAD
1000
DSTYLE
1002
{
1070
   271
1070
     0
1070
     0
1002
}
  0
DIMENSION
  5
16B
330
1F
100
AcDbEntity
  8
Default
  6
Continuous
 62
     7
100
AcDbDimension
  2
DMBLK3
 10
399.8967673029
 20
93.8230251746
 30
0.0
 11
399.8967673029
 21
172.6737122612
 31
0.0
 70
   160
  1
\A1;<> ±1
 71
     5
 42
-1.0
 73
     0
 74
     0
 75
     0
  3
ISO_(mm)
100
AcDbAlignedDimension
 13
211.9469459499
 23
251.5243988114
 33
0.0
 14
181.3319459499
 24
93.8230251746
 34
0.0
 50
90.0
100
AcDbRotatedDimension
  0
DIMENSION
  5
176
330
1F
100
AcDbEntity
  8
Default
  6
Continuous
 62
     7
100
AcDbDimension
  2
DMBLK4
 10
211.9469459499
 20
269.6513470195
 30
0.0
 11
140.7228882048
 21
269.6513470195
 31
0.0
 70
   160
  1
\A1;<>
 71
     5
 42
-1.0
 73
     0
 74
     0
 75
     0
  3
ISO_(mm)
100
AcDbAlignedDimension
 13
69.4988320205
 23
183.513433852
 33
0.0
 14
211.9469459499
 24
245.0338327736
 34
0.0
100
AcDbRotatedDimension
  0
DIMENSION
  5
180
330
1F
100
AcDbEntity
  8
Default
  6
Continuous
 62
     7
100
AcDbDimension
  2
DMBLK5
 10
182.3319459499
 20
77.2259499881
 30
0.0
 11
197.1394458951
 21
77.2259499881
 31
0.0
 70
   161
  1
\A1;<>
 71
     5
 42
-1.0
 73
     0
 74
     0
 75
     0
  3
ISO_(mm)
100
AcDbAlignedDimension
 13
182.3319459499
 23
100.3135912123
 33
0.0
 14
211.9469459499
 24
100.3135912123
 34
0.0
  0
DIMENSION
  5
18A
330
1F
100
AcDbEntity
  8
Default
  6
Continuous
 62
     7
100
AcDbDimension
  2
DMBLK6
 10
198.3894459499
 20
87.7259501265
 30
0.0
 11
218.8096265836
 21
87.7259501265
 31
0.0
 70
   161
  1
\A1;<>
 71
     5
 42
-1.0
 73
     0
 74
     0
 75
     0
  3
ISO_(mm)
100
AcDbAlignedDimension
 13
198.3894459499
 23
103.5733685838
 33
0.0
 14
225.5044459499
 24
103.5733685838
 34
0.0
  0
DIMENSION
  5
194
330
1F
100
AcDbEntity
  8
Default
  6
Continuous
 62
     7
100
AcDbDimension
  2
DMBLK7
 10
171.6940842734
 20
235.323711993
 30
0.0
 11
171.6940842734
 21
172.6737094538
 31
0.0
 70
   161
  1
\A1;<> ±1
 71
     5
 42
-1.0
 73
     0
 74
     0
 75
     0
  3
ISO_(mm)
100
AcDbAlignedDimension
 13
182.3319459499
 23
235.323711993
 33
0.0
 14
182.3319459499
 24
110.023711993
 34
0.0
1001
ACAD
1000
DSTYLE
1002
{
1070
   271
1070
     2
1070
     0
1002
}
  0
DIMENSION
  5
19F
330
1F
100
AcDbEntity
  8
Default
  6
Continuous
 62
     7
100
AcDbDimension
  2
DMBLK8
 10
171.6940842734
 20
235.323711993
 30
0.0
 11
171.6940842734
 21
240.1787724772
 31
0.0
 70
   161
  1
\A1;<>
 71
     5
 42
-1.0
 73
     0
 74
     0
 75
     0
  3
ISO_(mm)
100
AcDbAlignedDimension
 13
182.3319459499
 23
235.323711993
 33
0.0
 14
182.3319459499
 24
245.0338327736
 34
0.0
1001
ACAD
1000
DSTYLE
1002
{
1070
   271
1070
     2
1070
     0
1002
}
  0
DIMENSION
  5
1A9
330
1F
100
AcDbEntity
  8
Default
  6
Continuous
 62
     7
100
AcDbDimension
  2
DMBLK9
 10
200.9674027158
 20
241.7740554022
 30
0.0
 11
200.9674027158
 21
172.6737127112
 31
0.0
 70
   161
  1
\A1;<> ±1
 71
     5
 42
-1.0
 73
     0
 74
     0
 75
     0
  3
ISO_(mm)
100
AcDbAlignedDimension
 13
198.3894459499
 23
241.7740554022
 33
0.0
 14
198.3894459499
 24
103.5733685838
 34
0.0
1001
ACAD
1000
DSTYLE
1002
{
1070
   271
1070
     2
1070
     0
1002
}
  0
DIMENSION
  5
1B4
330
1F
100
AcDbEntity
  8
Default
  6
Continuous
 62
     7
100
AcDbDimension
  2
DMBLK10
 10
219.9161074455
 20
245.0338327736
 30
0.0
 11
219.9161074455
 21
241.7838327066
 31
0.0
 70
   161
  1
\A1;<>
 71
     5
 42
-1.0
 73
     0
 74
     0
 75
     0
  3
ISO_(mm)
100
AcDbAlignedDimension
 13
211.9469459499
 23
245.0338327736
 33
0.0
 14
211.9469459499
 24
238.5338327736
 34
0.0
1001
ACAD
1000
DSTYLE
1002
{
1070
   271
1070
     2
1070
     0
1002
}
  0
DIMENSION
  5
1BE
330
1F
100
AcDbEntity
  8
Default
  6
Continuous
 62
     7
100
AcDbDimension
  2
DMBLK11
 10
215.4218632127
 20
238.5338327736
 30
0.0
 11
215.4218632127
 21
172.6737103314
 31
0.0
 70
   161
  1
\A1;<> ±1
 71
     5
 42
-1.0
 73
     0
 74
     0
 75
     0
  3
ISO_(mm)
100
AcDbAlignedDimension
 13
211.9469459499
 23
238.5338327736
 33
0.0
 14
211.9469459499
 24
106.8135912123
 34
0.0
  0
DIMENSION
  5
1C9
330
1F
100
AcDbEntity
  8
Default
  6
Continuous
 62
     7
100
AcDbDimension
  2
DMBLK12
 10
275.6544529418
 20
63.8882391827
 30
0.0
 11
172.5766460034
 21
63.8882391827
 31
0.0
 70
   160
  1
\A1;<>
 71
     5
 42
-1.0
 73
     0
 74
     0
 75
     0
  3
ISO_(mm)
100
AcDbAlignedDimension
 13
69.4988320205
 23
172.673711993
 33
0.0
 14
275.6544529418
 24
220.5710766953
 34
0.0
100
AcDbRotatedDimension
1001
ACAD
1000
DSTYLE
1002
{
1070
   271
1070
     2
1070
     0
1002
}
  0
LINE
  5
1D3
330
1F
100
AcDbEntity
  8
Default
  6
Continuous
 62
     7
100
AcDbLine
 10
10.0
 20
10.0
 30
0.0
 11
410.0
 21
10.0
 31
0.0
  0
LINE
  5
1D4
330
1F
100
AcDbEntity
  8
Default
  6
Continuous
 62
     7
100
AcDbLine
 10
410.0
 20
10.0
 30
0.0
 11
410.0
 21
287.0
 31
0.0
  0
LINE
  5
1D5
330
1F
100
AcDbEntity
  8
Default
  6
Continuous
 62
     7
100
AcDbLine
 10
410.0
 20
287.0
 30
0.0
 11
10.0
 21
287.0
 31
0.0
  0
LINE
  5
1D6
330
1F
100
AcDbEntity
  8
Default
  6
Continuous
 62
     7
100
AcDbLine
 10
10.0
 20
287.0
 30
0.0
 11
10.0
 21
10.0
 31
0.0
  0
LINE
  5
1D7
330
1F
100
AcDbEntity
  8
Default
  6
Continuous
 62
     7
100
AcDbLine
 10
267.125
 20
10.0
 30
0.0
 11
267.125
 21
60.8
 31
0.0
  0
LINE
  5
1D8
330
1F
100
AcDbEntity
  8
Default
  6
Continuous
 62
     7
100
AcDbLine
 10
289.35
 20
32.225
 30
0.0
 11
289.35
 21
60.8
 31
0.0
  0
LINE
  5
1D9
330
1F
100
AcDbEntity
  8
Default
  6
Continuous
 62
     7
100
AcDbLine
 10
308.4
 20
32.225
 30
0.0
 11
308.4
 21
60.8
 31
0.0
  0
LINE
  5
1DA
330
1F
100
AcDbEntity
  8
Default
  6
Continuous
 62
     7
100
AcDbLine
 10
330.625
 20
10.0
 30
0.0
 11
330.625
 21
60.8
 31
0.0
  0
LINE
  5
1DB
330
1F
100
AcDbEntity
  8
Default
  6
Continuous
 62
     7
100
AcDbLine
 10
340.15
 20
22.7
 30
0.0
 11
340.15
 21
32.098
 31
0.0
  0
LINE
  5
1DC
330
1F
100
AcDbEntity
  8
Default
  6
Continuous
 62
     7
100
AcDbLine
 10
352.85
 20
10.0
 30
0.0
 11
352.85
 21
16.35
 31
0.0
  0
LINE
  5
1DD
330
1F
100
AcDbEntity
  8
Default
  6
Continuous
 62
     7
100
AcDbLine
 10
378.25
 20
10.0
 30
0.0
 11
378.25
 21
16.35
 31
0.0
  0
LINE
  5
1DE
330
1F
100
AcDbEntity
  8
Default
  6
Continuous
 62
     7
100
AcDbLine
 10
400.348
 20
22.7
 30
0.0
 11
400.348
 21
32.098
 31
0.0
  0
LINE
  5
1DF
330
1F
100
AcDbEntity
  8
Default
  6
Continuous
 62
     7
100
AcDbLine
 10
267.125
 20
60.8
 30
0.0
 11
410.0
 21
60.8
 31
0.0
  0
LINE
  5
1E0
330
1F
100
AcDbEntity
  8
Default
  6
Continuous
 62
     7
100
AcDbLine
 10
267.125
 20
55.085
 30
0.0
 11
330.625
 21
55.085
 31
0.0
  0
LINE
  5
1E1
330
1F
100
AcDbEntity
  8
Default
  6
Continuous
 62
     7
100
AcDbLine
 10
267.125
 20
49.37
 30
0.0
 11
330.625
 21
49.37
 31
0.0
  0
LINE
  5
1E2
330
1F
100
AcDbEntity
  8
Default
  6
Continuous
 62
     7
100
AcDbLine
 10
330.625
 20
45.052
 30
0.0
 11
410.0
 21
45.052
 31
0.0
  0
LINE
  5
1E3
330
1F
100
AcDbEntity
  8
Default
  6
Continuous
 62
     7
100
AcDbLine
 10
267.125
 20
43.655
 30
0.0
 11
330.625
 21
43.655
 31
0.0
  0
LINE
  5
1E4
330
1F
100
AcDbEntity
  8
Default
  6
Continuous
 62
     7
100
AcDbLine
 10
267.125
 20
37.94
 30
0.0
 11
330.625
 21
37.94
 31
0.0
  0
LINE
  5
1E5
330
1F
100
AcDbEntity
  8
Default
  6
Continuous
 62
     7
100
AcDbLine
 10
267.125
 20
32.225
 30
0.0
 11
410.0
 21
32.225
 31
0.0
  0
LINE
  5
1E6
330
1F
100
AcDbEntity
  8
Default
  6
Continuous
 62
     7
100
AcDbLine
 10
330.625
 20
22.7
 30
0.0
 11
410.0
 21
22.7
 31
0.0
  0
LINE
  5
1E7
330
1F
100
AcDbEntity
  8
Default
  6
Continuous
 62
     7
100
AcDbLine
 10
330.625
 20
16.35
 30
0.0
 11
410.0
 21
16.35
 31
0.0
  0
MTEXT
  5
1E8
330
1F
100
AcDbEntity
  8
Default
100
AcDbMText
 10
268.649
 20
52.2275
 30
0.0
 40
3.048
 41
20.701
 46
5.715
 71
     4
 72
     1
  1
{\fSolid Edge ISO|b0||i0||c0|p34;\C7;\H3.048;\W1.;DRAWN}
 73
     1
 44
1.0
1001
ACAD
1000
ACAD_MTEXT_DEFINED_HEIGHT_BEGIN
1070
    46
1040
5.715
1000
ACAD_MTEXT_DEFINED_HEIGHT_END
  0
MTEXT
  5
1E9
330
1F
100
AcDbEntity
  8
Default
100
AcDbMText
 10
268.649
 20
46.5125
 30
0.0
 40
3.048
 41
20.701
 46
5.715
 71
     4
 72
     1
  1
{\fSolid Edge ISO|b0||i0||c0|p34;\C7;\H3.048;\W1.;CHECKED}
 73
     1
 44
1.0
1001
ACAD
1000
ACAD_MTEXT_DEFINED_HEIGHT_BEGIN
1070
    46
1040
5.715
1000
ACAD_MTEXT_DEFINED_HEIGHT_END
  0
MTEXT
  5
1EA
330
1F
100
AcDbEntity
  8
Default
100
AcDbMText
 10
268.649
 20
40.7975
 30
0.0
 40
3.048
 41
20.701
 46
5.715
 71
     4
 72
     1
  1
{\fSolid Edge ISO|b0||i0||c0|p34;\C7;\H3.048;\W1.;ENG APPR}
 73
     1
 44
1.0
1001
ACAD
1000
ACAD_MTEXT_DEFINED_HEIGHT_BEGIN
1070
    46
1040
5.715
1000
ACAD_MTEXT_DEFINED_HEIGHT_END
  0
MTEXT
  5
1EB
330
1F
100
AcDbEntity
  8
Default
100
AcDbMText
 10
268.649
 20
35.0825
 30
0.0
 40
3.048
 41
20.701
 46
5.715
 71
     4
 72
     1
  1
{\fSolid Edge ISO|b0||i0||c0|p34;\C7;\H3.048;\W1.;MGR APPR}
 73
     1
 44
1.0
1001
ACAD
1000
ACAD_MTEXT_DEFINED_HEIGHT_BEGIN
1070
    46
1040
5.715
1000
ACAD_MTEXT_DEFINED_HEIGHT_END
  0
MTEXT
  5
1EC
330
1F
100
AcDbEntity
  8
Default
100
AcDbMText
 10
298.875
 20
21.1125
 30
0.0
 40
3.048
 41
63.5
 46
22.225
 71
     5
 72
     1
  3
{\fSolid Edge ISO|b0||i0||c0|p34;\C7;\H3.048;\W1.;UNLESS OTHERWISE SPECIFIED\P}{\fSolid Edge ISO|b0||i0||c0|p34;\C7;\H3.048;\W1.;DIMENSIONS ARE IN MILLIMETERS\P}{\fSolid Edge ISO|b0||i0||c0|p34;\C7;\H3.048;\W1.;ANGLES ±X.X°\P}{\fSolid Edge ISO|b0||i0
  1
||c0|p34;\C7;\H3.048;\W1.;2 PL ±X.XX 3 PL ±X.XXX}
 73
     1
 44
1.0
1001
ACAD
1000
ACAD_MTEXT_DEFINED_HEIGHT_BEGIN
1070
    46
1040
22.225
1000
ACAD_MTEXT_DEFINED_HEIGHT_END
  0
MTEXT
  5
1ED
330
1F
100
AcDbEntity
  8
Default
100
AcDbMText
 10
298.875
 20
57.9425
 30
0.0
 40
3.048
 41
19.05
 46
5.715
 71
     5
 72
     1
  1
{\fSolid Edge ISO|b0||i0||c0|p34;\C7;\H3.048;\W1.;NAME}
 73
     1
 44
1.0
1001
ACAD
1000
ACAD_MTEXT_DEFINED_HEIGHT_BEGIN
1070
    46
1040
5.715
1000
ACAD_MTEXT_DEFINED_HEIGHT_END
  0
MTEXT
  5
1EE
330
1F
100
AcDbEntity
  8
Default
100
AcDbMText
 10
319.5125
 20
57.9425
 30
0.0
 40
3.048
 41
22.225
 46
5.715
 71
     5
 72
     1
  1
{\fSolid Edge ISO|b0||i0||c0|p34;\C7;\H3.048;\W1.;DATE}
 73
     1
 44
1.0
1001
ACAD
1000
ACAD_MTEXT_DEFINED_HEIGHT_BEGIN
1070
    46
1040
5.715
1000
ACAD_MTEXT_DEFINED_HEIGHT_END
  0
INSERT
  5
1F0
330
1F
100
AcDbEntity
  8
Default
100
AcDbBlockReference
  2
SEANNOT_GROUP
 10
0.0
 20
0.0
 30
0.0
  0
MULTILEADER
  5
1F3
330
1F
100
AcDbEntity
  8
Default
  6
Continuous
 62
     7
 92
      236
310
EC000000020000000C00000013000000993A0000D8000000260000008C9C853DED6C734005E44BA8E0584940000000000000000000000000000000000000000000000000000000000000F03F000000000000F03F00000000000000000000000000000000300037002F00310035002F00320033000000000008000000010000
310
00FCA9F1D24D620840000000000000F03F0000000000000000000000000000F03F00000000000000000000000000000000000000000000000000000000000000002200000053006F006C0069006400200045006400670065002000490053004F00000000000000000000000000
100
AcDbMLeader
300
CONTEXT_DATA{
 40
1.0
 10
308.9908
 20
52.21226
 30
0.0
 41
3.048
140
3.048
145
1.0668
174
     1
175
     1
176
     0
177
     0
290
     1
304
{\pxsm0.9;\fSolid Edge ISO|b0||i0||c0|p34;\W1.;07/15/23\P}
 11
0.0
 21
0.0
 31
1.0
340
11
 12
310.9908
 22
53.7515
 32
0.0
 13
1.0
 23
0.0
 33
0.0
 42
0.0
 43
0.0
 44
0.0
 45
1.0
170
     1
 90
-1073741824
171
     1
172
     1
 91
-939524096
141
1.5
 92
        0
291
     0
292
     0
173
     0
293
     0
142
0.0
143
0.0
294
     0
295
     0
296
     0
110
0.0
120
0.0
130
0.0
111
1.0
121
0.0
131
0.0
112
0.0
122
1.0
132
0.0
297
     0
301
}
340
6C
 90
 35052449
170
     0
 91
-1056964608
341
14
171
    -2
290
     1
291
     1
 41
0.0
342
14B
 42
4.0
172
     2
343
11
173
     1
 95
        1
174
     1
175
     0
 92
-1073741824
292
     0
 93
-1023410169
 10
1.0
 20
1.0
 30
1.0
 43
0.0
176
     0
293
     0
294
     0
178
     0
179
     1
 45
1.0
1001
ACAD_MLEADERVER
1070
     2
  0
MTEXT
  5
1F4
330
1F
100
AcDbEntity
  8
Default
100
AcDbMText
 10
331.895
 20
44.3015454545
 30
0.0
 40
2.54
 41
78.105
 46
4.1563736364
 71
     1
 72
     1
  1
{\fSolid Edge ISO|b0||i0||c0|p34;\C7;\H2.54;\W1.;TITLE}
 73
     1
 44
1.0
1001
ACAD
1000
ACAD_MTEXT_DEFINED_HEIGHT_BEGIN
1070
    46
1040
4.1563736364
1000
ACAD_MTEXT_DEFINED_HEIGHT_END
  0
MTEXT
  5
1F5
330
1F
100
AcDbEntity
  8
Default
100
AcDbMText
 10
335.3875
 20
31.4745454545
 30
0.0
 40
2.54
 41
9.525
 46
4.1563736364
 71
     2
 72
     1
  1
{\fSolid Edge ISO|b0||i0||c0|p34;\C7;\H2.54;\W1.;SIZE}
 73
     1
 44
1.0
1001
ACAD
1000
ACAD_MTEXT_DEFINED_HEIGHT_BEGIN
1070
    46
1040
4.1563736364
1000
ACAD_MTEXT_DEFINED_HEIGHT_END
  0
MTEXT
  5
1F6
330
1F
100
AcDbEntity
  8
Default
100
AcDbMText
 10
335.3875
 20
26.1925
 30
0.0
 40
3.048
 41
9.525
 46
6.985
 71
     5
 72
     1
  1
{\fSolid Edge ISO|b1||i0||c0|p34;\C7;\H3.048;\W1.;A3}
 73
     1
 44
1.0
1001
ACAD
1000
ACAD_MTEXT_DEFINED_HEIGHT_BEGIN
1070
    46
1040
6.985
1000
ACAD_MTEXT_DEFINED_HEIGHT_END
  0
MTEXT
  5
1F7
330
1F
100
AcDbEntity
  8
Default
100
AcDbMText
 10
341.42
 20
31.4745454545
 30
0.0
 40
2.54
 41
58.928
 46
4.1563736364
 71
     1
 72
     1
  1
{\fSolid Edge ISO|b0||i0||c0|p34;\C7;\H2.54;\W1.;DWG NO}
 73
     1
 44
1.0
1001
ACAD
1000
ACAD_MTEXT_DEFINED_HEIGHT_BEGIN
1070
    46
1040
4.1563736364
1000
ACAD_MTEXT_DEFINED_HEIGHT_END
  0
MTEXT
  5
1F8
330
1F
100
AcDbEntity
  8
Default
100
AcDbMText
 10
405.174
 20
31.4745454545
 30
0.0
 40
2.54
 41
9.652
 46
4.1563736364
 71
     2
 72
     1
  1
{\fSolid Edge ISO|b0||i0||c0|p34;\C7;\H2.54;\W1.;REV}
 73
     1
 44
1.0
1001
ACAD
1000
ACAD_MTEXT_DEFINED_HEIGHT_BEGIN
1070
    46
1040
4.1563736364
1000
ACAD_MTEXT_DEFINED_HEIGHT_END
  0
INSERT
  5
1FA
330
1F
100
AcDbEntity
  8
Default
100
AcDbBlockReference
  2
SEANNOT_GROUP1
 10
0.0
 20
0.0
 30
0.0
  0
MULTILEADER
  5
1FD
330
1F
100
AcDbEntity
  8
Default
  6
Continuous
 62
     7
 92
      256
310
00010000020000000C00000013000000993A0000EC00000026000000989F1B9AB2CF744063575A46EAFD3140000000000000000000000000000000000000000000000000000000000000F03F000000000000F03F00000000000000000000000000000000460049004C00450020004E0041004D0045003A0020005800320033
310
0030002E0064006600740000001300000001000000FCA9F1D24D620840000000000000F03F0000000000000000000000000000F03F00000000000000000000000000000000000000000000000000000000000000002200000053006F006C0069006400200045006400670065002000490053004F0000000000000000000000
310
0000
100
AcDbMLeader
300
CONTEXT_DATA{
 40
1.0
 10
331.2158
 20
19.50976
 30
0.0
 41
3.048
140
3.048
145
1.0668
174
     1
175
     1
176
     0
177
     0
290
     1
304
{\pxsm0.9;\fSolid Edge ISO|b0||i0||c0|p34;\W1.;FILE NAME: X230.dft\P}
 11
0.0
 21
0.0
 31
1.0
340
11
 12
333.2158
 22
21.049
 32
0.0
 13
1.0
 23
0.0
 33
0.0
 42
0.0
 43
0.0
 44
0.0
 45
1.0
170
     1
 90
-1073741824
171
     1
172
     1
 91
-939524096
141
1.5
 92
        0
291
     0
292
     0
173
     0
293
     0
142
0.0
143
0.0
294
     0
295
     0
296
     0
110
0.0
120
0.0
130
0.0
111
1.0
121
0.0
131
0.0
112
0.0
122
1.0
132
0.0
297
     0
301
}
340
6C
 90
 35052449
170
     0
 91
-1056964608
341
14
171
    -2
290
     1
291
     1
 41
0.0
342
14B
 42
4.0
172
     2
343
11
173
     1
 95
        1
174
     1
175
     0
 92
-1073741824
292
     0
 93
-1023410169
 10
1.0
 20
1.0
 30
1.0
 43
0.0
176
     0
293
     0
294
     0
178
     0
179
     1
 45
1.0
1001
ACAD_MLEADERVER
1070
     2
  0
MTEXT
  5
1FE
330
1F
100
AcDbEntity
  8
Default
100
AcDbMText
 10
332.149
 20
13.175
 30
0.0
 40
3.048
 41
20.701
 46
6.35
 71
     4
 72
     1
  1
{\fSolid Edge ISO|b0||i0||c0|p34;\C7;\H3.048;\W1.;SCALE:}
 73
     1
 44
1.0
1001
ACAD
1000
ACAD_MTEXT_DEFINED_HEIGHT_BEGIN
1070
    46
1040
6.35
1000
ACAD_MTEXT_DEFINED_HEIGHT_END
  0
MTEXT
  5
1FF
330
1F
100
AcDbEntity
  8
Default
100
AcDbMText
 10
354.374
 20
13.175
 30
0.0
 40
3.048
 41
23.876
 46
6.35
 71
     4
 72
     1
  1
{\fSolid Edge ISO|b0||i0||c0|p34;\C7;\H3.048;\W1.;WEIGHT:}
 73
     1
 44
1.0
1001
ACAD
1000
ACAD_MTEXT_DEFINED_HEIGHT_BEGIN
1070
    46
1040
6.35
1000
ACAD_MTEXT_DEFINED_HEIGHT_END
  0
INSERT
  5
201
330
1F
100
AcDbEntity
  8
Default
100
AcDbBlockReference
  2
SEANNOT_GROUP2
 10
0.0
 20
0.0
 30
0.0
  0
MULTILEADER
  5
204
330
1F
100
AcDbEntity
  8
Default
  6
Continuous
 62
     7
 92
      248
310
F8000000020000000C00000013000000993A0000E4000000260000009C8713984ECB7740D092C7D3F2432740000000000000000000000000000000000000000000000000000000000000F03F000000000000F03F000000000000000000000000000000005300480045004500540020003200330020004F0046002000320033
310
00000000000E00000001000000FCA9F1D24D620840000000000000F03F0000000000000000000000000000F03F00000000000000000000000000000000000000000000000000000000000000002200000053006F006C0069006400200045006400670065002000490053004F00000000000000000000000000
100
AcDbMLeader
300
CONTEXT_DATA{
 40
1.0
 10
378.8408
 20
13.15976
 30
0.0
 41
3.048
140
3.048
145
1.0668
174
     1
175
     1
176
     0
177
     0
290
     1
304
{\pxsm0.9;\fSolid Edge ISO|b0||i0||c0|p34;\W1.;SHEET 23 OF 23\P}
 11
0.0
 21
0.0
 31
1.0
340
11
 12
380.8408
 22
14.699
 32
0.0
 13
1.0
 23
0.0
 33
0.0
 42
0.0
 43
0.0
 44
0.0
 45
1.0
170
     1
 90
-1073741824
171
     1
172
     1
 91
-939524096
141
1.5
 92
        0
291
     0
292
     0
173
     0
293
     0
142
0.0
143
0.0
294
     0
295
     0
296
     0
110
0.0
120
0.0
130
0.0
111
1.0
121
0.0
131
0.0
112
0.0
122
1.0
132
0.0
297
     0
301
}
340
6C
 90
 35052449
170
     0
 91
-1056964608
341
14
171
    -2
290
     1
291
     1
 41
0.0
342
14B
 42
4.0
172
     2
343
11
173
     1
 95
        1
174
     1
175
     0
 92
-1073741824
292
     0
 93
-1023410169
 10
1.0
 20
1.0
 30
1.0
 43
0.0
176
     0
293
     0
294
     0
178
     0
179
     1
 45
1.0
1001
ACAD_MLEADERVER
1070
     2
  0
MTEXT
  5
205
330
1F
100
AcDbEntity
  8
Default
100
AcDbMText
 10
372.0889603225
 20
53.6063931962
 30
0.0
 40
5.0
 41
79.375
 46
21.1666666667
 71
     5
 72
     1
  1
{\fSpace Age|b1||i0||c0|p34;\C7;\H5.;\W1.;xicoy\P}{\fSpace Age|b1||i0||c0|p34;\C7;\H5.;\W1.;turbines}
 73
     1
 44
1.0
1001
ACAD
1000
ACAD_MTEXT_DEFINED_HEIGHT_BEGIN
1070
    46
1040
21.1666666667
1000
ACAD_MTEXT_DEFINED_HEIGHT_END
  0
MTEXT
  5
206
330
1F
100
AcDbEntity
  8
Default
100
AcDbMText
 10
292.6155230157
 20
53.9897328166
 30
0.0
 40
3.5
 41
12.775011
 46
5.7272827273
 71
     1
 72
     1
  1
{\fSolid Edge ISO|b0||i0||c0|p34;\C7;\H3.5;\W1.;Gaspar}
 73
     1
 44
1.0
1001
ACAD
1000
ACAD_MTEXT_DEFINED_HEIGHT_BEGIN
1070
    46
1040
5.7272827273
1000
ACAD_MTEXT_DEFINED_HEIGHT_END
  0
ENDSEC
  0
SECTION
  2
OBJECTS
  0
DICTIONARY
  5
C
330
0
100
AcDbDictionary
281
     1
  3
ACAD_DETAILVIEWSTYLE
350
242
  3
ACAD_GROUP
350
D
  3
ACAD_LAYOUT
350
1A
  3
ACAD_MATERIAL
350
43
  3
ACAD_MLEADERSTYLE
350
6B
  3
ACAD_MLINESTYLE
350
17
  3
ACAD_PLOTSETTINGS
350
19
  3
ACAD_PLOTSTYLENAME
350
E
  3
ACAD_SCALELIST
350
47
  3
ACAD_SECTIONVIEWSTYLE
350
243
  3
ACAD_TABLESTYLE
350
69
  3
ACAD_VISUALSTYLE
350
2A
  3
ACDB_RECOMPOSE_DATA
350
23F
  3
AcDbVariableDictionary
350
208
  0
SUN
  5
6D
330
29
100
AcDbSun
 90
        1
290
     0
 63
     7
421
 16777215
 40
1.0
291
     1
 91
  2455826
 92
 54000000
292
     0
 70
     2
 71
   256
280
     1
  0
DICTIONARY
  5
242
102
{ACAD_REACTORS
330
C
102
}
330
C
100
AcDbDictionary
281
     1
  0
DICTIONARY
  5
D
102
{ACAD_REACTORS
330
C
102
}
330
C
100
AcDbDictionary
281
     1
  0
DICTIONARY
  5
1A
102
{ACAD_REACTORS
330
C
102
}
330
C
100
AcDbDictionary
281
     1
  3
Layout1
350
1E
  3
Model
350
22
  0
DICTIONARY
  5
43
102
{ACAD_REACTORS
330
C
102
}
330
C
100
AcDbDictionary
281
     1
  3
ByBlock
350
45
  3
ByLayer
350
44
  3
Global
350
46
  0
DICTIONARY
  5
6B
102
{ACAD_REACTORS
330
C
102
}
330
C
100
AcDbDictionary
281
     1
  3
Standard
350
6C
  0
DICTIONARY
  5
17
102
{ACAD_REACTORS
330
C
102
}
330
C
100
AcDbDictionary
281
     1
  3
Standard
350
18
  0
DICTIONARY
  5
19
102
{ACAD_REACTORS
330
C
102
}
330
C
100
AcDbDictionary
281
     1
  0
ACDBDICTIONARYWDFLT
  5
E
102
{ACAD_REACTORS
330
C
102
}
330
C
100
AcDbDictionary
281
     1
  3
Normal
350
F
100
AcDbDictionaryWithDefault
340
F
  0
DICTIONARY
  5
47
102
{ACAD_REACTORS
330
C
102
}
330
C
100
AcDbDictionary
281
     1
  3
A0
350
48
  3
A1
350
49
  3
A2
350
4A
  3
A3
350
4B
  3
A4
350
4C
  3
A5
350
4D
  3
A6
350
4E
  3
A7
350
4F
  3
A8
350
50
  3
A9
350
51
  3
B0
350
52
  3
B1
350
53
  3
B2
350
54
  3
B3
350
55
  3
B4
350
56
  3
B5
350
57
  3
B6
350
58
  3
B7
350
59
  3
B8
350
5A
  3
B9
350
5B
  3
C0
350
5C
  3
C1
350
5D
  3
C2
350
5E
  3
C3
350
5F
  3
C4
350
60
  3
C5
350
61
  3
C6
350
62
  3
C7
350
63
  3
C8
350
64
  3
C9
350
65
  3
D0
350
66
  3
D1
350
67
  3
D2
350
68
  0
DICTIONARY
  5
243
102
{ACAD_REACTORS
330
C
102
}
330
C
100
AcDbDictionary
281
     1
  0
DICTIONARY
  5
69
102
{ACAD_REACTORS
330
C
102
}
330
C
100
AcDbDictionary
281
     1
  3
Standard
350
6A
  0
DICTIONARY
  5
2A
102
{ACAD_REACTORS
330
C
102
}
330
C
100
AcDbDictionary
281
     1
  3
2dWireframe
350
2F
  3
Basic
350
32
  3
Brighten
350
36
  3
ColorChange
350
3A
  3
Conceptual
350
34
  3
Dim
350
35
  3
EdgeColorOff
350
3D
  3
Facepattern
350
39
  3
Flat
350
2B
  3
FlatWithEdges
350
2C
  3
Gouraud
350
2D
  3
GouraudWithEdges
350
2E
  3
Hidden
350
31
  3
JitterOff
350
3B
  3
Linepattern
350
38
  3
OverhangOff
350
3C
  3
Realistic
350
33
  3
Shaded
350
42
  3
Shaded with edges
350
41
  3
Shades of Gray
350
3E
  3
Sketchy
350
3F
  3
Thicken
350
37
  3
Wireframe
350
30
  3
X-Ray
350
40
  0
XRECORD
  5
23F
102
{ACAD_REACTORS
330
C
102
}
330
C
100
AcDbXrecord
280
     1
 90
        1
330
6A
  0
DICTIONARY
  5
208
102
{ACAD_REACTORS
330
C
102
}
330
C
100
AcDbDictionary
281
     1
  3
CANNOSCALE
350
209
  3
CENTEREXE
350
244
  3
CENTERLTYPEFILE
350
245
  3
CMLEADERSTYLE
350
241
  3
CTABLESTYLE
350
240
  3
XCLIPFRAME
350
20A
  0
LAYOUT
  5
1E
102
{ACAD_REACTORS
330
1A
102
}
330
1A
100
AcDbPlotSettings
  1

  2
none_device
  4

  6

 40
0.0
 41
0.0
 42
0.0
 43
0.0
 44
0.0
 45
0.0
 46
0.0
 47
0.0
 48
0.0
 49
0.0
140
0.0
141
0.0
142
1.0
143
1.0
 70
   688
 72
     1
 73
     0
 74
     5
  7

 75
    16
 76
     0
 77
     2
 78
   300
147
1.0
148
0.0
149
0.0
100
AcDbLayout
  1
Layout1
 70
     1
 71
     1
 10
0.0
 20
0.0
 11
420.0
 21
297.0
 12
0.0
 22
0.0
 32
0.0
 14
0.0
 24
0.0
 34
0.0
 15
420.0
 25
297.0
 35
0.0
146
0.0
 13
0.0
 23
0.0
 33
0.0
 16
1.0
 26
0.0
 36
0.0
 17
0.0
 27
1.0
 37
0.0
 76
     0
330
1B
  0
LAYOUT
  5
22
102
{ACAD_REACTORS
330
1A
102
}
330
1A
100
AcDbPlotSettings
  1

  2
none_device
  4
Letter_(8.50_x_11.00_Inches)
  6

 40
6.35
 41
6.35
 42
6.35000508
 43
6.35000508
 44
215.9
 45
279.4
 46
0.0
 47
0.0
 48
0.0
 49
0.0
140
0.0
141
0.0
142
1.0
143
1.0
 70
  1712
 72
     1
 73
     0
 74
     0
  7

 75
     0
 76
     0
 77
     2
 78
   300
147
1.0
148
0.0
149
0.0
100
AcDbLayout
  1
Model
 70
     1
 71
     0
 10
0.0
 20
0.0
 11
420.0
 21
297.0
 12
0.0
 22
0.0
 32
0.0
 14
0.0
 24
0.0
 34
0.0
 15
420.0
 25
297.0
 35
0.0
146
0.0
 13
0.0
 23
0.0
 33
0.0
 16
1.0
 26
0.0
 36
0.0
 17
0.0
 27
1.0
 37
0.0
 76
     0
330
1F
331
29
  0
MATERIAL
  5
45
102
{ACAD_REACTORS
330
43
102
}
330
43
100
AcDbMaterial
  1
ByBlock
 72
     1
 94
      127
  0
MATERIAL
  5
44
102
{ACAD_REACTORS
330
43
102
}
330
43
100
AcDbMaterial
  1
ByLayer
 72
     1
 94
      127
  0
MATERIAL
  5
46
102
{ACAD_REACTORS
330
43
102
}
330
43
100
AcDbMaterial
  1
Global
 72
     1
 94
      127
  0
MLEADERSTYLE
  5
6C
102
{ACAD_REACTORS
330
6B
102
}
102
{ACAD_XDICTIONARY
360
23D
102
}
330
6B
100
AcDbMLeaderStyle
170
     2
171
     1
172
     0
 90
        2
 40
0.0
 41
0.0
173
     1
 91
-1056964608
340
14
 92
       -2
290
     1
 42
2.0
291
     1
 43
8.0
  3
Standard
341
0
 44
4.0
300

342
11
174
     1
178
     6
175
     1
176
     0
 93
-1056964608
 45
4.0
292
     0
297
     0
 46
4.0
343
0
 94
-1056964608
 47
1.0
 49
1.0
140
1.0
293
     1
141
0.0
294
     1
177
     0
142
1.0
295
     0
296
     0
143
3.75
1001
ACAD_MLEADERVER
1070
     2
  0
MLINESTYLE
  5
18
102
{ACAD_REACTORS
330
17
102
}
330
17
100
AcDbMlineStyle
  2
Standard
 70
     0
  3

 62
   256
 51
90.0
 52
90.0
 71
     2
 49
0.5
 62
   256
  6
BYLAYER
 49
-0.5
 62
   256
  6
BYLAYER
  0
ACDBPLACEHOLDER
  5
F
102
{ACAD_REACTORS
330
E
102
}
330
E
  0
SCALE
  5
48
102
{ACAD_REACTORS
330
47
102
}
330
47
100
AcDbScale
 70
     0
300
1:1
140
1.0
141
1.0
290
     1
  0
SCALE
  5
49
102
{ACAD_REACTORS
330
47
102
}
330
47
100
AcDbScale
 70
     0
300
1:2
140
1.0
141
2.0
290
     0
  0
SCALE
  5
4A
102
{ACAD_REACTORS
330
47
102
}
330
47
100
AcDbScale
 70
     0
300
1:4
140
1.0
141
4.0
290
     0
  0
SCALE
  5
4B
102
{ACAD_REACTORS
330
47
102
}
330
47
100
AcDbScale
 70
     0
300
1:5
140
1.0
141
5.0
290
     0
  0
SCALE
  5
4C
102
{ACAD_REACTORS
330
47
102
}
330
47
100
AcDbScale
 70
     0
300
1:8
140
1.0
141
8.0
290
     0
  0
SCALE
  5
4D
102
{ACAD_REACTORS
330
47
102
}
330
47
100
AcDbScale
 70
     0
300
1:10
140
1.0
141
10.0
290
     0
  0
SCALE
  5
4E
102
{ACAD_REACTORS
330
47
102
}
330
47
100
AcDbScale
 70
     0
300
1:16
140
1.0
141
16.0
290
     0
  0
SCALE
  5
4F
102
{ACAD_REACTORS
330
47
102
}
330
47
100
AcDbScale
 70
     0
300
1:20
140
1.0
141
20.0
290
     0
  0
SCALE
  5
50
102
{ACAD_REACTORS
330
47
102
}
330
47
100
AcDbScale
 70
     0
300
1:30
140
1.0
141
30.0
290
     0
  0
SCALE
  5
51
102
{ACAD_REACTORS
330
47
102
}
330
47
100
AcDbScale
 70
     0
300
1:40
140
1.0
141
40.0
290
     0
  0
SCALE
  5
52
102
{ACAD_REACTORS
330
47
102
}
330
47
100
AcDbScale
 70
     0
300
1:50
140
1.0
141
50.0
290
     0
  0
SCALE
  5
53
102
{ACAD_REACTORS
330
47
102
}
330
47
100
AcDbScale
 70
     0
300
1:100
140
1.0
141
100.0
290
     0
  0
SCALE
  5
54
102
{ACAD_REACTORS
330
47
102
}
330
47
100
AcDbScale
 70
     0
300
2:1
140
2.0
141
1.0
290
     0
  0
SCALE
  5
55
102
{ACAD_REACTORS
330
47
102
}
330
47
100
AcDbScale
 70
     0
300
4:1
140
4.0
141
1.0
290
     0
  0
SCALE
  5
56
102
{ACAD_REACTORS
330
47
102
}
330
47
100
AcDbScale
 70
     0
300
8:1
140
8.0
141
1.0
290
     0
  0
SCALE
  5
57
102
{ACAD_REACTORS
330
47
102
}
330
47
100
AcDbScale
 70
     0
300
10:1
140
10.0
141
1.0
290
     0
  0
SCALE
  5
58
102
{ACAD_REACTORS
330
47
102
}
330
47
100
AcDbScale
 70
     0
300
100:1
140
100.0
141
1.0
290
     0
  0
SCALE
  5
59
102
{ACAD_REACTORS
330
47
102
}
330
47
100
AcDbScale
 70
     0
300
1/128" = 1'-0"
140
0.0078125
141
12.0
290
     0
  0
SCALE
  5
5A
102
{ACAD_REACTORS
330
47
102
}
330
47
100
AcDbScale
 70
     0
300
1/64" = 1'-0"
140
0.015625
141
12.0
290
     0
  0
SCALE
  5
5B
102
{ACAD_REACTORS
330
47
102
}
330
47
100
AcDbScale
 70
     0
300
1/32" = 1'-0"
140
0.03125
141
12.0
290
     0
  0
SCALE
  5
5C
102
{ACAD_REACTORS
330
47
102
}
330
47
100
AcDbScale
 70
     0
300
1/16" = 1'-0"
140
0.0625
141
12.0
290
     0
  0
SCALE
  5
5D
102
{ACAD_REACTORS
330
47
102
}
330
47
100
AcDbScale
 70
     0
300
3/32" = 1'-0"
140
0.09375
141
12.0
290
     0
  0
SCALE
  5
5E
102
{ACAD_REACTORS
330
47
102
}
330
47
100
AcDbScale
 70
     0
300
1/8" = 1'-0"
140
0.125
141
12.0
290
     0
  0
SCALE
  5
5F
102
{ACAD_REACTORS
330
47
102
}
330
47
100
AcDbScale
 70
     0
300
3/16" = 1'-0"
140
0.1875
141
12.0
290
     0
  0
SCALE
  5
60
102
{ACAD_REACTORS
330
47
102
}
330
47
100
AcDbScale
 70
     0
300
1/4" = 1'-0"
140
0.25
141
12.0
290
     0
  0
SCALE
  5
61
102
{ACAD_REACTORS
330
47
102
}
330
47
100
AcDbScale
 70
     0
300
3/8" = 1'-0"
140
0.375
141
12.0
290
     0
  0
SCALE
  5
62
102
{ACAD_REACTORS
330
47
102
}
330
47
100
AcDbScale
 70
     0
300
1/2" = 1'-0"
140
0.5
141
12.0
290
     0
  0
SCALE
  5
63
102
{ACAD_REACTORS
330
47
102
}
330
47
100
AcDbScale
 70
     0
300
3/4" = 1'-0"
140
0.75
141
12.0
290
     0
  0
SCALE
  5
64
102
{ACAD_REACTORS
330
47
102
}
330
47
100
AcDbScale
 70
     0
300
1" = 1'-0"
140
1.0
141
12.0
290
     0
  0
SCALE
  5
65
102
{ACAD_REACTORS
330
47
102
}
330
47
100
AcDbScale
 70
     0
300
1-1/2" = 1'-0"
140
1.5
141
12.0
290
     0
  0
SCALE
  5
66
102
{ACAD_REACTORS
330
47
102
}
330
47
100
AcDbScale
 70
     0
300
3" = 1'-0"
140
3.0
141
12.0
290
     0
  0
SCALE
  5
67
102
{ACAD_REACTORS
330
47
102
}
330
47
100
AcDbScale
 70
     0
300
6" = 1'-0"
140
6.0
141
12.0
290
     0
  0
SCALE
  5
68
102
{ACAD_REACTORS
330
47
102
}
330
47
100
AcDbScale
 70
     0
300
1'-0" = 1'-0"
140
12.0
141
12.0
290
     0
  0
TABLESTYLE
  5
6A
102
{ACAD_REACTORS
330
69
102
}
102
{ACAD_XDICTIONARY
360
23B
102
}
330
69
100
AcDbTableStyle
  3
Standard
 70
     0
 71
     0
 40
0.06
 41
0.06
280
     0
281
     0
  7
Standard
140
4.5
170
     2
 62
     0
 63
   257
283
     0
 90
        4
 91
        0
  1

274
    -2
284
     1
 64
     0
275
    -2
285
     1
 65
     0
276
    -2
286
     1
 66
     0
277
    -2
287
     1
 67
     0
278
    -2
288
     1
 68
     0
279
    -2
289
     1
 69
     0
  7
Standard
140
6.0
170
     5
 62
     0
 63
   257
283
     0
 90
        4
 91
        0
  1

274
    -2
284
     1
 64
     0
275
    -2
285
     1
 65
     0
276
    -2
286
     1
 66
     0
277
    -2
287
     1
 67
     0
278
    -2
288
     1
 68
     0
279
    -2
289
     1
 69
     0
  7
Standard
140
4.5
170
     5
 62
     0
 63
   257
283
     0
 90
        4
 91
        0
  1

274
    -2
284
     1
 64
     0
275
    -2
285
     1
 65
     0
276
    -2
286
     1
 66
     0
277
    -2
287
     1
 67
     0
278
    -2
288
     1
 68
     0
279
    -2
289
     1
 69
     0
  0
VISUALSTYLE
  5
2F
102
{ACAD_REACTORS
330
2A
102
}
102
{ACAD_XDICTIONARY
360
213
102
}
330
2A
100
AcDbVisualStyle
  2
2dWireframe
 70
     4
 71
     0
 72
     2
 73
     0
 90
        0
 40
0.6
 41
30.0
 62
     5
 63
     7
421
 16777215
 74
     1
 91
        4
 64
     7
 65
   257
 75
     1
175
     1
 42
1.0
 92
        0
 66
   257
 43
1.0
 76
     1
 77
     6
 78
     2
 67
     7
 79
     5
170
     0
171
     0
290
     0
174
     0
 93
        1
 44
0.0
173
     0
291
     0
 45
0.0
  0
VISUALSTYLE
  5
32
102
{ACAD_REACTORS
330
2A
102
}
102
{ACAD_XDICTIONARY
360
219
102
}
330
2A
100
AcDbVisualStyle
  2
Basic
 70
     7
 71
     1
 72
     0
 73
     1
 90
        0
 40
0.6
 41
30.0
 62
     5
 63
     7
421
 16777215
 74
     0
 91
        4
 64
     7
 65
   257
 75
     1
175
     1
 42
1.0
 92
        8
 66
     7
 43
1.0
 76
     1
 77
     6
 78
     2
 67
     7
 79
     5
170
     0
171
     0
290
     0
174
     0
 93
        1
 44
0.0
173
     0
291
     1
 45
0.0
  0
VISUALSTYLE
  5
36
102
{ACAD_REACTORS
330
2A
102
}
102
{ACAD_XDICTIONARY
360
221
102
}
330
2A
100
AcDbVisualStyle
  2
Brighten
 70
    12
 71
     2
 72
     2
 73
     0
 90
        0
 40
0.6
 41
30.0
 62
     5
 63
     7
421
 16777215
 74
     1
 91
        4
 64
     7
 65
   257
 75
     1
175
     1
 42
1.0
 92
        8
 66
     7
 43
1.0
 76
     1
 77
     6
 78
     2
 67
     7
 79
     5
170
     0
171
     0
290
     0
174
     0
 93
        1
 44
50.0
173
     0
291
     1
 45
0.0
  0
VISUALSTYLE
  5
3A
102
{ACAD_REACTORS
330
2A
102
}
102
{ACAD_XDICTIONARY
360
229
102
}
330
2A
100
AcDbVisualStyle
  2
ColorChange
 70
    16
 71
     2
 72
     2
 73
     3
 90
        0
 40
0.6
 41
30.0
 62
     5
 63
     8
421
  8421504
 74
     1
 91
        4
 64
     7
 65
   257
 75
     1
175
     1
 42
1.0
 92
        8
 66
     8
424
  8421504
 43
1.0
 76
     1
 77
     6
 78
     2
 67
     7
 79
     5
170
     0
171
     0
290
     0
174
     0
 93
        1
 44
0.0
173
     0
291
     1
 45
0.0
  0
VISUALSTYLE
  5
34
102
{ACAD_REACTORS
330
2A
102
}
102
{ACAD_XDICTIONARY
360
21D
102
}
330
2A
100
AcDbVisualStyle
  2
Conceptual
 70
     9
 71
     3
 72
     2
 73
     0
 90
        0
 40
0.6
 41
30.0
 62
     5
 63
     7
421
 16777215
 74
     2
 91
        2
 64
     7
 65
   257
 75
     1
175
     1
 42
179.0
 92
        8
 66
     7
 43
1.0
 76
     1
 77
     6
 78
     2
 67
     7
 79
     3
170
     0
171
     0
290
     0
174
     0
 93
        1
 44
0.0
173
     0
291
     0
 45
0.0
  0
VISUALSTYLE
  5
35
102
{ACAD_REACTORS
330
2A
102
}
102
{ACAD_XDICTIONARY
360
21F
102
}
330
2A
100
AcDbVisualStyle
  2
Dim
 70
    11
 71
     2
 72
     2
 73
     0
 90
        0
 40
0.6
 41
30.0
 62
     5
 63
     7
421
 16777215
 74
     1
 91
        4
 64
     7
 65
   257
 75
     1
175
     1
 42
1.0
 92
        8
 66
     7
 43
1.0
 76
     1
 77
     6
 78
     2
 67
     7
 79
     5
170
     0
171
     0
290
     0
174
     0
 93
        1
 44
-50.0
173
     0
291
     1
 45
0.0
  0
VISUALSTYLE
  5
3D
102
{ACAD_REACTORS
330
2A
102
}
102
{ACAD_XDICTIONARY
360
22F
102
}
330
2A
100
AcDbVisualStyle
  2
EdgeColorOff
 70
    22
 71
     2
 72
     2
 73
     0
 90
        0
 40
0.6
 41
30.0
 62
     5
 63
     7
421
 16777215
 74
     1
 91
        4
 64
     7
 65
   257
 75
     1
175
     1
 42
1.0
 92
        8
 66
     7
 43
1.0
 76
     1
 77
     6
 78
     2
 67
     7
 79
     5
170
     0
171
     0
290
     0
174
     0
 93
        1
 44
0.0
173
     0
291
     1
 45
0.0
  0
VISUALSTYLE
  5
39
102
{ACAD_REACTORS
330
2A
102
}
102
{ACAD_XDICTIONARY
360
227
102
}
330
2A
100
AcDbVisualStyle
  2
Facepattern
 70
    15
 71
     2
 72
     2
 73
     0
 90
        0
 40
0.6
 41
30.0
 62
     5
 63
     7
421
 16777215
 74
     1
 91
        4
 64
     7
 65
   257
 75
     1
175
     1
 42
1.0
 92
        8
 66
     7
 43
1.0
 76
     1
 77
     6
 78
     2
 67
     7
 79
     5
170
     0
171
     0
290
     0
174
     0
 93
        1
 44
0.0
173
     0
291
     1
 45
0.0
  0
VISUALSTYLE
  5
2B
102
{ACAD_REACTORS
330
2A
102
}
102
{ACAD_XDICTIONARY
360
20B
102
}
330
2A
100
AcDbVisualStyle
  2
Flat
 70
     0
 71
     2
 72
     1
 73
     1
 90
        2
 40
0.6
 41
30.0
 62
     5
 63
     7
421
 16777215
 74
     0
 91
        0
 64
     7
 65
   257
 75
     1
175
     1
 42
1.0
 92
        8
 66
     7
 43
1.0
 76
     1
 77
     6
 78
     2
 67
     7
 79
     5
170
     0
171
     0
290
     0
174
     0
 93
       13
 44
0.0
173
     0
291
     1
 45
0.0
  0
VISUALSTYLE
  5
2C
102
{ACAD_REACTORS
330
2A
102
}
102
{ACAD_XDICTIONARY
360
20D
102
}
330
2A
100
AcDbVisualStyle
  2
FlatWithEdges
 70
     1
 71
     2
 72
     1
 73
     1
 90
        2
 40
0.6
 41
30.0
 62
     5
 63
     7
421
 16777215
 74
     1
 91
        0
 64
     7
 65
   257
 75
     1
175
     1
 42
1.0
 92
        0
 66
   257
 43
1.0
 76
     1
 77
     6
 78
     2
 67
     7
 79
     5
170
     0
171
     0
290
     0
174
     0
 93
       13
 44
0.0
173
     0
291
     1
 45
0.0
  0
VISUALSTYLE
  5
2D
102
{ACAD_REACTORS
330
2A
102
}
102
{ACAD_XDICTIONARY
360
20F
102
}
330
2A
100
AcDbVisualStyle
  2
Gouraud
 70
     2
 71
     2
 72
     2
 73
     1
 90
        2
 40
0.6
 41
30.0
 62
     5
 63
     7
421
 16777215
 74
     0
 91
        0
 64
     7
 65
   257
 75
     1
175
     1
 42
1.0
 92
        0
 66
     7
 43
1.0
 76
     1
 77
     6
 78
     2
 67
     7
 79
     5
170
     0
171
     0
290
     0
174
     0
 93
       13
 44
0.0
173
     0
291
     1
 45
0.0
  0
VISUALSTYLE
  5
2E
102
{ACAD_REACTORS
330
2A
102
}
102
{ACAD_XDICTIONARY
360
211
102
}
330
2A
100
AcDbVisualStyle
  2
GouraudWithEdges
 70
     3
 71
     2
 72
     2
 73
     1
 90
        2
 40
0.6
 41
30.0
 62
     5
 63
     7
421
 16777215
 74
     1
 91
        0
 64
     7
 65
   257
 75
     1
175
     1
 42
1.0
 92
        0
 66
   257
 43
1.0
 76
     1
 77
     6
 78
     2
 67
     7
 79
     5
170
     0
171
     0
290
     0
174
     0
 93
       13
 44
0.0
173
     0
291
     1
 45
0.0
  0
VISUALSTYLE
  5
31
102
{ACAD_REACTORS
330
2A
102
}
102
{ACAD_XDICTIONARY
360
217
102
}
330
2A
100
AcDbVisualStyle
  2
Hidden
 70
     6
 71
     1
 72
     2
 73
     2
 90
        0
 40
0.6
 41
30.0
 62
     5
 63
     7
421
 16777215
 74
     2
 91
        2
 64
     7
 65
   257
 75
     2
175
     1
 42
40.0
 92
        0
 66
   257
 43
1.0
 76
     1
 77
     6
 78
     2
 67
     7
 79
     3
170
     0
171
     0
290
     0
174
     0
 93
        1
 44
0.0
173
     0
291
     0
 45
0.0
  0
VISUALSTYLE
  5
3B
102
{ACAD_REACTORS
330
2A
102
}
102
{ACAD_XDICTIONARY
360
22B
102
}
330
2A
100
AcDbVisualStyle
  2
JitterOff
 70
    20
 71
     2
 72
     2
 73
     0
 90
        0
 40
0.6
 41
30.0
 62
     5
 63
     7
421
 16777215
 74
     1
 91
        4
 64
     7
 65
   257
 75
     1
175
     1
 42
1.0
 92
       10
 66
     7
 43
1.0
 76
     1
 77
     6
 78
     2
 67
     7
 79
     5
170
     0
171
     0
290
     0
174
     0
 93
        1
 44
0.0
173
     0
291
     1
 45
0.0
  0
VISUALSTYLE
  5
38
102
{ACAD_REACTORS
330
2A
102
}
102
{ACAD_XDICTIONARY
360
225
102
}
330
2A
100
AcDbVisualStyle
  2
Linepattern
 70
    14
 71
     2
 72
     2
 73
     0
 90
        0
 40
0.6
 41
30.0
 62
     5
 63
     7
421
 16777215
 74
     1
 91
        4
 64
     7
 65
   257
 75
     7
175
     7
 42
1.0
 92
        8
 66
     7
 43
1.0
 76
     1
 77
     6
 78
     2
 67
     7
 79
     5
170
     0
171
     0
290
     0
174
     0
 93
        1
 44
0.0
173
     0
291
     1
 45
0.0
  0
VISUALSTYLE
  5
3C
102
{ACAD_REACTORS
330
2A
102
}
102
{ACAD_XDICTIONARY
360
22D
102
}
330
2A
100
AcDbVisualStyle
  2
OverhangOff
 70
    21
 71
     2
 72
     2
 73
     0
 90
        0
 40
0.6
 41
30.0
 62
     5
 63
     7
421
 16777215
 74
     1
 91
        4
 64
     7
 65
   257
 75
     1
175
     1
 42
1.0
 92
        9
 66
     7
 43
1.0
 76
     1
 77
     6
 78
     2
 67
     7
 79
     5
170
     0
171
     0
290
     0
174
     0
 93
        1
 44
0.0
173
     0
291
     1
 45
0.0
  0
VISUALSTYLE
  5
33
102
{ACAD_REACTORS
330
2A
102
}
102
{ACAD_XDICTIONARY
360
21B
102
}
330
2A
100
AcDbVisualStyle
  2
Realistic
 70
     8
 71
     2
 72
     3
 73
     0
 90
        2
 40
0.6
 41
30.0
 62
     5
 63
     7
421
 16777215
 74
     0
 91
        0
 64
     7
 65
   257
 75
     1
175
     1
 42
1.0
 92
        8
 66
   257
 43
1.0
 76
     1
 77
     6
 78
     2
 67
     7
 79
     3
170
     0
171
     0
290
     0
174
     0
 93
       13
 44
0.0
173
     0
291
     0
 45
0.0
  0
VISUALSTYLE
  5
42
102
{ACAD_REACTORS
330
2A
102
}
102
{ACAD_XDICTIONARY
360
239
102
}
330
2A
100
AcDbVisualStyle
  2
Shaded
 70
    27
 71
     2
 72
     2
 73
     1
 90
        2
 40
0.6
 41
30.0
 62
     5
 63
     7
421
 16777215
 74
     0
 91
        4
 64
     7
 65
   257
 75
     1
175
     1
 42
1.0
 92
        8
 66
   257
 43
1.0
 76
     1
 77
     6
 78
     2
 67
     8
425
  7895160
 79
     3
170
     0
171
     0
290
     0
174
     0
 93
        5
 44
0.0
173
     0
291
     0
 45
0.0
  0
VISUALSTYLE
  5
41
102
{ACAD_REACTORS
330
2A
102
}
102
{ACAD_XDICTIONARY
360
237
102
}
330
2A
100
AcDbVisualStyle
  2
Shaded with edges
 70
    26
 71
     2
 72
     2
 73
     1
 90
        2
 40
0.6
 41
30.0
 62
     5
 63
     7
421
 16777215
 74
     1
 91
       10
 64
     7
 65
   257
 75
     2
175
     1
 42
1.0
 92
        8
 66
   257
 43
1.0
 76
     1
 77
     6
 78
     2
 67
     7
 79
     3
170
     0
171
     0
290
     0
174
     0
 93
        5
 44
0.0
173
     0
291
     0
 45
0.0
  0
VISUALSTYLE
  5
3E
102
{ACAD_REACTORS
330
2A
102
}
102
{ACAD_XDICTIONARY
360
231
102
}
330
2A
100
AcDbVisualStyle
  2
Shades of Gray
 70
    23
 71
     2
 72
     2
 73
     3
 90
        0
 40
0.6
 41
30.0
 62
     5
 63
     7
421
 16777215
 74
     2
 91
        2
 64
     7
 65
     7
 75
     1
175
     1
 42
40.0
 92
        8
 66
     7
 43
1.0
 76
     1
 77
     6
 78
     2
 67
     7
 79
     3
170
     0
171
     0
290
     0
174
     0
 93
        1
 44
0.0
173
     0
291
     0
 45
0.0
  0
VISUALSTYLE
  5
3F
102
{ACAD_REACTORS
330
2A
102
}
102
{ACAD_XDICTIONARY
360
233
102
}
330
2A
100
AcDbVisualStyle
  2
Sketchy
 70
    24
 71
     1
 72
     2
 73
     2
 90
        0
 40
0.6
 41
30.0
 62
     5
 63
     7
421
 16777215
 74
     2
 91
        2
 64
     7
 65
     7
 75
     1
175
     1
 42
40.0
 92
       11
 66
     7
 43
1.0
 76
     1
 77
     6
 78
     2
 67
     7
 79
     6
170
     0
171
     0
290
     0
174
     0
 93
        1
 44
0.0
173
     0
291
     0
 45
0.0
  0
VISUALSTYLE
  5
37
102
{ACAD_REACTORS
330
2A
102
}
102
{ACAD_XDICTIONARY
360
223
102
}
330
2A
100
AcDbVisualStyle
  2
Thicken
 70
    13
 71
     2
 72
     2
 73
     0
 90
        0
 40
0.6
 41
30.0
 62
     5
 63
     7
421
 16777215
 74
     1
 91
        4
 64
     7
 65
   257
 75
     1
175
     1
 42
1.0
 92
       12
 66
     7
 43
1.0
 76
     1
 77
     6
 78
     2
 67
     7
 79
     5
170
     0
171
     0
290
     0
174
     0
 93
        1
 44
0.0
173
     0
291
     1
 45
0.0
  0
VISUALSTYLE
  5
30
102
{ACAD_REACTORS
330
2A
102
}
102
{ACAD_XDICTIONARY
360
215
102
}
330
2A
100
AcDbVisualStyle
  2
Wireframe
 70
     5
 71
     0
 72
     2
 73
     0
 90
        0
 40
0.6
 41
30.0
 62
     5
 63
     7
421
 16777215
 74
     1
 91
        4
 64
     7
 65
   257
 75
     1
175
     1
 42
1.0
 92
        0
 66
   257
 43
1.0
 76
     1
 77
     6
 78
     2
 67
     7
 79
     3
170
     0
171
     0
290
     0
174
     0
 93
        1
 44
0.0
173
     0
291
     0
 45
0.0
  0
VISUALSTYLE
  5
40
102
{ACAD_REACTORS
330
2A
102
}
102
{ACAD_XDICTIONARY
360
235
102
}
330
2A
100
AcDbVisualStyle
  2
X-Ray
 70
    25
 71
     2
 72
     2
 73
     1
 90
        1
 40
0.5
 41
30.0
 62
     5
 63
     7
421
 16777215
 74
     1
 91
        0
 64
     7
 65
   257
 75
     1
175
     1
 42
1.0
 92
        8
 66
     7
 43
1.0
 76
     1
 77
     6
 78
     2
 67
     7
 79
     3
170
     0
171
     0
290
     0
174
     0
 93
       13
 44
0.0
173
     0
291
     0
 45
0.0
  0
DICTIONARYVAR
  5
209
102
{ACAD_REACTORS
330
208
102
}
330
208
100
DictionaryVariables
280
     0
  1
1:1
  0
DICTIONARYVAR
  5
244
102
{ACAD_REACTORS
330
208
102
}
330
208
100
DictionaryVariables
280
     0
  1
3.500000
  0
DICTIONARYVAR
  5
245
102
{ACAD_REACTORS
330
208
102
}
330
208
100
DictionaryVariables
280
     0
  1
acadiso.lin
  0
DICTIONARYVAR
  5
241
102
{ACAD_REACTORS
330
208
102
}
330
208
100
DictionaryVariables
280
     0
  1
Standard
  0
DICTIONARYVAR
  5
240
102
{ACAD_REACTORS
330
208
102
}
330
208
100
DictionaryVariables
280
     0
  1
Standard
  0
DICTIONARYVAR
  5
20A
102
{ACAD_REACTORS
330
208
102
}
330
208
100
DictionaryVariables
280
     0
  1
2
  0
DICTIONARY
  5
23D
330
6C
100
AcDbDictionary
280
     1
281
     1
  3
ACAD_XREC_ROUNDTRIP
360
23E
  0
DICTIONARY
  5
23B
330
6A
100
AcDbDictionary
280
     1
281
     1
  3
ACAD_ROUNDTRIP_2008_TABLESTYLE_CELLSTYLEMAP
360
23C
  0
DICTIONARY
  5
213
330
2F
100
AcDbDictionary
280
     1
281
     1
  3
ACAD_XREC_ROUNDTRIP
360
214
  0
DICTIONARY
  5
219
330
32
100
AcDbDictionary
280
     1
281
     1
  3
ACAD_XREC_ROUNDTRIP
360
21A
  0
DICTIONARY
  5
221
330
36
100
AcDbDictionary
280
     1
281
     1
  3
ACAD_XREC_ROUNDTRIP
360
222
  0
DICTIONARY
  5
229
330
3A
100
AcDbDictionary
280
     1
281
     1
  3
ACAD_XREC_ROUNDTRIP
360
22A
  0
DICTIONARY
  5
21D
330
34
100
AcDbDictionary
280
     1
281
     1
  3
ACAD_XREC_ROUNDTRIP
360
21E
  0
DICTIONARY
  5
21F
330
35
100
AcDbDictionary
280
     1
281
     1
  3
ACAD_XREC_ROUNDTRIP
360
220
  0
DICTIONARY
  5
22F
330
3D
100
AcDbDictionary
280
     1
281
     1
  3
ACAD_XREC_ROUNDTRIP
360
230
  0
DICTIONARY
  5
227
330
39
100
AcDbDictionary
280
     1
281
     1
  3
ACAD_XREC_ROUNDTRIP
360
228
  0
DICTIONARY
  5
20B
330
2B
100
AcDbDictionary
280
     1
281
     1
  3
ACAD_XREC_ROUNDTRIP
360
20C
  0
DICTIONARY
  5
20D
330
2C
100
AcDbDictionary
280
     1
281
     1
  3
ACAD_XREC_ROUNDTRIP
360
20E
  0
DICTIONARY
  5
20F
330
2D
100
AcDbDictionary
280
     1
281
     1
  3
ACAD_XREC_ROUNDTRIP
360
210
  0
DICTIONARY
  5
211
330
2E
100
AcDbDictionary
280
     1
281
     1
  3
ACAD_XREC_ROUNDTRIP
360
212
  0
DICTIONARY
  5
217
330
31
100
AcDbDictionary
280
     1
281
     1
  3
ACAD_XREC_ROUNDTRIP
360
218
  0
DICTIONARY
  5
22B
330
3B
100
AcDbDictionary
280
     1
281
     1
  3
ACAD_XREC_ROUNDTRIP
360
22C
  0
DICTIONARY
  5
225
330
38
100
AcDbDictionary
280
     1
281
     1
  3
ACAD_XREC_ROUNDTRIP
360
226
  0
DICTIONARY
  5
22D
330
3C
100
AcDbDictionary
280
     1
281
     1
  3
ACAD_XREC_ROUNDTRIP
360
22E
  0
DICTIONARY
  5
21B
330
33
100
AcDbDictionary
280
     1
281
     1
  3
ACAD_XREC_ROUNDTRIP
360
21C
  0
DICTIONARY
  5
239
330
42
100
AcDbDictionary
280
     1
281
     1
  3
ACAD_XREC_ROUNDTRIP
360
23A
  0
DICTIONARY
  5
237
330
41
100
AcDbDictionary
280
     1
281
     1
  3
ACAD_XREC_ROUNDTRIP
360
238
  0
DICTIONARY
  5
231
330
3E
100
AcDbDictionary
280
     1
281
     1
  3
ACAD_XREC_ROUNDTRIP
360
232
  0
DICTIONARY
  5
233
330
3F
100
AcDbDictionary
280
     1
281
     1
  3
ACAD_XREC_ROUNDTRIP
360
234
  0
DICTIONARY
  5
223
330
37
100
AcDbDictionary
280
     1
281
     1
  3
ACAD_XREC_ROUNDTRIP
360
224
  0
DICTIONARY
  5
215
330
30
100
AcDbDictionary
280
     1
281
     1
  3
ACAD_XREC_ROUNDTRIP
360
216
  0
DICTIONARY
  5
235
330
40
100
AcDbDictionary
280
     1
281
     1
  3
ACAD_XREC_ROUNDTRIP
360
236
  0
XRECORD
  5
23E
102
{ACAD_REACTORS
330
23D
102
}
330
23D
100
AcDbXrecord
280
     1
102
ACAD_ROUNDTRIP_2010_MLEADER_STYLE
  0
CELLSTYLEMAP
  5
23C
102
{ACAD_REACTORS
330
23B
102
}
330
23B
100
AcDbCellStyleMap
 90
        3
300
CELLSTYLE
  1
TABLEFORMAT_BEGIN
 90
        5
170
     1
 91
        0
 92
    32768
 62
   257
 93
        1
300
CONTENTFORMAT
  1
CONTENTFORMAT_BEGIN
 90
        0
 91
        0
 92
        4
 93
        0
300

 40
0.0
140
1.0
 94
        5
 62
     0
340
11
144
6.0
309
CONTENTFORMAT_END
171
     1
301
MARGIN
  1
CELLMARGIN_BEGIN
 40
1.5
 40
1.5
 40
1.5
 40
1.5
 40
1.5
 40
1.5
309
CELLMARGIN_END
 94
        6
 95
        1
302
GRIDFORMAT
  1
GRIDFORMAT_BEGIN
 90
        0
 91
        1
 62
     0
 92
       -2
340
14
 93
        0
 40
0.045
309
GRIDFORMAT_END
 95
        2
302
GRIDFORMAT
  1
GRIDFORMAT_BEGIN
 90
        0
 91
        1
 62
     0
 92
       -2
340
14
 93
        0
 40
0.045
309
GRIDFORMAT_END
 95
        4
302
GRIDFORMAT
  1
GRIDFORMAT_BEGIN
 90
        0
 91
        1
 62
     0
 92
       -2
340
14
 93
        0
 40
0.045
309
GRIDFORMAT_END
 95
        8
302
GRIDFORMAT
  1
GRIDFORMAT_BEGIN
 90
        0
 91
        1
 62
     0
 92
       -2
340
14
 93
        0
 40
0.045
309
GRIDFORMAT_END
 95
       16
302
GRIDFORMAT
  1
GRIDFORMAT_BEGIN
 90
        0
 91
        1
 62
     0
 92
       -2
340
14
 93
        0
 40
0.045
309
GRIDFORMAT_END
 95
       32
302
GRIDFORMAT
  1
GRIDFORMAT_BEGIN
 90
        0
 91
        1
 62
     0
 92
       -2
340
14
 93
        0
 40
0.045
309
GRIDFORMAT_END
309
TABLEFORMAT_END
  1
CELLSTYLE_BEGIN
 90
        1
 91
        1
300
_TITLE
309
CELLSTYLE_END
300
CELLSTYLE
  1
TABLEFORMAT_BEGIN
 90
        5
170
     1
 91
        0
 92
        0
 62
   257
 93
        1
300
CONTENTFORMAT
  1
CONTENTFORMAT_BEGIN
 90
        0
 91
        0
 92
        4
 93
        0
300

 40
0.0
140
1.0
 94
        5
 62
     0
340
11
144
4.5
309
CONTENTFORMAT_END
171
     1
301
MARGIN
  1
CELLMARGIN_BEGIN
 40
1.5
 40
1.5
 40
1.5
 40
1.5
 40
1.5
 40
1.5
309
CELLMARGIN_END
 94
        6
 95
        1
302
GRIDFORMAT
  1
GRIDFORMAT_BEGIN
 90
        0
 91
        1
 62
     0
 92
       -2
340
14
 93
        0
 40
0.045
309
GRIDFORMAT_END
 95
        2
302
GRIDFORMAT
  1
GRIDFORMAT_BEGIN
 90
        0
 91
        1
 62
     0
 92
       -2
340
14
 93
        0
 40
0.045
309
GRIDFORMAT_END
 95
        4
302
GRIDFORMAT
  1
GRIDFORMAT_BEGIN
 90
        0
 91
        1
 62
     0
 92
       -2
340
14
 93
        0
 40
0.045
309
GRIDFORMAT_END
 95
        8
302
GRIDFORMAT
  1
GRIDFORMAT_BEGIN
 90
        0
 91
        1
 62
     0
 92
       -2
340
14
 93
        0
 40
0.045
309
GRIDFORMAT_END
 95
       16
302
GRIDFORMAT
  1
GRIDFORMAT_BEGIN
 90
        0
 91
        1
 62
     0
 92
       -2
340
14
 93
        0
 40
0.045
309
GRIDFORMAT_END
 95
       32
302
GRIDFORMAT
  1
GRIDFORMAT_BEGIN
 90
        0
 91
        1
 62
     0
 92
       -2
340
14
 93
        0
 40
0.045
309
GRIDFORMAT_END
309
TABLEFORMAT_END
  1
CELLSTYLE_BEGIN
 90
        2
 91
        1
300
_HEADER
309
CELLSTYLE_END
300
CELLSTYLE
  1
TABLEFORMAT_BEGIN
 90
        5
170
     1
 91
        0
 92
        0
 62
   257
 93
        1
300
CONTENTFORMAT
  1
CONTENTFORMAT_BEGIN
 90
        0
 91
        0
 92
        4
 93
        0
300

 40
0.0
140
1.0
 94
        2
 62
     0
340
11
144
4.5
309
CONTENTFORMAT_END
171
     1
301
MARGIN
  1
CELLMARGIN_BEGIN
 40
1.5
 40
1.5
 40
1.5
 40
1.5
 40
1.5
 40
1.5
309
CELLMARGIN_END
 94
        6
 95
        1
302
GRIDFORMAT
  1
GRIDFORMAT_BEGIN
 90
        0
 91
        1
 62
     0
 92
       -2
340
14
 93
        0
 40
0.045
309
GRIDFORMAT_END
 95
        2
302
GRIDFORMAT
  1
GRIDFORMAT_BEGIN
 90
        0
 91
        1
 62
     0
 92
       -2
340
14
 93
        0
 40
0.045
309
GRIDFORMAT_END
 95
        4
302
GRIDFORMAT
  1
GRIDFORMAT_BEGIN
 90
        0
 91
        1
 62
     0
 92
       -2
340
14
 93
        0
 40
0.045
309
GRIDFORMAT_END
 95
        8
302
GRIDFORMAT
  1
GRIDFORMAT_BEGIN
 90
        0
 91
        1
 62
     0
 92
       -2
340
14
 93
        0
 40
0.045
309
GRIDFORMAT_END
 95
       16
302
GRIDFORMAT
  1
GRIDFORMAT_BEGIN
 90
        0
 91
        1
 62
     0
 92
       -2
340
14
 93
        0
 40
0.045
309
GRIDFORMAT_END
 95
       32
302
GRIDFORMAT
  1
GRIDFORMAT_BEGIN
 90
        0
 91
        1
 62
     0
 92
       -2
340
14
 93
        0
 40
0.045
309
GRIDFORMAT_END
309
TABLEFORMAT_END
  1
CELLSTYLE_BEGIN
 90
        3
 91
        2
300
_DATA
309
CELLSTYLE_END
  0
XRECORD
  5
214
102
{ACAD_REACTORS
330
213
102
}
330
213
100
AcDbXrecord
280
     1
102
RTVSPropertyOp0
 70
     1
102
RTVSPropertyOp1
 70
     1
102
RTVSPropertyOp2
 70
     1
102
RTVSPropertyOp3
 70
     1
102
RTVSPropertyOp4
 70
     1
102
RTVSPropertyOp5
 70
     1
102
RTVSPropertyOp6
 70
     1
102
RTVSPropertyOp7
 70
     1
102
RTVSPropertyOp8
 70
     1
102
RTVSPropertyOp9
 70
     1
102
RTVSPropertyOp10
 70
     1
102
RTVSPropertyOp11
 70
     1
102
RTVSPropertyOp12
 70
     1
102
RTVSPropertyOp13
 70
     1
102
RTVSPropertyOp14
 70
     1
102
RTVSPropertyOp15
 70
     1
102
RTVSPropertyOp16
 70
     1
102
RTVSPropertyOp17
 70
     1
102
RTVSPropertyOp18
 70
     1
102
RTVSPropertyOp19
 70
     1
102
RTVSPropertyOp20
 70
     1
102
RTVSPropertyOp21
 70
     1
102
RTVSPropertyOp22
 70
     1
102
RTVSPropertyOp23
 70
     1
102
RTVSPropertyOp24
 70
     1
102
RTVSPropertyOp25
 70
     1
102
RTVSPropertyOp26
 70
     1
102
RTVSPropertyOp27
 70
     1
102
RTVSPropertyOp28
 70
     1
102
RTVSPropertyOp29
 70
     1
102
RTVSPropertyOp30
 70
     1
102
RTVSPropertyOp31
 70
     1
102
RTVSPropertyOp32
 70
     1
102
RTVSPropertyOp33
 70
     1
102
RTVSPropertyOp34
 70
     1
102
RTVSPropertyOp35
 70
     1
102
RTVSPropertyOp36
 70
     1
102
RTVSPropertyOp37
 70
     1
102
RTVSPropertyOp38
 70
     1
102
RTVSPropertyOp39
 70
     1
102
RTVSPropertyOp40
 70
     1
102
RTVSPropertyOp41
 70
     1
102
RTVSPropertyOp42
 70
     1
102
RTVSPropertyOp43
 70
     1
102
RTVSPropertyOp44
 70
     1
102
RTVSPropertyOp45
 70
     1
102
RTVSPropertyOp46
 70
     1
102
RTVSPropertyOp47
 70
     1
102
RTVSPropertyOp48
 70
     1
102
RTVSPropertyOp49
 70
     1
102
RTVSPropertyOp50
 70
     1
102
RTVSPropertyOp51
 70
     0
102
RTVSPropertyOp52
 70
     0
102
RTVSPropertyOp53
 70
     1
102
RTVSPropertyOp54
 70
     1
102
RTVSPropertyOp55
 70
     1
102
RTVSPropertyOp56
 70
     1
102
RTVSPropertyOp57
 70
     1
102
RTVSPost2010Prop28
280
     1
102
RTVSPost2010PropOp28
 70
     1
102
RTVSPost2010Prop29
280
     1
102
RTVSPost2010PropOp29
 70
     1
102
RTVSPost2010Prop30
280
     0
102
RTVSPost2010PropOp30
 70
     1
102
RTVSPost2010Prop31
280
     0
102
RTVSPost2010PropOp31
 70
     1
102
RTVSPost2010Prop32
280
     0
102
RTVSPost2010PropOp32
 70
     1
102
RTVSPost2010Prop33
280
     0
102
RTVSPost2010PropOp33
 70
     1
102
RTVSPost2010Prop34
280
     0
102
RTVSPost2010PropOp34
 70
     1
102
RTVSPost2010Prop35
280
     0
102
RTVSPost2010PropOp35
 70
     1
102
RTVSPost2010Prop36
280
     0
102
RTVSPost2010PropOp36
 70
     1
102
RTVSPost2010Prop37
 90
       50
102
RTVSPost2010PropOp37
 70
     1
102
RTVSPost2010Prop38
140
0.0
102
RTVSPost2010PropOp38
 70
     1
102
RTVSPost2010Prop39
140
1.0
102
RTVSPost2010PropOp39
 70
     1
102
RTVSPost2010Prop40
 90
        0
102
RTVSPost2010PropOp40
 70
     1
102
RTVSPost2010Prop41ColorIndex
 90
       18
102
RTVSPost2010Prop41ColorRGB
 90
        0
102
RTVSPost2010PropOp41
 70
     1
102
RTVSPost2010Prop42
 90
       50
102
RTVSPost2010PropOp42
 70
     1
102
RTVSPost2010Prop43
 90
        3
102
RTVSPost2010PropOp43
 70
     1
102
RTVSPost2010Prop44ColorIndex
 90
        5
102
RTVSPost2010Prop44ColorRGB
 90
      255
102
RTVSPost2010PropOp44
 70
     1
102
RTVSPost2010Prop45
280
     0
102
RTVSPost2010PropOp45
 70
     1
102
RTVSPost2010Prop46
 90
       50
102
RTVSPost2010PropOp46
 70
     1
102
RTVSPost2010Prop47
 90
       50
102
RTVSPost2010PropOp47
 70
     1
102
RTVSPost2010Prop48
 90
       50
102
RTVSPost2010PropOp48
 70
     1
102
RTVSPost2010Prop49
280
     0
102
RTVSPost2010PropOp49
 70
     1
102
RTVSPost2010Prop50
 90
       50
102
RTVSPost2010PropOp50
 70
     1
102
RTVSPost2010Prop51ColorIndex
 90
      256
102
RTVSPost2010Prop51ColorRGB
 90
-16777216
102
RTVSPost2010PropOp51
 70
     0
102
RTVSPost2010Prop52
140
1.0
102
RTVSPost2010PropOp52
 70
     0
102
RTVSPost2010Prop53
 90
        2
102
RTVSPost2010PropOp53
 70
     1
102
RTVSPost2010Prop54
  1
strokes_ogs.tif
102
RTVSPost2010PropOp54
 70
     1
102
RTVSPost2010Prop55
280
     0
102
RTVSPost2010PropOp55
 70
     1
102
RTVSPost2010Prop56
140
1.0
102
RTVSPost2010PropOp56
 70
     1
102
RTVSPost2010Prop57
140
1.0
102
RTVSPost2010PropOp57
 70
     1
  0
XRECORD
  5
21A
102
{ACAD_REACTORS
330
219
102
}
330
219
100
AcDbXrecord
280
     1
102
RTVSPropertyOp0
 70
     1
102
RTVSPropertyOp1
 70
     1
102
RTVSPropertyOp2
 70
     1
102
RTVSPropertyOp3
 70
     1
102
RTVSPropertyOp4
 70
     1
102
RTVSPropertyOp5
 70
     1
102
RTVSPropertyOp6
 70
     1
102
RTVSPropertyOp7
 70
     1
102
RTVSPropertyOp8
 70
     1
102
RTVSPropertyOp9
 70
     1
102
RTVSPropertyOp10
 70
     1
102
RTVSPropertyOp11
 70
     1
102
RTVSPropertyOp12
 70
     1
102
RTVSPropertyOp13
 70
     1
102
RTVSPropertyOp14
 70
     1
102
RTVSPropertyOp15
 70
     1
102
RTVSPropertyOp16
 70
     1
102
RTVSPropertyOp17
 70
     1
102
RTVSPropertyOp18
 70
     1
102
RTVSPropertyOp19
 70
     1
102
RTVSPropertyOp20
 70
     1
102
RTVSPropertyOp21
 70
     1
102
RTVSPropertyOp22
 70
     1
102
RTVSPropertyOp23
 70
     1
102
RTVSPropertyOp24
 70
     1
102
RTVSPropertyOp25
 70
     1
102
RTVSPropertyOp26
 70
     1
102
RTVSPropertyOp27
 70
     1
102
RTVSPropertyOp28
 70
     1
102
RTVSPropertyOp29
 70
     1
102
RTVSPropertyOp30
 70
     1
102
RTVSPropertyOp31
 70
     1
102
RTVSPropertyOp32
 70
     1
102
RTVSPropertyOp33
 70
     1
102
RTVSPropertyOp34
 70
     1
102
RTVSPropertyOp35
 70
     1
102
RTVSPropertyOp36
 70
     1
102
RTVSPropertyOp37
 70
     1
102
RTVSPropertyOp38
 70
     1
102
RTVSPropertyOp39
 70
     1
102
RTVSPropertyOp40
 70
     1
102
RTVSPropertyOp41
 70
     1
102
RTVSPropertyOp42
 70
     1
102
RTVSPropertyOp43
 70
     1
102
RTVSPropertyOp44
 70
     1
102
RTVSPropertyOp45
 70
     1
102
RTVSPropertyOp46
 70
     1
102
RTVSPropertyOp47
 70
     1
102
RTVSPropertyOp48
 70
     1
102
RTVSPropertyOp49
 70
     1
102
RTVSPropertyOp50
 70
     1
102
RTVSPropertyOp51
 70
     0
102
RTVSPropertyOp52
 70
     0
102
RTVSPropertyOp53
 70
     1
102
RTVSPropertyOp54
 70
     1
102
RTVSPropertyOp55
 70
     1
102
RTVSPropertyOp56
 70
     1
102
RTVSPropertyOp57
 70
     1
102
RTVSPost2010Prop28
280
     0
102
RTVSPost2010PropOp28
 70
     1
102
RTVSPost2010Prop29
280
     1
102
RTVSPost2010PropOp29
 70
     1
102
RTVSPost2010Prop30
280
     1
102
RTVSPost2010PropOp30
 70
     1
102
RTVSPost2010Prop31
280
     0
102
RTVSPost2010PropOp31
 70
     1
102
RTVSPost2010Prop32
280
     0
102
RTVSPost2010PropOp32
 70
     1
102
RTVSPost2010Prop33
280
     0
102
RTVSPost2010PropOp33
 70
     1
102
RTVSPost2010Prop34
280
     0
102
RTVSPost2010PropOp34
 70
     1
102
RTVSPost2010Prop35
280
     0
102
RTVSPost2010PropOp35
 70
     1
102
RTVSPost2010Prop36
280
     0
102
RTVSPost2010PropOp36
 70
     1
102
RTVSPost2010Prop37
 90
       50
102
RTVSPost2010PropOp37
 70
     1
102
RTVSPost2010Prop38
140
0.0
102
RTVSPost2010PropOp38
 70
     1
102
RTVSPost2010Prop39
140
1.0
102
RTVSPost2010PropOp39
 70
     1
102
RTVSPost2010Prop40
 90
        0
102
RTVSPost2010PropOp40
 70
     1
102
RTVSPost2010Prop41ColorIndex
 90
       18
102
RTVSPost2010Prop41ColorRGB
 90
        0
102
RTVSPost2010PropOp41
 70
     1
102
RTVSPost2010Prop42
 90
       50
102
RTVSPost2010PropOp42
 70
     1
102
RTVSPost2010Prop43
 90
        3
102
RTVSPost2010PropOp43
 70
     1
102
RTVSPost2010Prop44ColorIndex
 90
        5
102
RTVSPost2010Prop44ColorRGB
 90
      255
102
RTVSPost2010PropOp44
 70
     1
102
RTVSPost2010Prop45
280
     0
102
RTVSPost2010PropOp45
 70
     1
102
RTVSPost2010Prop46
 90
       50
102
RTVSPost2010PropOp46
 70
     1
102
RTVSPost2010Prop47
 90
       50
102
RTVSPost2010PropOp47
 70
     1
102
RTVSPost2010Prop48
 90
       50
102
RTVSPost2010PropOp48
 70
     1
102
RTVSPost2010Prop49
280
     0
102
RTVSPost2010PropOp49
 70
     1
102
RTVSPost2010Prop50
 90
       50
102
RTVSPost2010PropOp50
 70
     1
102
RTVSPost2010Prop51ColorIndex
 90
      256
102
RTVSPost2010Prop51ColorRGB
 90
-16777216
102
RTVSPost2010PropOp51
 70
     0
102
RTVSPost2010Prop52
140
1.0
102
RTVSPost2010PropOp52
 70
     0
102
RTVSPost2010Prop53
 90
        2
102
RTVSPost2010PropOp53
 70
     1
102
RTVSPost2010Prop54
  1
strokes_ogs.tif
102
RTVSPost2010PropOp54
 70
     1
102
RTVSPost2010Prop55
280
     0
102
RTVSPost2010PropOp55
 70
     1
102
RTVSPost2010Prop56
140
1.0
102
RTVSPost2010PropOp56
 70
     1
102
RTVSPost2010Prop57
140
1.0
102
RTVSPost2010PropOp57
 70
     1
  0
XRECORD
  5
222
102
{ACAD_REACTORS
330
221
102
}
330
221
100
AcDbXrecord
280
     1
102
RTVSPropertyOp0
 70
     1
102
RTVSPropertyOp1
 70
     1
102
RTVSPropertyOp2
 70
     1
102
RTVSPropertyOp3
 70
     1
102
RTVSPropertyOp4
 70
     1
102
RTVSPropertyOp5
 70
     1
102
RTVSPropertyOp6
 70
     1
102
RTVSPropertyOp7
 70
     1
102
RTVSPropertyOp8
 70
     1
102
RTVSPropertyOp9
 70
     1
102
RTVSPropertyOp10
 70
     1
102
RTVSPropertyOp11
 70
     1
102
RTVSPropertyOp12
 70
     1
102
RTVSPropertyOp13
 70
     1
102
RTVSPropertyOp14
 70
     1
102
RTVSPropertyOp15
 70
     1
102
RTVSPropertyOp16
 70
     1
102
RTVSPropertyOp17
 70
     1
102
RTVSPropertyOp18
 70
     1
102
RTVSPropertyOp19
 70
     1
102
RTVSPropertyOp20
 70
     1
102
RTVSPropertyOp21
 70
     1
102
RTVSPropertyOp22
 70
     1
102
RTVSPropertyOp23
 70
     1
102
RTVSPropertyOp24
 70
     1
102
RTVSPropertyOp25
 70
     1
102
RTVSPropertyOp26
 70
     1
102
RTVSPropertyOp27
 70
     1
102
RTVSPropertyOp28
 70
     1
102
RTVSPropertyOp29
 70
     1
102
RTVSPropertyOp30
 70
     1
102
RTVSPropertyOp31
 70
     1
102
RTVSPropertyOp32
 70
     1
102
RTVSPropertyOp33
 70
     1
102
RTVSPropertyOp34
 70
     1
102
RTVSPropertyOp35
 70
     1
102
RTVSPropertyOp36
 70
     1
102
RTVSPropertyOp37
 70
     1
102
RTVSPropertyOp38
 70
     1
102
RTVSPropertyOp39
 70
     1
102
RTVSPropertyOp40
 70
     1
102
RTVSPropertyOp41
 70
     1
102
RTVSPropertyOp42
 70
     1
102
RTVSPropertyOp43
 70
     1
102
RTVSPropertyOp44
 70
     1
102
RTVSPropertyOp45
 70
     1
102
RTVSPropertyOp46
 70
     1
102
RTVSPropertyOp47
 70
     1
102
RTVSPropertyOp48
 70
     1
102
RTVSPropertyOp49
 70
     1
102
RTVSPropertyOp50
 70
     1
102
RTVSPropertyOp51
 70
     0
102
RTVSPropertyOp52
 70
     0
102
RTVSPropertyOp53
 70
     1
102
RTVSPropertyOp54
 70
     1
102
RTVSPropertyOp55
 70
     1
102
RTVSPropertyOp56
 70
     1
102
RTVSPropertyOp57
 70
     1
102
RTVSPost2010Prop28
280
     0
102
RTVSPost2010PropOp28
 70
     1
102
RTVSPost2010Prop29
280
     1
102
RTVSPost2010PropOp29
 70
     1
102
RTVSPost2010Prop30
280
     1
102
RTVSPost2010PropOp30
 70
     1
102
RTVSPost2010Prop31
280
     0
102
RTVSPost2010PropOp31
 70
     1
102
RTVSPost2010Prop32
280
     0
102
RTVSPost2010PropOp32
 70
     1
102
RTVSPost2010Prop33
280
     0
102
RTVSPost2010PropOp33
 70
     1
102
RTVSPost2010Prop34
280
     0
102
RTVSPost2010PropOp34
 70
     1
102
RTVSPost2010Prop35
280
     0
102
RTVSPost2010PropOp35
 70
     1
102
RTVSPost2010Prop36
280
     0
102
RTVSPost2010PropOp36
 70
     1
102
RTVSPost2010Prop37
 90
       50
102
RTVSPost2010PropOp37
 70
     1
102
RTVSPost2010Prop38
140
0.0
102
RTVSPost2010PropOp38
 70
     1
102
RTVSPost2010Prop39
140
1.0
102
RTVSPost2010PropOp39
 70
     1
102
RTVSPost2010Prop40
 90
        0
102
RTVSPost2010PropOp40
 70
     1
102
RTVSPost2010Prop41ColorIndex
 90
       18
102
RTVSPost2010Prop41ColorRGB
 90
        0
102
RTVSPost2010PropOp41
 70
     1
102
RTVSPost2010Prop42
 90
       50
102
RTVSPost2010PropOp42
 70
     1
102
RTVSPost2010Prop43
 90
        3
102
RTVSPost2010PropOp43
 70
     1
102
RTVSPost2010Prop44ColorIndex
 90
        5
102
RTVSPost2010Prop44ColorRGB
 90
      255
102
RTVSPost2010PropOp44
 70
     1
102
RTVSPost2010Prop45
280
     0
102
RTVSPost2010PropOp45
 70
     1
102
RTVSPost2010Prop46
 90
       50
102
RTVSPost2010PropOp46
 70
     1
102
RTVSPost2010Prop47
 90
       50
102
RTVSPost2010PropOp47
 70
     1
102
RTVSPost2010Prop48
 90
       50
102
RTVSPost2010PropOp48
 70
     1
102
RTVSPost2010Prop49
280
     0
102
RTVSPost2010PropOp49
 70
     1
102
RTVSPost2010Prop50
 90
       50
102
RTVSPost2010PropOp50
 70
     1
102
RTVSPost2010Prop51ColorIndex
 90
      256
102
RTVSPost2010Prop51ColorRGB
 90
-16777216
102
RTVSPost2010PropOp51
 70
     0
102
RTVSPost2010Prop52
140
1.0
102
RTVSPost2010PropOp52
 70
     0
102
RTVSPost2010Prop53
 90
        2
102
RTVSPost2010PropOp53
 70
     1
102
RTVSPost2010Prop54
  1
strokes_ogs.tif
102
RTVSPost2010PropOp54
 70
     1
102
RTVSPost2010Prop55
280
     0
102
RTVSPost2010PropOp55
 70
     1
102
RTVSPost2010Prop56
140
1.0
102
RTVSPost2010PropOp56
 70
     1
102
RTVSPost2010Prop57
140
1.0
102
RTVSPost2010PropOp57
 70
     1
  0
XRECORD
  5
22A
102
{ACAD_REACTORS
330
229
102
}
330
229
100
AcDbXrecord
280
     1
102
RTVSPropertyOp0
 70
     1
102
RTVSPropertyOp1
 70
     1
102
RTVSPropertyOp2
 70
     1
102
RTVSPropertyOp3
 70
     1
102
RTVSPropertyOp4
 70
     1
102
RTVSPropertyOp5
 70
     1
102
RTVSPropertyOp6
 70
     1
102
RTVSPropertyOp7
 70
     1
102
RTVSPropertyOp8
 70
     1
102
RTVSPropertyOp9
 70
     1
102
RTVSPropertyOp10
 70
     1
102
RTVSPropertyOp11
 70
     1
102
RTVSPropertyOp12
 70
     1
102
RTVSPropertyOp13
 70
     1
102
RTVSPropertyOp14
 70
     1
102
RTVSPropertyOp15
 70
     1
102
RTVSPropertyOp16
 70
     1
102
RTVSPropertyOp17
 70
     1
102
RTVSPropertyOp18
 70
     1
102
RTVSPropertyOp19
 70
     1
102
RTVSPropertyOp20
 70
     1
102
RTVSPropertyOp21
 70
     1
102
RTVSPropertyOp22
 70
     1
102
RTVSPropertyOp23
 70
     1
102
RTVSPropertyOp24
 70
     1
102
RTVSPropertyOp25
 70
     1
102
RTVSPropertyOp26
 70
     1
102
RTVSPropertyOp27
 70
     1
102
RTVSPropertyOp28
 70
     1
102
RTVSPropertyOp29
 70
     1
102
RTVSPropertyOp30
 70
     1
102
RTVSPropertyOp31
 70
     1
102
RTVSPropertyOp32
 70
     1
102
RTVSPropertyOp33
 70
     1
102
RTVSPropertyOp34
 70
     1
102
RTVSPropertyOp35
 70
     1
102
RTVSPropertyOp36
 70
     1
102
RTVSPropertyOp37
 70
     1
102
RTVSPropertyOp38
 70
     1
102
RTVSPropertyOp39
 70
     1
102
RTVSPropertyOp40
 70
     1
102
RTVSPropertyOp41
 70
     1
102
RTVSPropertyOp42
 70
     1
102
RTVSPropertyOp43
 70
     1
102
RTVSPropertyOp44
 70
     1
102
RTVSPropertyOp45
 70
     1
102
RTVSPropertyOp46
 70
     1
102
RTVSPropertyOp47
 70
     1
102
RTVSPropertyOp48
 70
     1
102
RTVSPropertyOp49
 70
     1
102
RTVSPropertyOp50
 70
     1
102
RTVSPropertyOp51
 70
     0
102
RTVSPropertyOp52
 70
     0
102
RTVSPropertyOp53
 70
     1
102
RTVSPropertyOp54
 70
     1
102
RTVSPropertyOp55
 70
     1
102
RTVSPropertyOp56
 70
     1
102
RTVSPropertyOp57
 70
     1
102
RTVSPost2010Prop28
280
     0
102
RTVSPost2010PropOp28
 70
     1
102
RTVSPost2010Prop29
280
     1
102
RTVSPost2010PropOp29
 70
     1
102
RTVSPost2010Prop30
280
     1
102
RTVSPost2010PropOp30
 70
     1
102
RTVSPost2010Prop31
280
     0
102
RTVSPost2010PropOp31
 70
     1
102
RTVSPost2010Prop32
280
     0
102
RTVSPost2010PropOp32
 70
     1
102
RTVSPost2010Prop33
280
     0
102
RTVSPost2010PropOp33
 70
     1
102
RTVSPost2010Prop34
280
     0
102
RTVSPost2010PropOp34
 70
     1
102
RTVSPost2010Prop35
280
     0
102
RTVSPost2010PropOp35
 70
     1
102
RTVSPost2010Prop36
280
     0
102
RTVSPost2010PropOp36
 70
     1
102
RTVSPost2010Prop37
 90
       50
102
RTVSPost2010PropOp37
 70
     1
102
RTVSPost2010Prop38
140
0.0
102
RTVSPost2010PropOp38
 70
     1
102
RTVSPost2010Prop39
140
1.0
102
RTVSPost2010PropOp39
 70
     1
102
RTVSPost2010Prop40
 90
        0
102
RTVSPost2010PropOp40
 70
     1
102
RTVSPost2010Prop41ColorIndex
 90
       18
102
RTVSPost2010Prop41ColorRGB
 90
        0
102
RTVSPost2010PropOp41
 70
     1
102
RTVSPost2010Prop42
 90
       50
102
RTVSPost2010PropOp42
 70
     1
102
RTVSPost2010Prop43
 90
        3
102
RTVSPost2010PropOp43
 70
     1
102
RTVSPost2010Prop44ColorIndex
 90
        5
102
RTVSPost2010Prop44ColorRGB
 90
      255
102
RTVSPost2010PropOp44
 70
     1
102
RTVSPost2010Prop45
280
     0
102
RTVSPost2010PropOp45
 70
     1
102
RTVSPost2010Prop46
 90
       50
102
RTVSPost2010PropOp46
 70
     1
102
RTVSPost2010Prop47
 90
       50
102
RTVSPost2010PropOp47
 70
     1
102
RTVSPost2010Prop48
 90
       50
102
RTVSPost2010PropOp48
 70
     1
102
RTVSPost2010Prop49
280
     0
102
RTVSPost2010PropOp49
 70
     1
102
RTVSPost2010Prop50
 90
       50
102
RTVSPost2010PropOp50
 70
     1
102
RTVSPost2010Prop51ColorIndex
 90
      256
102
RTVSPost2010Prop51ColorRGB
 90
-16777216
102
RTVSPost2010PropOp51
 70
     0
102
RTVSPost2010Prop52
140
1.0
102
RTVSPost2010PropOp52
 70
     0
102
RTVSPost2010Prop53
 90
        2
102
RTVSPost2010PropOp53
 70
     1
102
RTVSPost2010Prop54
  1
strokes_ogs.tif
102
RTVSPost2010PropOp54
 70
     1
102
RTVSPost2010Prop55
280
     0
102
RTVSPost2010PropOp55
 70
     1
102
RTVSPost2010Prop56
140
1.0
102
RTVSPost2010PropOp56
 70
     1
102
RTVSPost2010Prop57
140
1.0
102
RTVSPost2010PropOp57
 70
     1
  0
XRECORD
  5
21E
102
{ACAD_REACTORS
330
21D
102
}
330
21D
100
AcDbXrecord
280
     1
102
RTVSPropertyOp0
 70
     1
102
RTVSPropertyOp1
 70
     1
102
RTVSPropertyOp2
 70
     1
102
RTVSPropertyOp3
 70
     1
102
RTVSPropertyOp4
 70
     1
102
RTVSPropertyOp5
 70
     1
102
RTVSPropertyOp6
 70
     1
102
RTVSPropertyOp7
 70
     1
102
RTVSPropertyOp8
 70
     1
102
RTVSPropertyOp9
 70
     1
102
RTVSPropertyOp10
 70
     1
102
RTVSPropertyOp11
 70
     1
102
RTVSPropertyOp12
 70
     1
102
RTVSPropertyOp13
 70
     1
102
RTVSPropertyOp14
 70
     1
102
RTVSPropertyOp15
 70
     1
102
RTVSPropertyOp16
 70
     1
102
RTVSPropertyOp17
 70
     1
102
RTVSPropertyOp18
 70
     1
102
RTVSPropertyOp19
 70
     1
102
RTVSPropertyOp20
 70
     1
102
RTVSPropertyOp21
 70
     1
102
RTVSPropertyOp22
 70
     1
102
RTVSPropertyOp23
 70
     1
102
RTVSPropertyOp24
 70
     1
102
RTVSPropertyOp25
 70
     1
102
RTVSPropertyOp26
 70
     1
102
RTVSPropertyOp27
 70
     1
102
RTVSPropertyOp28
 70
     1
102
RTVSPropertyOp29
 70
     1
102
RTVSPropertyOp30
 70
     1
102
RTVSPropertyOp31
 70
     1
102
RTVSPropertyOp32
 70
     1
102
RTVSPropertyOp33
 70
     1
102
RTVSPropertyOp34
 70
     1
102
RTVSPropertyOp35
 70
     1
102
RTVSPropertyOp36
 70
     1
102
RTVSPropertyOp37
 70
     1
102
RTVSPropertyOp38
 70
     1
102
RTVSPropertyOp39
 70
     1
102
RTVSPropertyOp40
 70
     1
102
RTVSPropertyOp41
 70
     1
102
RTVSPropertyOp42
 70
     1
102
RTVSPropertyOp43
 70
     1
102
RTVSPropertyOp44
 70
     1
102
RTVSPropertyOp45
 70
     1
102
RTVSPropertyOp46
 70
     1
102
RTVSPropertyOp47
 70
     1
102
RTVSPropertyOp48
 70
     1
102
RTVSPropertyOp49
 70
     1
102
RTVSPropertyOp50
 70
     1
102
RTVSPropertyOp51
 70
     0
102
RTVSPropertyOp52
 70
     0
102
RTVSPropertyOp53
 70
     1
102
RTVSPropertyOp54
 70
     1
102
RTVSPropertyOp55
 70
     1
102
RTVSPropertyOp56
 70
     1
102
RTVSPropertyOp57
 70
     1
102
RTVSPost2010Prop28
280
     0
102
RTVSPost2010PropOp28
 70
     1
102
RTVSPost2010Prop29
280
     1
102
RTVSPost2010PropOp29
 70
     1
102
RTVSPost2010Prop30
280
     1
102
RTVSPost2010PropOp30
 70
     1
102
RTVSPost2010Prop31
280
     0
102
RTVSPost2010PropOp31
 70
     1
102
RTVSPost2010Prop32
280
     0
102
RTVSPost2010PropOp32
 70
     1
102
RTVSPost2010Prop33
280
     0
102
RTVSPost2010PropOp33
 70
     1
102
RTVSPost2010Prop34
280
     0
102
RTVSPost2010PropOp34
 70
     1
102
RTVSPost2010Prop35
280
     0
102
RTVSPost2010PropOp35
 70
     1
102
RTVSPost2010Prop36
280
     0
102
RTVSPost2010PropOp36
 70
     1
102
RTVSPost2010Prop37
 90
       50
102
RTVSPost2010PropOp37
 70
     1
102
RTVSPost2010Prop38
140
0.0
102
RTVSPost2010PropOp38
 70
     1
102
RTVSPost2010Prop39
140
1.0
102
RTVSPost2010PropOp39
 70
     1
102
RTVSPost2010Prop40
 90
        0
102
RTVSPost2010PropOp40
 70
     1
102
RTVSPost2010Prop41ColorIndex
 90
       18
102
RTVSPost2010Prop41ColorRGB
 90
        0
102
RTVSPost2010PropOp41
 70
     1
102
RTVSPost2010Prop42
 90
       50
102
RTVSPost2010PropOp42
 70
     1
102
RTVSPost2010Prop43
 90
        3
102
RTVSPost2010PropOp43
 70
     1
102
RTVSPost2010Prop44ColorIndex
 90
        5
102
RTVSPost2010Prop44ColorRGB
 90
      255
102
RTVSPost2010PropOp44
 70
     1
102
RTVSPost2010Prop45
280
     0
102
RTVSPost2010PropOp45
 70
     1
102
RTVSPost2010Prop46
 90
       50
102
RTVSPost2010PropOp46
 70
     1
102
RTVSPost2010Prop47
 90
       50
102
RTVSPost2010PropOp47
 70
     1
102
RTVSPost2010Prop48
 90
       50
102
RTVSPost2010PropOp48
 70
     1
102
RTVSPost2010Prop49
280
     0
102
RTVSPost2010PropOp49
 70
     1
102
RTVSPost2010Prop50
 90
       50
102
RTVSPost2010PropOp50
 70
     1
102
RTVSPost2010Prop51ColorIndex
 90
      256
102
RTVSPost2010Prop51ColorRGB
 90
-16777216
102
RTVSPost2010PropOp51
 70
     0
102
RTVSPost2010Prop52
140
1.0
102
RTVSPost2010PropOp52
 70
     0
102
RTVSPost2010Prop53
 90
        2
102
RTVSPost2010PropOp53
 70
     1
102
RTVSPost2010Prop54
  1
strokes_ogs.tif
102
RTVSPost2010PropOp54
 70
     1
102
RTVSPost2010Prop55
280
     0
102
RTVSPost2010PropOp55
 70
     1
102
RTVSPost2010Prop56
140
1.0
102
RTVSPost2010PropOp56
 70
     1
102
RTVSPost2010Prop57
140
1.0
102
RTVSPost2010PropOp57
 70
     1
  0
XRECORD
  5
220
102
{ACAD_REACTORS
330
21F
102
}
330
21F
100
AcDbXrecord
280
     1
102
RTVSPropertyOp0
 70
     1
102
RTVSPropertyOp1
 70
     1
102
RTVSPropertyOp2
 70
     1
102
RTVSPropertyOp3
 70
     1
102
RTVSPropertyOp4
 70
     1
102
RTVSPropertyOp5
 70
     1
102
RTVSPropertyOp6
 70
     1
102
RTVSPropertyOp7
 70
     1
102
RTVSPropertyOp8
 70
     1
102
RTVSPropertyOp9
 70
     1
102
RTVSPropertyOp10
 70
     1
102
RTVSPropertyOp11
 70
     1
102
RTVSPropertyOp12
 70
     1
102
RTVSPropertyOp13
 70
     1
102
RTVSPropertyOp14
 70
     1
102
RTVSPropertyOp15
 70
     1
102
RTVSPropertyOp16
 70
     1
102
RTVSPropertyOp17
 70
     1
102
RTVSPropertyOp18
 70
     1
102
RTVSPropertyOp19
 70
     1
102
RTVSPropertyOp20
 70
     1
102
RTVSPropertyOp21
 70
     1
102
RTVSPropertyOp22
 70
     1
102
RTVSPropertyOp23
 70
     1
102
RTVSPropertyOp24
 70
     1
102
RTVSPropertyOp25
 70
     1
102
RTVSPropertyOp26
 70
     1
102
RTVSPropertyOp27
 70
     1
102
RTVSPropertyOp28
 70
     1
102
RTVSPropertyOp29
 70
     1
102
RTVSPropertyOp30
 70
     1
102
RTVSPropertyOp31
 70
     1
102
RTVSPropertyOp32
 70
     1
102
RTVSPropertyOp33
 70
     1
102
RTVSPropertyOp34
 70
     1
102
RTVSPropertyOp35
 70
     1
102
RTVSPropertyOp36
 70
     1
102
RTVSPropertyOp37
 70
     1
102
RTVSPropertyOp38
 70
     1
102
RTVSPropertyOp39
 70
     1
102
RTVSPropertyOp40
 70
     1
102
RTVSPropertyOp41
 70
     1
102
RTVSPropertyOp42
 70
     1
102
RTVSPropertyOp43
 70
     1
102
RTVSPropertyOp44
 70
     1
102
RTVSPropertyOp45
 70
     1
102
RTVSPropertyOp46
 70
     1
102
RTVSPropertyOp47
 70
     1
102
RTVSPropertyOp48
 70
     1
102
RTVSPropertyOp49
 70
     1
102
RTVSPropertyOp50
 70
     1
102
RTVSPropertyOp51
 70
     0
102
RTVSPropertyOp52
 70
     0
102
RTVSPropertyOp53
 70
     1
102
RTVSPropertyOp54
 70
     1
102
RTVSPropertyOp55
 70
     1
102
RTVSPropertyOp56
 70
     1
102
RTVSPropertyOp57
 70
     1
102
RTVSPost2010Prop28
280
     0
102
RTVSPost2010PropOp28
 70
     1
102
RTVSPost2010Prop29
280
     1
102
RTVSPost2010PropOp29
 70
     1
102
RTVSPost2010Prop30
280
     1
102
RTVSPost2010PropOp30
 70
     1
102
RTVSPost2010Prop31
280
     0
102
RTVSPost2010PropOp31
 70
     1
102
RTVSPost2010Prop32
280
     0
102
RTVSPost2010PropOp32
 70
     1
102
RTVSPost2010Prop33
280
     0
102
RTVSPost2010PropOp33
 70
     1
102
RTVSPost2010Prop34
280
     0
102
RTVSPost2010PropOp34
 70
     1
102
RTVSPost2010Prop35
280
     0
102
RTVSPost2010PropOp35
 70
     1
102
RTVSPost2010Prop36
280
     0
102
RTVSPost2010PropOp36
 70
     1
102
RTVSPost2010Prop37
 90
       50
102
RTVSPost2010PropOp37
 70
     1
102
RTVSPost2010Prop38
140
0.0
102
RTVSPost2010PropOp38
 70
     1
102
RTVSPost2010Prop39
140
1.0
102
RTVSPost2010PropOp39
 70
     1
102
RTVSPost2010Prop40
 90
        0
102
RTVSPost2010PropOp40
 70
     1
102
RTVSPost2010Prop41ColorIndex
 90
       18
102
RTVSPost2010Prop41ColorRGB
 90
        0
102
RTVSPost2010PropOp41
 70
     1
102
RTVSPost2010Prop42
 90
       50
102
RTVSPost2010PropOp42
 70
     1
102
RTVSPost2010Prop43
 90
        3
102
RTVSPost2010PropOp43
 70
     1
102
RTVSPost2010Prop44ColorIndex
 90
        5
102
RTVSPost2010Prop44ColorRGB
 90
      255
102
RTVSPost2010PropOp44
 70
     1
102
RTVSPost2010Prop45
280
     0
102
RTVSPost2010PropOp45
 70
     1
102
RTVSPost2010Prop46
 90
       50
102
RTVSPost2010PropOp46
 70
     1
102
RTVSPost2010Prop47
 90
       50
102
RTVSPost2010PropOp47
 70
     1
102
RTVSPost2010Prop48
 90
       50
102
RTVSPost2010PropOp48
 70
     1
102
RTVSPost2010Prop49
280
     0
102
RTVSPost2010PropOp49
 70
     1
102
RTVSPost2010Prop50
 90
       50
102
RTVSPost2010PropOp50
 70
     1
102
RTVSPost2010Prop51ColorIndex
 90
      256
102
RTVSPost2010Prop51ColorRGB
 90
-16777216
102
RTVSPost2010PropOp51
 70
     0
102
RTVSPost2010Prop52
140
1.0
102
RTVSPost2010PropOp52
 70
     0
102
RTVSPost2010Prop53
 90
        2
102
RTVSPost2010PropOp53
 70
     1
102
RTVSPost2010Prop54
  1
strokes_ogs.tif
102
RTVSPost2010PropOp54
 70
     1
102
RTVSPost2010Prop55
280
     0
102
RTVSPost2010PropOp55
 70
     1
102
RTVSPost2010Prop56
140
1.0
102
RTVSPost2010PropOp56
 70
     1
102
RTVSPost2010Prop57
140
1.0
102
RTVSPost2010PropOp57
 70
     1
  0
XRECORD
  5
230
102
{ACAD_REACTORS
330
22F
102
}
330
22F
100
AcDbXrecord
280
     1
102
RTVSPropertyOp0
 70
     0
102
RTVSPropertyOp1
 70
     0
102
RTVSPropertyOp2
 70
     0
102
RTVSPropertyOp3
 70
     0
102
RTVSPropertyOp4
 70
     0
102
RTVSPropertyOp5
 70
     0
102
RTVSPropertyOp6
 70
     0
102
RTVSPropertyOp7
 70
     0
102
RTVSPropertyOp8
 70
     0
102
RTVSPropertyOp9
 70
     0
102
RTVSPropertyOp10
 70
     0
102
RTVSPropertyOp11
 70
     0
102
RTVSPropertyOp12
 70
     0
102
RTVSPropertyOp13
 70
     0
102
RTVSPropertyOp14
 70
     2
102
RTVSPropertyOp15
 70
     0
102
RTVSPropertyOp16
 70
     0
102
RTVSPropertyOp17
 70
     0
102
RTVSPropertyOp18
 70
     0
102
RTVSPropertyOp19
 70
     0
102
RTVSPropertyOp20
 70
     0
102
RTVSPropertyOp21
 70
     0
102
RTVSPropertyOp22
 70
     0
102
RTVSPropertyOp23
 70
     0
102
RTVSPropertyOp24
 70
     0
102
RTVSPropertyOp25
 70
     0
102
RTVSPropertyOp26
 70
     0
102
RTVSPropertyOp27
 70
     0
102
RTVSPropertyOp28
 70
     0
102
RTVSPropertyOp29
 70
     0
102
RTVSPropertyOp30
 70
     0
102
RTVSPropertyOp31
 70
     0
102
RTVSPropertyOp32
 70
     0
102
RTVSPropertyOp33
 70
     0
102
RTVSPropertyOp34
 70
     0
102
RTVSPropertyOp35
 70
     0
102
RTVSPropertyOp36
 70
     0
102
RTVSPropertyOp37
 70
     0
102
RTVSPropertyOp38
 70
     0
102
RTVSPropertyOp39
 70
     0
102
RTVSPropertyOp40
 70
     0
102
RTVSPropertyOp41
 70
     0
102
RTVSPropertyOp42
 70
     0
102
RTVSPropertyOp43
 70
     0
102
RTVSPropertyOp44
 70
     0
102
RTVSPropertyOp45
 70
     0
102
RTVSPropertyOp46
 70
     0
102
RTVSPropertyOp47
 70
     0
102
RTVSPropertyOp48
 70
     0
102
RTVSPropertyOp49
 70
     0
102
RTVSPropertyOp50
 70
     0
102
RTVSPropertyOp51
 70
     0
102
RTVSPropertyOp52
 70
     0
102
RTVSPropertyOp53
 70
     0
102
RTVSPropertyOp54
 70
     0
102
RTVSPropertyOp55
 70
     0
102
RTVSPropertyOp56
 70
     0
102
RTVSPropertyOp57
 70
     0
102
RTVSPost2010Prop28
280
     0
102
RTVSPost2010PropOp28
 70
     0
102
RTVSPost2010Prop29
280
     1
102
RTVSPost2010PropOp29
 70
     0
102
RTVSPost2010Prop30
280
     1
102
RTVSPost2010PropOp30
 70
     0
102
RTVSPost2010Prop31
280
     0
102
RTVSPost2010PropOp31
 70
     0
102
RTVSPost2010Prop32
280
     0
102
RTVSPost2010PropOp32
 70
     0
102
RTVSPost2010Prop33
280
     0
102
RTVSPost2010PropOp33
 70
     0
102
RTVSPost2010Prop34
280
     0
102
RTVSPost2010PropOp34
 70
     0
102
RTVSPost2010Prop35
280
     0
102
RTVSPost2010PropOp35
 70
     0
102
RTVSPost2010Prop36
280
     0
102
RTVSPost2010PropOp36
 70
     0
102
RTVSPost2010Prop37
 90
       50
102
RTVSPost2010PropOp37
 70
     0
102
RTVSPost2010Prop38
140
0.0
102
RTVSPost2010PropOp38
 70
     0
102
RTVSPost2010Prop39
140
1.0
102
RTVSPost2010PropOp39
 70
     0
102
RTVSPost2010Prop40
 90
        0
102
RTVSPost2010PropOp40
 70
     0
102
RTVSPost2010Prop41ColorIndex
 90
       18
102
RTVSPost2010Prop41ColorRGB
 90
        0
102
RTVSPost2010PropOp41
 70
     0
102
RTVSPost2010Prop42
 90
       50
102
RTVSPost2010PropOp42
 70
     0
102
RTVSPost2010Prop43
 90
        3
102
RTVSPost2010PropOp43
 70
     0
102
RTVSPost2010Prop44ColorIndex
 90
        5
102
RTVSPost2010Prop44ColorRGB
 90
      255
102
RTVSPost2010PropOp44
 70
     0
102
RTVSPost2010Prop45
280
     0
102
RTVSPost2010PropOp45
 70
     0
102
RTVSPost2010Prop46
 90
       50
102
RTVSPost2010PropOp46
 70
     0
102
RTVSPost2010Prop47
 90
       50
102
RTVSPost2010PropOp47
 70
     0
102
RTVSPost2010Prop48
 90
       50
102
RTVSPost2010PropOp48
 70
     0
102
RTVSPost2010Prop49
280
     0
102
RTVSPost2010PropOp49
 70
     0
102
RTVSPost2010Prop50
 90
       50
102
RTVSPost2010PropOp50
 70
     0
102
RTVSPost2010Prop51ColorIndex
 90
      256
102
RTVSPost2010Prop51ColorRGB
 90
-16777216
102
RTVSPost2010PropOp51
 70
     0
102
RTVSPost2010Prop52
140
1.0
102
RTVSPost2010PropOp52
 70
     0
102
RTVSPost2010Prop53
 90
        2
102
RTVSPost2010PropOp53
 70
     0
102
RTVSPost2010Prop54
  1
strokes_ogs.tif
102
RTVSPost2010PropOp54
 70
     0
102
RTVSPost2010Prop55
280
     0
102
RTVSPost2010PropOp55
 70
     0
102
RTVSPost2010Prop56
140
1.0
102
RTVSPost2010PropOp56
 70
     0
102
RTVSPost2010Prop57
140
1.0
102
RTVSPost2010PropOp57
 70
     0
  0
XRECORD
  5
228
102
{ACAD_REACTORS
330
227
102
}
330
227
100
AcDbXrecord
280
     1
102
RTVSPropertyOp0
 70
     1
102
RTVSPropertyOp1
 70
     1
102
RTVSPropertyOp2
 70
     1
102
RTVSPropertyOp3
 70
     1
102
RTVSPropertyOp4
 70
     1
102
RTVSPropertyOp5
 70
     1
102
RTVSPropertyOp6
 70
     1
102
RTVSPropertyOp7
 70
     1
102
RTVSPropertyOp8
 70
     1
102
RTVSPropertyOp9
 70
     1
102
RTVSPropertyOp10
 70
     1
102
RTVSPropertyOp11
 70
     1
102
RTVSPropertyOp12
 70
     1
102
RTVSPropertyOp13
 70
     1
102
RTVSPropertyOp14
 70
     1
102
RTVSPropertyOp15
 70
     1
102
RTVSPropertyOp16
 70
     1
102
RTVSPropertyOp17
 70
     1
102
RTVSPropertyOp18
 70
     1
102
RTVSPropertyOp19
 70
     1
102
RTVSPropertyOp20
 70
     1
102
RTVSPropertyOp21
 70
     1
102
RTVSPropertyOp22
 70
     1
102
RTVSPropertyOp23
 70
     1
102
RTVSPropertyOp24
 70
     1
102
RTVSPropertyOp25
 70
     1
102
RTVSPropertyOp26
 70
     1
102
RTVSPropertyOp27
 70
     1
102
RTVSPropertyOp28
 70
     1
102
RTVSPropertyOp29
 70
     1
102
RTVSPropertyOp30
 70
     1
102
RTVSPropertyOp31
 70
     1
102
RTVSPropertyOp32
 70
     1
102
RTVSPropertyOp33
 70
     1
102
RTVSPropertyOp34
 70
     1
102
RTVSPropertyOp35
 70
     1
102
RTVSPropertyOp36
 70
     1
102
RTVSPropertyOp37
 70
     1
102
RTVSPropertyOp38
 70
     1
102
RTVSPropertyOp39
 70
     1
102
RTVSPropertyOp40
 70
     1
102
RTVSPropertyOp41
 70
     1
102
RTVSPropertyOp42
 70
     1
102
RTVSPropertyOp43
 70
     1
102
RTVSPropertyOp44
 70
     1
102
RTVSPropertyOp45
 70
     1
102
RTVSPropertyOp46
 70
     1
102
RTVSPropertyOp47
 70
     1
102
RTVSPropertyOp48
 70
     1
102
RTVSPropertyOp49
 70
     1
102
RTVSPropertyOp50
 70
     1
102
RTVSPropertyOp51
 70
     0
102
RTVSPropertyOp52
 70
     0
102
RTVSPropertyOp53
 70
     1
102
RTVSPropertyOp54
 70
     1
102
RTVSPropertyOp55
 70
     1
102
RTVSPropertyOp56
 70
     1
102
RTVSPropertyOp57
 70
     1
102
RTVSPost2010Prop28
280
     0
102
RTVSPost2010PropOp28
 70
     1
102
RTVSPost2010Prop29
280
     1
102
RTVSPost2010PropOp29
 70
     1
102
RTVSPost2010Prop30
280
     1
102
RTVSPost2010PropOp30
 70
     1
102
RTVSPost2010Prop31
280
     0
102
RTVSPost2010PropOp31
 70
     1
102
RTVSPost2010Prop32
280
     0
102
RTVSPost2010PropOp32
 70
     1
102
RTVSPost2010Prop33
280
     0
102
RTVSPost2010PropOp33
 70
     1
102
RTVSPost2010Prop34
280
     0
102
RTVSPost2010PropOp34
 70
     1
102
RTVSPost2010Prop35
280
     0
102
RTVSPost2010PropOp35
 70
     1
102
RTVSPost2010Prop36
280
     0
102
RTVSPost2010PropOp36
 70
     1
102
RTVSPost2010Prop37
 90
       50
102
RTVSPost2010PropOp37
 70
     1
102
RTVSPost2010Prop38
140
0.0
102
RTVSPost2010PropOp38
 70
     1
102
RTVSPost2010Prop39
140
1.0
102
RTVSPost2010PropOp39
 70
     1
102
RTVSPost2010Prop40
 90
        0
102
RTVSPost2010PropOp40
 70
     1
102
RTVSPost2010Prop41ColorIndex
 90
       18
102
RTVSPost2010Prop41ColorRGB
 90
        0
102
RTVSPost2010PropOp41
 70
     1
102
RTVSPost2010Prop42
 90
       50
102
RTVSPost2010PropOp42
 70
     1
102
RTVSPost2010Prop43
 90
        3
102
RTVSPost2010PropOp43
 70
     1
102
RTVSPost2010Prop44ColorIndex
 90
        5
102
RTVSPost2010Prop44ColorRGB
 90
      255
102
RTVSPost2010PropOp44
 70
     1
102
RTVSPost2010Prop45
280
     0
102
RTVSPost2010PropOp45
 70
     1
102
RTVSPost2010Prop46
 90
       50
102
RTVSPost2010PropOp46
 70
     1
102
RTVSPost2010Prop47
 90
       50
102
RTVSPost2010PropOp47
 70
     1
102
RTVSPost2010Prop48
 90
       50
102
RTVSPost2010PropOp48
 70
     1
102
RTVSPost2010Prop49
280
     0
102
RTVSPost2010PropOp49
 70
     1
102
RTVSPost2010Prop50
 90
       50
102
RTVSPost2010PropOp50
 70
     1
102
RTVSPost2010Prop51ColorIndex
 90
      256
102
RTVSPost2010Prop51ColorRGB
 90
-16777216
102
RTVSPost2010PropOp51
 70
     0
102
RTVSPost2010Prop52
140
1.0
102
RTVSPost2010PropOp52
 70
     0
102
RTVSPost2010Prop53
 90
        2
102
RTVSPost2010PropOp53
 70
     1
102
RTVSPost2010Prop54
  1
strokes_ogs.tif
102
RTVSPost2010PropOp54
 70
     1
102
RTVSPost2010Prop55
280
     0
102
RTVSPost2010PropOp55
 70
     1
102
RTVSPost2010Prop56
140
1.0
102
RTVSPost2010PropOp56
 70
     1
102
RTVSPost2010Prop57
140
1.0
102
RTVSPost2010PropOp57
 70
     1
  0
XRECORD
  5
20C
102
{ACAD_REACTORS
330
20B
102
}
330
20B
100
AcDbXrecord
280
     1
102
RTVSPropertyOp0
 70
     1
102
RTVSPropertyOp1
 70
     1
102
RTVSPropertyOp2
 70
     1
102
RTVSPropertyOp3
 70
     1
102
RTVSPropertyOp4
 70
     1
102
RTVSPropertyOp5
 70
     1
102
RTVSPropertyOp6
 70
     1
102
RTVSPropertyOp7
 70
     1
102
RTVSPropertyOp8
 70
     1
102
RTVSPropertyOp9
 70
     1
102
RTVSPropertyOp10
 70
     1
102
RTVSPropertyOp11
 70
     1
102
RTVSPropertyOp12
 70
     1
102
RTVSPropertyOp13
 70
     1
102
RTVSPropertyOp14
 70
     1
102
RTVSPropertyOp15
 70
     1
102
RTVSPropertyOp16
 70
     1
102
RTVSPropertyOp17
 70
     1
102
RTVSPropertyOp18
 70
     1
102
RTVSPropertyOp19
 70
     1
102
RTVSPropertyOp20
 70
     1
102
RTVSPropertyOp21
 70
     1
102
RTVSPropertyOp22
 70
     1
102
RTVSPropertyOp23
 70
     1
102
RTVSPropertyOp24
 70
     1
102
RTVSPropertyOp25
 70
     1
102
RTVSPropertyOp26
 70
     1
102
RTVSPropertyOp27
 70
     1
102
RTVSPropertyOp28
 70
     1
102
RTVSPropertyOp29
 70
     1
102
RTVSPropertyOp30
 70
     1
102
RTVSPropertyOp31
 70
     1
102
RTVSPropertyOp32
 70
     1
102
RTVSPropertyOp33
 70
     1
102
RTVSPropertyOp34
 70
     1
102
RTVSPropertyOp35
 70
     1
102
RTVSPropertyOp36
 70
     1
102
RTVSPropertyOp37
 70
     1
102
RTVSPropertyOp38
 70
     1
102
RTVSPropertyOp39
 70
     1
102
RTVSPropertyOp40
 70
     1
102
RTVSPropertyOp41
 70
     1
102
RTVSPropertyOp42
 70
     1
102
RTVSPropertyOp43
 70
     1
102
RTVSPropertyOp44
 70
     1
102
RTVSPropertyOp45
 70
     1
102
RTVSPropertyOp46
 70
     1
102
RTVSPropertyOp47
 70
     1
102
RTVSPropertyOp48
 70
     1
102
RTVSPropertyOp49
 70
     1
102
RTVSPropertyOp50
 70
     1
102
RTVSPropertyOp51
 70
     0
102
RTVSPropertyOp52
 70
     0
102
RTVSPropertyOp53
 70
     1
102
RTVSPropertyOp54
 70
     1
102
RTVSPropertyOp55
 70
     1
102
RTVSPropertyOp56
 70
     1
102
RTVSPropertyOp57
 70
     1
102
RTVSPost2010Prop28
280
     0
102
RTVSPost2010PropOp28
 70
     1
102
RTVSPost2010Prop29
280
     1
102
RTVSPost2010PropOp29
 70
     1
102
RTVSPost2010Prop30
280
     1
102
RTVSPost2010PropOp30
 70
     1
102
RTVSPost2010Prop31
280
     0
102
RTVSPost2010PropOp31
 70
     1
102
RTVSPost2010Prop32
280
     0
102
RTVSPost2010PropOp32
 70
     1
102
RTVSPost2010Prop33
280
     0
102
RTVSPost2010PropOp33
 70
     1
102
RTVSPost2010Prop34
280
     0
102
RTVSPost2010PropOp34
 70
     1
102
RTVSPost2010Prop35
280
     0
102
RTVSPost2010PropOp35
 70
     1
102
RTVSPost2010Prop36
280
     0
102
RTVSPost2010PropOp36
 70
     1
102
RTVSPost2010Prop37
 90
       50
102
RTVSPost2010PropOp37
 70
     1
102
RTVSPost2010Prop38
140
0.0
102
RTVSPost2010PropOp38
 70
     1
102
RTVSPost2010Prop39
140
1.0
102
RTVSPost2010PropOp39
 70
     1
102
RTVSPost2010Prop40
 90
        0
102
RTVSPost2010PropOp40
 70
     1
102
RTVSPost2010Prop41ColorIndex
 90
       18
102
RTVSPost2010Prop41ColorRGB
 90
        0
102
RTVSPost2010PropOp41
 70
     1
102
RTVSPost2010Prop42
 90
       50
102
RTVSPost2010PropOp42
 70
     1
102
RTVSPost2010Prop43
 90
        3
102
RTVSPost2010PropOp43
 70
     1
102
RTVSPost2010Prop44ColorIndex
 90
        5
102
RTVSPost2010Prop44ColorRGB
 90
      255
102
RTVSPost2010PropOp44
 70
     1
102
RTVSPost2010Prop45
280
     0
102
RTVSPost2010PropOp45
 70
     1
102
RTVSPost2010Prop46
 90
       50
102
RTVSPost2010PropOp46
 70
     1
102
RTVSPost2010Prop47
 90
       50
102
RTVSPost2010PropOp47
 70
     1
102
RTVSPost2010Prop48
 90
       50
102
RTVSPost2010PropOp48
 70
     1
102
RTVSPost2010Prop49
280
     0
102
RTVSPost2010PropOp49
 70
     1
102
RTVSPost2010Prop50
 90
       50
102
RTVSPost2010PropOp50
 70
     1
102
RTVSPost2010Prop51ColorIndex
 90
      256
102
RTVSPost2010Prop51ColorRGB
 90
-16777216
102
RTVSPost2010PropOp51
 70
     0
102
RTVSPost2010Prop52
140
1.0
102
RTVSPost2010PropOp52
 70
     0
102
RTVSPost2010Prop53
 90
        2
102
RTVSPost2010PropOp53
 70
     1
102
RTVSPost2010Prop54
  1
strokes_ogs.tif
102
RTVSPost2010PropOp54
 70
     1
102
RTVSPost2010Prop55
280
     0
102
RTVSPost2010PropOp55
 70
     1
102
RTVSPost2010Prop56
140
1.0
102
RTVSPost2010PropOp56
 70
     1
102
RTVSPost2010Prop57
140
1.0
102
RTVSPost2010PropOp57
 70
     1
  0
XRECORD
  5
20E
102
{ACAD_REACTORS
330
20D
102
}
330
20D
100
AcDbXrecord
280
     1
102
RTVSPropertyOp0
 70
     1
102
RTVSPropertyOp1
 70
     1
102
RTVSPropertyOp2
 70
     1
102
RTVSPropertyOp3
 70
     1
102
RTVSPropertyOp4
 70
     1
102
RTVSPropertyOp5
 70
     1
102
RTVSPropertyOp6
 70
     1
102
RTVSPropertyOp7
 70
     1
102
RTVSPropertyOp8
 70
     1
102
RTVSPropertyOp9
 70
     1
102
RTVSPropertyOp10
 70
     1
102
RTVSPropertyOp11
 70
     1
102
RTVSPropertyOp12
 70
     1
102
RTVSPropertyOp13
 70
     1
102
RTVSPropertyOp14
 70
     1
102
RTVSPropertyOp15
 70
     1
102
RTVSPropertyOp16
 70
     1
102
RTVSPropertyOp17
 70
     1
102
RTVSPropertyOp18
 70
     1
102
RTVSPropertyOp19
 70
     1
102
RTVSPropertyOp20
 70
     1
102
RTVSPropertyOp21
 70
     1
102
RTVSPropertyOp22
 70
     1
102
RTVSPropertyOp23
 70
     1
102
RTVSPropertyOp24
 70
     1
102
RTVSPropertyOp25
 70
     1
102
RTVSPropertyOp26
 70
     1
102
RTVSPropertyOp27
 70
     1
102
RTVSPropertyOp28
 70
     1
102
RTVSPropertyOp29
 70
     1
102
RTVSPropertyOp30
 70
     1
102
RTVSPropertyOp31
 70
     1
102
RTVSPropertyOp32
 70
     1
102
RTVSPropertyOp33
 70
     1
102
RTVSPropertyOp34
 70
     1
102
RTVSPropertyOp35
 70
     1
102
RTVSPropertyOp36
 70
     1
102
RTVSPropertyOp37
 70
     1
102
RTVSPropertyOp38
 70
     1
102
RTVSPropertyOp39
 70
     1
102
RTVSPropertyOp40
 70
     1
102
RTVSPropertyOp41
 70
     1
102
RTVSPropertyOp42
 70
     1
102
RTVSPropertyOp43
 70
     1
102
RTVSPropertyOp44
 70
     1
102
RTVSPropertyOp45
 70
     1
102
RTVSPropertyOp46
 70
     1
102
RTVSPropertyOp47
 70
     1
102
RTVSPropertyOp48
 70
     1
102
RTVSPropertyOp49
 70
     1
102
RTVSPropertyOp50
 70
     1
102
RTVSPropertyOp51
 70
     0
102
RTVSPropertyOp52
 70
     0
102
RTVSPropertyOp53
 70
     1
102
RTVSPropertyOp54
 70
     1
102
RTVSPropertyOp55
 70
     1
102
RTVSPropertyOp56
 70
     1
102
RTVSPropertyOp57
 70
     1
102
RTVSPost2010Prop28
280
     0
102
RTVSPost2010PropOp28
 70
     1
102
RTVSPost2010Prop29
280
     1
102
RTVSPost2010PropOp29
 70
     1
102
RTVSPost2010Prop30
280
     1
102
RTVSPost2010PropOp30
 70
     1
102
RTVSPost2010Prop31
280
     0
102
RTVSPost2010PropOp31
 70
     1
102
RTVSPost2010Prop32
280
     0
102
RTVSPost2010PropOp32
 70
     1
102
RTVSPost2010Prop33
280
     0
102
RTVSPost2010PropOp33
 70
     1
102
RTVSPost2010Prop34
280
     0
102
RTVSPost2010PropOp34
 70
     1
102
RTVSPost2010Prop35
280
     0
102
RTVSPost2010PropOp35
 70
     1
102
RTVSPost2010Prop36
280
     0
102
RTVSPost2010PropOp36
 70
     1
102
RTVSPost2010Prop37
 90
       50
102
RTVSPost2010PropOp37
 70
     1
102
RTVSPost2010Prop38
140
0.0
102
RTVSPost2010PropOp38
 70
     1
102
RTVSPost2010Prop39
140
1.0
102
RTVSPost2010PropOp39
 70
     1
102
RTVSPost2010Prop40
 90
        0
102
RTVSPost2010PropOp40
 70
     1
102
RTVSPost2010Prop41ColorIndex
 90
       18
102
RTVSPost2010Prop41ColorRGB
 90
        0
102
RTVSPost2010PropOp41
 70
     1
102
RTVSPost2010Prop42
 90
       50
102
RTVSPost2010PropOp42
 70
     1
102
RTVSPost2010Prop43
 90
        3
102
RTVSPost2010PropOp43
 70
     1
102
RTVSPost2010Prop44ColorIndex
 90
        5
102
RTVSPost2010Prop44ColorRGB
 90
      255
102
RTVSPost2010PropOp44
 70
     1
102
RTVSPost2010Prop45
280
     0
102
RTVSPost2010PropOp45
 70
     1
102
RTVSPost2010Prop46
 90
       50
102
RTVSPost2010PropOp46
 70
     1
102
RTVSPost2010Prop47
 90
       50
102
RTVSPost2010PropOp47
 70
     1
102
RTVSPost2010Prop48
 90
       50
102
RTVSPost2010PropOp48
 70
     1
102
RTVSPost2010Prop49
280
     0
102
RTVSPost2010PropOp49
 70
     1
102
RTVSPost2010Prop50
 90
       50
102
RTVSPost2010PropOp50
 70
     1
102
RTVSPost2010Prop51ColorIndex
 90
      256
102
RTVSPost2010Prop51ColorRGB
 90
-16777216
102
RTVSPost2010PropOp51
 70
     0
102
RTVSPost2010Prop52
140
1.0
102
RTVSPost2010PropOp52
 70
     0
102
RTVSPost2010Prop53
 90
        2
102
RTVSPost2010PropOp53
 70
     1
102
RTVSPost2010Prop54
  1
strokes_ogs.tif
102
RTVSPost2010PropOp54
 70
     1
102
RTVSPost2010Prop55
280
     0
102
RTVSPost2010PropOp55
 70
     1
102
RTVSPost2010Prop56
140
1.0
102
RTVSPost2010PropOp56
 70
     1
102
RTVSPost2010Prop57
140
1.0
102
RTVSPost2010PropOp57
 70
     1
  0
XRECORD
  5
210
102
{ACAD_REACTORS
330
20F
102
}
330
20F
100
AcDbXrecord
280
     1
102
RTVSPropertyOp0
 70
     1
102
RTVSPropertyOp1
 70
     1
102
RTVSPropertyOp2
 70
     1
102
RTVSPropertyOp3
 70
     1
102
RTVSPropertyOp4
 70
     1
102
RTVSPropertyOp5
 70
     1
102
RTVSPropertyOp6
 70
     1
102
RTVSPropertyOp7
 70
     1
102
RTVSPropertyOp8
 70
     1
102
RTVSPropertyOp9
 70
     1
102
RTVSPropertyOp10
 70
     1
102
RTVSPropertyOp11
 70
     1
102
RTVSPropertyOp12
 70
     1
102
RTVSPropertyOp13
 70
     1
102
RTVSPropertyOp14
 70
     1
102
RTVSPropertyOp15
 70
     1
102
RTVSPropertyOp16
 70
     1
102
RTVSPropertyOp17
 70
     1
102
RTVSPropertyOp18
 70
     1
102
RTVSPropertyOp19
 70
     1
102
RTVSPropertyOp20
 70
     1
102
RTVSPropertyOp21
 70
     1
102
RTVSPropertyOp22
 70
     1
102
RTVSPropertyOp23
 70
     1
102
RTVSPropertyOp24
 70
     1
102
RTVSPropertyOp25
 70
     1
102
RTVSPropertyOp26
 70
     1
102
RTVSPropertyOp27
 70
     1
102
RTVSPropertyOp28
 70
     1
102
RTVSPropertyOp29
 70
     1
102
RTVSPropertyOp30
 70
     1
102
RTVSPropertyOp31
 70
     1
102
RTVSPropertyOp32
 70
     1
102
RTVSPropertyOp33
 70
     1
102
RTVSPropertyOp34
 70
     1
102
RTVSPropertyOp35
 70
     1
102
RTVSPropertyOp36
 70
     1
102
RTVSPropertyOp37
 70
     1
102
RTVSPropertyOp38
 70
     1
102
RTVSPropertyOp39
 70
     1
102
RTVSPropertyOp40
 70
     1
102
RTVSPropertyOp41
 70
     1
102
RTVSPropertyOp42
 70
     1
102
RTVSPropertyOp43
 70
     1
102
RTVSPropertyOp44
 70
     1
102
RTVSPropertyOp45
 70
     1
102
RTVSPropertyOp46
 70
     1
102
RTVSPropertyOp47
 70
     1
102
RTVSPropertyOp48
 70
     1
102
RTVSPropertyOp49
 70
     1
102
RTVSPropertyOp50
 70
     1
102
RTVSPropertyOp51
 70
     0
102
RTVSPropertyOp52
 70
     0
102
RTVSPropertyOp53
 70
     1
102
RTVSPropertyOp54
 70
     1
102
RTVSPropertyOp55
 70
     1
102
RTVSPropertyOp56
 70
     1
102
RTVSPropertyOp57
 70
     1
102
RTVSPost2010Prop28
280
     0
102
RTVSPost2010PropOp28
 70
     1
102
RTVSPost2010Prop29
280
     1
102
RTVSPost2010PropOp29
 70
     1
102
RTVSPost2010Prop30
280
     1
102
RTVSPost2010PropOp30
 70
     1
102
RTVSPost2010Prop31
280
     0
102
RTVSPost2010PropOp31
 70
     1
102
RTVSPost2010Prop32
280
     0
102
RTVSPost2010PropOp32
 70
     1
102
RTVSPost2010Prop33
280
     0
102
RTVSPost2010PropOp33
 70
     1
102
RTVSPost2010Prop34
280
     0
102
RTVSPost2010PropOp34
 70
     1
102
RTVSPost2010Prop35
280
     0
102
RTVSPost2010PropOp35
 70
     1
102
RTVSPost2010Prop36
280
     0
102
RTVSPost2010PropOp36
 70
     1
102
RTVSPost2010Prop37
 90
       50
102
RTVSPost2010PropOp37
 70
     1
102
RTVSPost2010Prop38
140
0.0
102
RTVSPost2010PropOp38
 70
     1
102
RTVSPost2010Prop39
140
1.0
102
RTVSPost2010PropOp39
 70
     1
102
RTVSPost2010Prop40
 90
        0
102
RTVSPost2010PropOp40
 70
     1
102
RTVSPost2010Prop41ColorIndex
 90
       18
102
RTVSPost2010Prop41ColorRGB
 90
        0
102
RTVSPost2010PropOp41
 70
     1
102
RTVSPost2010Prop42
 90
       50
102
RTVSPost2010PropOp42
 70
     1
102
RTVSPost2010Prop43
 90
        3
102
RTVSPost2010PropOp43
 70
     1
102
RTVSPost2010Prop44ColorIndex
 90
        5
102
RTVSPost2010Prop44ColorRGB
 90
      255
102
RTVSPost2010PropOp44
 70
     1
102
RTVSPost2010Prop45
280
     0
102
RTVSPost2010PropOp45
 70
     1
102
RTVSPost2010Prop46
 90
       50
102
RTVSPost2010PropOp46
 70
     1
102
RTVSPost2010Prop47
 90
       50
102
RTVSPost2010PropOp47
 70
     1
102
RTVSPost2010Prop48
 90
       50
102
RTVSPost2010PropOp48
 70
     1
102
RTVSPost2010Prop49
280
     0
102
RTVSPost2010PropOp49
 70
     1
102
RTVSPost2010Prop50
 90
       50
102
RTVSPost2010PropOp50
 70
     1
102
RTVSPost2010Prop51ColorIndex
 90
      256
102
RTVSPost2010Prop51ColorRGB
 90
-16777216
102
RTVSPost2010PropOp51
 70
     0
102
RTVSPost2010Prop52
140
1.0
102
RTVSPost2010PropOp52
 70
     0
102
RTVSPost2010Prop53
 90
        2
102
RTVSPost2010PropOp53
 70
     1
102
RTVSPost2010Prop54
  1
strokes_ogs.tif
102
RTVSPost2010PropOp54
 70
     1
102
RTVSPost2010Prop55
280
     0
102
RTVSPost2010PropOp55
 70
     1
102
RTVSPost2010Prop56
140
1.0
102
RTVSPost2010PropOp56
 70
     1
102
RTVSPost2010Prop57
140
1.0
102
RTVSPost2010PropOp57
 70
     1
  0
XRECORD
  5
212
102
{ACAD_REACTORS
330
211
102
}
330
211
100
AcDbXrecord
280
     1
102
RTVSPropertyOp0
 70
     1
102
RTVSPropertyOp1
 70
     1
102
RTVSPropertyOp2
 70
     1
102
RTVSPropertyOp3
 70
     1
102
RTVSPropertyOp4
 70
     1
102
RTVSPropertyOp5
 70
     1
102
RTVSPropertyOp6
 70
     1
102
RTVSPropertyOp7
 70
     1
102
RTVSPropertyOp8
 70
     1
102
RTVSPropertyOp9
 70
     1
102
RTVSPropertyOp10
 70
     1
102
RTVSPropertyOp11
 70
     1
102
RTVSPropertyOp12
 70
     1
102
RTVSPropertyOp13
 70
     1
102
RTVSPropertyOp14
 70
     1
102
RTVSPropertyOp15
 70
     1
102
RTVSPropertyOp16
 70
     1
102
RTVSPropertyOp17
 70
     1
102
RTVSPropertyOp18
 70
     1
102
RTVSPropertyOp19
 70
     1
102
RTVSPropertyOp20
 70
     1
102
RTVSPropertyOp21
 70
     1
102
RTVSPropertyOp22
 70
     1
102
RTVSPropertyOp23
 70
     1
102
RTVSPropertyOp24
 70
     1
102
RTVSPropertyOp25
 70
     1
102
RTVSPropertyOp26
 70
     1
102
RTVSPropertyOp27
 70
     1
102
RTVSPropertyOp28
 70
     1
102
RTVSPropertyOp29
 70
     1
102
RTVSPropertyOp30
 70
     1
102
RTVSPropertyOp31
 70
     1
102
RTVSPropertyOp32
 70
     1
102
RTVSPropertyOp33
 70
     1
102
RTVSPropertyOp34
 70
     1
102
RTVSPropertyOp35
 70
     1
102
RTVSPropertyOp36
 70
     1
102
RTVSPropertyOp37
 70
     1
102
RTVSPropertyOp38
 70
     1
102
RTVSPropertyOp39
 70
     1
102
RTVSPropertyOp40
 70
     1
102
RTVSPropertyOp41
 70
     1
102
RTVSPropertyOp42
 70
     1
102
RTVSPropertyOp43
 70
     1
102
RTVSPropertyOp44
 70
     1
102
RTVSPropertyOp45
 70
     1
102
RTVSPropertyOp46
 70
     1
102
RTVSPropertyOp47
 70
     1
102
RTVSPropertyOp48
 70
     1
102
RTVSPropertyOp49
 70
     1
102
RTVSPropertyOp50
 70
     1
102
RTVSPropertyOp51
 70
     0
102
RTVSPropertyOp52
 70
     0
102
RTVSPropertyOp53
 70
     1
102
RTVSPropertyOp54
 70
     1
102
RTVSPropertyOp55
 70
     1
102
RTVSPropertyOp56
 70
     1
102
RTVSPropertyOp57
 70
     1
102
RTVSPost2010Prop28
280
     0
102
RTVSPost2010PropOp28
 70
     1
102
RTVSPost2010Prop29
280
     1
102
RTVSPost2010PropOp29
 70
     1
102
RTVSPost2010Prop30
280
     1
102
RTVSPost2010PropOp30
 70
     1
102
RTVSPost2010Prop31
280
     0
102
RTVSPost2010PropOp31
 70
     1
102
RTVSPost2010Prop32
280
     0
102
RTVSPost2010PropOp32
 70
     1
102
RTVSPost2010Prop33
280
     0
102
RTVSPost2010PropOp33
 70
     1
102
RTVSPost2010Prop34
280
     0
102
RTVSPost2010PropOp34
 70
     1
102
RTVSPost2010Prop35
280
     0
102
RTVSPost2010PropOp35
 70
     1
102
RTVSPost2010Prop36
280
     0
102
RTVSPost2010PropOp36
 70
     1
102
RTVSPost2010Prop37
 90
       50
102
RTVSPost2010PropOp37
 70
     1
102
RTVSPost2010Prop38
140
0.0
102
RTVSPost2010PropOp38
 70
     1
102
RTVSPost2010Prop39
140
1.0
102
RTVSPost2010PropOp39
 70
     1
102
RTVSPost2010Prop40
 90
        0
102
RTVSPost2010PropOp40
 70
     1
102
RTVSPost2010Prop41ColorIndex
 90
       18
102
RTVSPost2010Prop41ColorRGB
 90
        0
102
RTVSPost2010PropOp41
 70
     1
102
RTVSPost2010Prop42
 90
       50
102
RTVSPost2010PropOp42
 70
     1
102
RTVSPost2010Prop43
 90
        3
102
RTVSPost2010PropOp43
 70
     1
102
RTVSPost2010Prop44ColorIndex
 90
        5
102
RTVSPost2010Prop44ColorRGB
 90
      255
102
RTVSPost2010PropOp44
 70
     1
102
RTVSPost2010Prop45
280
     0
102
RTVSPost2010PropOp45
 70
     1
102
RTVSPost2010Prop46
 90
       50
102
RTVSPost2010PropOp46
 70
     1
102
RTVSPost2010Prop47
 90
       50
102
RTVSPost2010PropOp47
 70
     1
102
RTVSPost2010Prop48
 90
       50
102
RTVSPost2010PropOp48
 70
     1
102
RTVSPost2010Prop49
280
     0
102
RTVSPost2010PropOp49
 70
     1
102
RTVSPost2010Prop50
 90
       50
102
RTVSPost2010PropOp50
 70
     1
102
RTVSPost2010Prop51ColorIndex
 90
      256
102
RTVSPost2010Prop51ColorRGB
 90
-16777216
102
RTVSPost2010PropOp51
 70
     0
102
RTVSPost2010Prop52
140
1.0
102
RTVSPost2010PropOp52
 70
     0
102
RTVSPost2010Prop53
 90
        2
102
RTVSPost2010PropOp53
 70
     1
102
RTVSPost2010Prop54
  1
strokes_ogs.tif
102
RTVSPost2010PropOp54
 70
     1
102
RTVSPost2010Prop55
280
     0
102
RTVSPost2010PropOp55
 70
     1
102
RTVSPost2010Prop56
140
1.0
102
RTVSPost2010PropOp56
 70
     1
102
RTVSPost2010Prop57
140
1.0
102
RTVSPost2010PropOp57
 70
     1
  0
XRECORD
  5
218
102
{ACAD_REACTORS
330
217
102
}
330
217
100
AcDbXrecord
280
     1
102
RTVSPropertyOp0
 70
     1
102
RTVSPropertyOp1
 70
     1
102
RTVSPropertyOp2
 70
     1
102
RTVSPropertyOp3
 70
     1
102
RTVSPropertyOp4
 70
     1
102
RTVSPropertyOp5
 70
     1
102
RTVSPropertyOp6
 70
     1
102
RTVSPropertyOp7
 70
     1
102
RTVSPropertyOp8
 70
     1
102
RTVSPropertyOp9
 70
     1
102
RTVSPropertyOp10
 70
     1
102
RTVSPropertyOp11
 70
     1
102
RTVSPropertyOp12
 70
     1
102
RTVSPropertyOp13
 70
     1
102
RTVSPropertyOp14
 70
     1
102
RTVSPropertyOp15
 70
     1
102
RTVSPropertyOp16
 70
     1
102
RTVSPropertyOp17
 70
     1
102
RTVSPropertyOp18
 70
     1
102
RTVSPropertyOp19
 70
     1
102
RTVSPropertyOp20
 70
     1
102
RTVSPropertyOp21
 70
     1
102
RTVSPropertyOp22
 70
     1
102
RTVSPropertyOp23
 70
     1
102
RTVSPropertyOp24
 70
     1
102
RTVSPropertyOp25
 70
     1
102
RTVSPropertyOp26
 70
     1
102
RTVSPropertyOp27
 70
     1
102
RTVSPropertyOp28
 70
     1
102
RTVSPropertyOp29
 70
     1
102
RTVSPropertyOp30
 70
     1
102
RTVSPropertyOp31
 70
     1
102
RTVSPropertyOp32
 70
     1
102
RTVSPropertyOp33
 70
     1
102
RTVSPropertyOp34
 70
     1
102
RTVSPropertyOp35
 70
     1
102
RTVSPropertyOp36
 70
     1
102
RTVSPropertyOp37
 70
     1
102
RTVSPropertyOp38
 70
     1
102
RTVSPropertyOp39
 70
     1
102
RTVSPropertyOp40
 70
     1
102
RTVSPropertyOp41
 70
     1
102
RTVSPropertyOp42
 70
     1
102
RTVSPropertyOp43
 70
     1
102
RTVSPropertyOp44
 70
     1
102
RTVSPropertyOp45
 70
     1
102
RTVSPropertyOp46
 70
     1
102
RTVSPropertyOp47
 70
     1
102
RTVSPropertyOp48
 70
     1
102
RTVSPropertyOp49
 70
     1
102
RTVSPropertyOp50
 70
     1
102
RTVSPropertyOp51
 70
     0
102
RTVSPropertyOp52
 70
     0
102
RTVSPropertyOp53
 70
     1
102
RTVSPropertyOp54
 70
     1
102
RTVSPropertyOp55
 70
     1
102
RTVSPropertyOp56
 70
     1
102
RTVSPropertyOp57
 70
     1
102
RTVSPost2010Prop28
280
     0
102
RTVSPost2010PropOp28
 70
     1
102
RTVSPost2010Prop29
280
     1
102
RTVSPost2010PropOp29
 70
     1
102
RTVSPost2010Prop30
280
     1
102
RTVSPost2010PropOp30
 70
     1
102
RTVSPost2010Prop31
280
     0
102
RTVSPost2010PropOp31
 70
     1
102
RTVSPost2010Prop32
280
     0
102
RTVSPost2010PropOp32
 70
     1
102
RTVSPost2010Prop33
280
     0
102
RTVSPost2010PropOp33
 70
     1
102
RTVSPost2010Prop34
280
     0
102
RTVSPost2010PropOp34
 70
     1
102
RTVSPost2010Prop35
280
     0
102
RTVSPost2010PropOp35
 70
     1
102
RTVSPost2010Prop36
280
     0
102
RTVSPost2010PropOp36
 70
     1
102
RTVSPost2010Prop37
 90
       50
102
RTVSPost2010PropOp37
 70
     1
102
RTVSPost2010Prop38
140
0.0
102
RTVSPost2010PropOp38
 70
     1
102
RTVSPost2010Prop39
140
1.0
102
RTVSPost2010PropOp39
 70
     1
102
RTVSPost2010Prop40
 90
        0
102
RTVSPost2010PropOp40
 70
     1
102
RTVSPost2010Prop41ColorIndex
 90
       18
102
RTVSPost2010Prop41ColorRGB
 90
        0
102
RTVSPost2010PropOp41
 70
     1
102
RTVSPost2010Prop42
 90
       50
102
RTVSPost2010PropOp42
 70
     1
102
RTVSPost2010Prop43
 90
        3
102
RTVSPost2010PropOp43
 70
     1
102
RTVSPost2010Prop44ColorIndex
 90
        5
102
RTVSPost2010Prop44ColorRGB
 90
      255
102
RTVSPost2010PropOp44
 70
     1
102
RTVSPost2010Prop45
280
     0
102
RTVSPost2010PropOp45
 70
     1
102
RTVSPost2010Prop46
 90
       50
102
RTVSPost2010PropOp46
 70
     1
102
RTVSPost2010Prop47
 90
       50
102
RTVSPost2010PropOp47
 70
     1
102
RTVSPost2010Prop48
 90
       50
102
RTVSPost2010PropOp48
 70
     1
102
RTVSPost2010Prop49
280
     0
102
RTVSPost2010PropOp49
 70
     1
102
RTVSPost2010Prop50
 90
       50
102
RTVSPost2010PropOp50
 70
     1
102
RTVSPost2010Prop51ColorIndex
 90
      256
102
RTVSPost2010Prop51ColorRGB
 90
-16777216
102
RTVSPost2010PropOp51
 70
     0
102
RTVSPost2010Prop52
140
1.0
102
RTVSPost2010PropOp52
 70
     0
102
RTVSPost2010Prop53
 90
        2
102
RTVSPost2010PropOp53
 70
     1
102
RTVSPost2010Prop54
  1
strokes_ogs.tif
102
RTVSPost2010PropOp54
 70
     1
102
RTVSPost2010Prop55
280
     0
102
RTVSPost2010PropOp55
 70
     1
102
RTVSPost2010Prop56
140
1.0
102
RTVSPost2010PropOp56
 70
     1
102
RTVSPost2010Prop57
140
1.0
102
RTVSPost2010PropOp57
 70
     1
  0
XRECORD
  5
22C
102
{ACAD_REACTORS
330
22B
102
}
330
22B
100
AcDbXrecord
280
     1
102
RTVSPropertyOp0
 70
     0
102
RTVSPropertyOp1
 70
     0
102
RTVSPropertyOp2
 70
     0
102
RTVSPropertyOp3
 70
     0
102
RTVSPropertyOp4
 70
     0
102
RTVSPropertyOp5
 70
     0
102
RTVSPropertyOp6
 70
     0
102
RTVSPropertyOp7
 70
     0
102
RTVSPropertyOp8
 70
     0
102
RTVSPropertyOp9
 70
     0
102
RTVSPropertyOp10
 70
     0
102
RTVSPropertyOp11
 70
     0
102
RTVSPropertyOp12
 70
     0
102
RTVSPropertyOp13
 70
     0
102
RTVSPropertyOp14
 70
     2
102
RTVSPropertyOp15
 70
     0
102
RTVSPropertyOp16
 70
     0
102
RTVSPropertyOp17
 70
     0
102
RTVSPropertyOp18
 70
     0
102
RTVSPropertyOp19
 70
     0
102
RTVSPropertyOp20
 70
     0
102
RTVSPropertyOp21
 70
     0
102
RTVSPropertyOp22
 70
     0
102
RTVSPropertyOp23
 70
     0
102
RTVSPropertyOp24
 70
     0
102
RTVSPropertyOp25
 70
     0
102
RTVSPropertyOp26
 70
     0
102
RTVSPropertyOp27
 70
     0
102
RTVSPropertyOp28
 70
     0
102
RTVSPropertyOp29
 70
     0
102
RTVSPropertyOp30
 70
     0
102
RTVSPropertyOp31
 70
     0
102
RTVSPropertyOp32
 70
     0
102
RTVSPropertyOp33
 70
     0
102
RTVSPropertyOp34
 70
     0
102
RTVSPropertyOp35
 70
     0
102
RTVSPropertyOp36
 70
     0
102
RTVSPropertyOp37
 70
     0
102
RTVSPropertyOp38
 70
     0
102
RTVSPropertyOp39
 70
     0
102
RTVSPropertyOp40
 70
     0
102
RTVSPropertyOp41
 70
     0
102
RTVSPropertyOp42
 70
     0
102
RTVSPropertyOp43
 70
     0
102
RTVSPropertyOp44
 70
     0
102
RTVSPropertyOp45
 70
     0
102
RTVSPropertyOp46
 70
     0
102
RTVSPropertyOp47
 70
     0
102
RTVSPropertyOp48
 70
     0
102
RTVSPropertyOp49
 70
     0
102
RTVSPropertyOp50
 70
     0
102
RTVSPropertyOp51
 70
     0
102
RTVSPropertyOp52
 70
     0
102
RTVSPropertyOp53
 70
     0
102
RTVSPropertyOp54
 70
     0
102
RTVSPropertyOp55
 70
     0
102
RTVSPropertyOp56
 70
     0
102
RTVSPropertyOp57
 70
     0
102
RTVSPost2010Prop28
280
     0
102
RTVSPost2010PropOp28
 70
     0
102
RTVSPost2010Prop29
280
     1
102
RTVSPost2010PropOp29
 70
     0
102
RTVSPost2010Prop30
280
     1
102
RTVSPost2010PropOp30
 70
     0
102
RTVSPost2010Prop31
280
     0
102
RTVSPost2010PropOp31
 70
     0
102
RTVSPost2010Prop32
280
     0
102
RTVSPost2010PropOp32
 70
     0
102
RTVSPost2010Prop33
280
     0
102
RTVSPost2010PropOp33
 70
     0
102
RTVSPost2010Prop34
280
     0
102
RTVSPost2010PropOp34
 70
     0
102
RTVSPost2010Prop35
280
     0
102
RTVSPost2010PropOp35
 70
     0
102
RTVSPost2010Prop36
280
     0
102
RTVSPost2010PropOp36
 70
     0
102
RTVSPost2010Prop37
 90
       50
102
RTVSPost2010PropOp37
 70
     0
102
RTVSPost2010Prop38
140
0.0
102
RTVSPost2010PropOp38
 70
     0
102
RTVSPost2010Prop39
140
1.0
102
RTVSPost2010PropOp39
 70
     0
102
RTVSPost2010Prop40
 90
        0
102
RTVSPost2010PropOp40
 70
     0
102
RTVSPost2010Prop41ColorIndex
 90
       18
102
RTVSPost2010Prop41ColorRGB
 90
        0
102
RTVSPost2010PropOp41
 70
     0
102
RTVSPost2010Prop42
 90
       50
102
RTVSPost2010PropOp42
 70
     0
102
RTVSPost2010Prop43
 90
        3
102
RTVSPost2010PropOp43
 70
     0
102
RTVSPost2010Prop44ColorIndex
 90
        5
102
RTVSPost2010Prop44ColorRGB
 90
      255
102
RTVSPost2010PropOp44
 70
     0
102
RTVSPost2010Prop45
280
     0
102
RTVSPost2010PropOp45
 70
     0
102
RTVSPost2010Prop46
 90
       50
102
RTVSPost2010PropOp46
 70
     0
102
RTVSPost2010Prop47
 90
       50
102
RTVSPost2010PropOp47
 70
     0
102
RTVSPost2010Prop48
 90
       50
102
RTVSPost2010PropOp48
 70
     0
102
RTVSPost2010Prop49
280
     0
102
RTVSPost2010PropOp49
 70
     0
102
RTVSPost2010Prop50
 90
       50
102
RTVSPost2010PropOp50
 70
     0
102
RTVSPost2010Prop51ColorIndex
 90
      256
102
RTVSPost2010Prop51ColorRGB
 90
-16777216
102
RTVSPost2010PropOp51
 70
     0
102
RTVSPost2010Prop52
140
1.0
102
RTVSPost2010PropOp52
 70
     0
102
RTVSPost2010Prop53
 90
        2
102
RTVSPost2010PropOp53
 70
     0
102
RTVSPost2010Prop54
  1
strokes_ogs.tif
102
RTVSPost2010PropOp54
 70
     0
102
RTVSPost2010Prop55
280
     0
102
RTVSPost2010PropOp55
 70
     0
102
RTVSPost2010Prop56
140
1.0
102
RTVSPost2010PropOp56
 70
     0
102
RTVSPost2010Prop57
140
1.0
102
RTVSPost2010PropOp57
 70
     0
  0
XRECORD
  5
226
102
{ACAD_REACTORS
330
225
102
}
330
225
100
AcDbXrecord
280
     1
102
RTVSPropertyOp0
 70
     1
102
RTVSPropertyOp1
 70
     1
102
RTVSPropertyOp2
 70
     1
102
RTVSPropertyOp3
 70
     1
102
RTVSPropertyOp4
 70
     1
102
RTVSPropertyOp5
 70
     1
102
RTVSPropertyOp6
 70
     1
102
RTVSPropertyOp7
 70
     1
102
RTVSPropertyOp8
 70
     1
102
RTVSPropertyOp9
 70
     1
102
RTVSPropertyOp10
 70
     1
102
RTVSPropertyOp11
 70
     1
102
RTVSPropertyOp12
 70
     1
102
RTVSPropertyOp13
 70
     1
102
RTVSPropertyOp14
 70
     1
102
RTVSPropertyOp15
 70
     1
102
RTVSPropertyOp16
 70
     1
102
RTVSPropertyOp17
 70
     1
102
RTVSPropertyOp18
 70
     1
102
RTVSPropertyOp19
 70
     1
102
RTVSPropertyOp20
 70
     1
102
RTVSPropertyOp21
 70
     1
102
RTVSPropertyOp22
 70
     1
102
RTVSPropertyOp23
 70
     1
102
RTVSPropertyOp24
 70
     1
102
RTVSPropertyOp25
 70
     1
102
RTVSPropertyOp26
 70
     1
102
RTVSPropertyOp27
 70
     1
102
RTVSPropertyOp28
 70
     1
102
RTVSPropertyOp29
 70
     1
102
RTVSPropertyOp30
 70
     1
102
RTVSPropertyOp31
 70
     1
102
RTVSPropertyOp32
 70
     1
102
RTVSPropertyOp33
 70
     1
102
RTVSPropertyOp34
 70
     1
102
RTVSPropertyOp35
 70
     1
102
RTVSPropertyOp36
 70
     1
102
RTVSPropertyOp37
 70
     1
102
RTVSPropertyOp38
 70
     1
102
RTVSPropertyOp39
 70
     1
102
RTVSPropertyOp40
 70
     1
102
RTVSPropertyOp41
 70
     1
102
RTVSPropertyOp42
 70
     1
102
RTVSPropertyOp43
 70
     1
102
RTVSPropertyOp44
 70
     1
102
RTVSPropertyOp45
 70
     1
102
RTVSPropertyOp46
 70
     1
102
RTVSPropertyOp47
 70
     1
102
RTVSPropertyOp48
 70
     1
102
RTVSPropertyOp49
 70
     1
102
RTVSPropertyOp50
 70
     1
102
RTVSPropertyOp51
 70
     0
102
RTVSPropertyOp52
 70
     0
102
RTVSPropertyOp53
 70
     1
102
RTVSPropertyOp54
 70
     1
102
RTVSPropertyOp55
 70
     1
102
RTVSPropertyOp56
 70
     1
102
RTVSPropertyOp57
 70
     1
102
RTVSPost2010Prop28
280
     0
102
RTVSPost2010PropOp28
 70
     1
102
RTVSPost2010Prop29
280
     1
102
RTVSPost2010PropOp29
 70
     1
102
RTVSPost2010Prop30
280
     1
102
RTVSPost2010PropOp30
 70
     1
102
RTVSPost2010Prop31
280
     0
102
RTVSPost2010PropOp31
 70
     1
102
RTVSPost2010Prop32
280
     0
102
RTVSPost2010PropOp32
 70
     1
102
RTVSPost2010Prop33
280
     0
102
RTVSPost2010PropOp33
 70
     1
102
RTVSPost2010Prop34
280
     0
102
RTVSPost2010PropOp34
 70
     1
102
RTVSPost2010Prop35
280
     0
102
RTVSPost2010PropOp35
 70
     1
102
RTVSPost2010Prop36
280
     0
102
RTVSPost2010PropOp36
 70
     1
102
RTVSPost2010Prop37
 90
       50
102
RTVSPost2010PropOp37
 70
     1
102
RTVSPost2010Prop38
140
0.0
102
RTVSPost2010PropOp38
 70
     1
102
RTVSPost2010Prop39
140
1.0
102
RTVSPost2010PropOp39
 70
     1
102
RTVSPost2010Prop40
 90
        0
102
RTVSPost2010PropOp40
 70
     1
102
RTVSPost2010Prop41ColorIndex
 90
       18
102
RTVSPost2010Prop41ColorRGB
 90
        0
102
RTVSPost2010PropOp41
 70
     1
102
RTVSPost2010Prop42
 90
       50
102
RTVSPost2010PropOp42
 70
     1
102
RTVSPost2010Prop43
 90
        3
102
RTVSPost2010PropOp43
 70
     1
102
RTVSPost2010Prop44ColorIndex
 90
        5
102
RTVSPost2010Prop44ColorRGB
 90
      255
102
RTVSPost2010PropOp44
 70
     1
102
RTVSPost2010Prop45
280
     0
102
RTVSPost2010PropOp45
 70
     1
102
RTVSPost2010Prop46
 90
       50
102
RTVSPost2010PropOp46
 70
     1
102
RTVSPost2010Prop47
 90
       50
102
RTVSPost2010PropOp47
 70
     1
102
RTVSPost2010Prop48
 90
       50
102
RTVSPost2010PropOp48
 70
     1
102
RTVSPost2010Prop49
280
     0
102
RTVSPost2010PropOp49
 70
     1
102
RTVSPost2010Prop50
 90
       50
102
RTVSPost2010PropOp50
 70
     1
102
RTVSPost2010Prop51ColorIndex
 90
      256
102
RTVSPost2010Prop51ColorRGB
 90
-16777216
102
RTVSPost2010PropOp51
 70
     0
102
RTVSPost2010Prop52
140
1.0
102
RTVSPost2010PropOp52
 70
     0
102
RTVSPost2010Prop53
 90
        2
102
RTVSPost2010PropOp53
 70
     1
102
RTVSPost2010Prop54
  1
strokes_ogs.tif
102
RTVSPost2010PropOp54
 70
     1
102
RTVSPost2010Prop55
280
     0
102
RTVSPost2010PropOp55
 70
     1
102
RTVSPost2010Prop56
140
1.0
102
RTVSPost2010PropOp56
 70
     1
102
RTVSPost2010Prop57
140
1.0
102
RTVSPost2010PropOp57
 70
     1
  0
XRECORD
  5
22E
102
{ACAD_REACTORS
330
22D
102
}
330
22D
100
AcDbXrecord
280
     1
102
RTVSPropertyOp0
 70
     0
102
RTVSPropertyOp1
 70
     0
102
RTVSPropertyOp2
 70
     0
102
RTVSPropertyOp3
 70
     0
102
RTVSPropertyOp4
 70
     0
102
RTVSPropertyOp5
 70
     0
102
RTVSPropertyOp6
 70
     0
102
RTVSPropertyOp7
 70
     0
102
RTVSPropertyOp8
 70
     0
102
RTVSPropertyOp9
 70
     0
102
RTVSPropertyOp10
 70
     0
102
RTVSPropertyOp11
 70
     0
102
RTVSPropertyOp12
 70
     0
102
RTVSPropertyOp13
 70
     0
102
RTVSPropertyOp14
 70
     2
102
RTVSPropertyOp15
 70
     0
102
RTVSPropertyOp16
 70
     0
102
RTVSPropertyOp17
 70
     0
102
RTVSPropertyOp18
 70
     0
102
RTVSPropertyOp19
 70
     0
102
RTVSPropertyOp20
 70
     0
102
RTVSPropertyOp21
 70
     0
102
RTVSPropertyOp22
 70
     0
102
RTVSPropertyOp23
 70
     0
102
RTVSPropertyOp24
 70
     0
102
RTVSPropertyOp25
 70
     0
102
RTVSPropertyOp26
 70
     0
102
RTVSPropertyOp27
 70
     0
102
RTVSPropertyOp28
 70
     0
102
RTVSPropertyOp29
 70
     0
102
RTVSPropertyOp30
 70
     0
102
RTVSPropertyOp31
 70
     0
102
RTVSPropertyOp32
 70
     0
102
RTVSPropertyOp33
 70
     0
102
RTVSPropertyOp34
 70
     0
102
RTVSPropertyOp35
 70
     0
102
RTVSPropertyOp36
 70
     0
102
RTVSPropertyOp37
 70
     0
102
RTVSPropertyOp38
 70
     0
102
RTVSPropertyOp39
 70
     0
102
RTVSPropertyOp40
 70
     0
102
RTVSPropertyOp41
 70
     0
102
RTVSPropertyOp42
 70
     0
102
RTVSPropertyOp43
 70
     0
102
RTVSPropertyOp44
 70
     0
102
RTVSPropertyOp45
 70
     0
102
RTVSPropertyOp46
 70
     0
102
RTVSPropertyOp47
 70
     0
102
RTVSPropertyOp48
 70
     0
102
RTVSPropertyOp49
 70
     0
102
RTVSPropertyOp50
 70
     0
102
RTVSPropertyOp51
 70
     0
102
RTVSPropertyOp52
 70
     0
102
RTVSPropertyOp53
 70
     0
102
RTVSPropertyOp54
 70
     0
102
RTVSPropertyOp55
 70
     0
102
RTVSPropertyOp56
 70
     0
102
RTVSPropertyOp57
 70
     0
102
RTVSPost2010Prop28
280
     0
102
RTVSPost2010PropOp28
 70
     0
102
RTVSPost2010Prop29
280
     1
102
RTVSPost2010PropOp29
 70
     0
102
RTVSPost2010Prop30
280
     1
102
RTVSPost2010PropOp30
 70
     0
102
RTVSPost2010Prop31
280
     0
102
RTVSPost2010PropOp31
 70
     0
102
RTVSPost2010Prop32
280
     0
102
RTVSPost2010PropOp32
 70
     0
102
RTVSPost2010Prop33
280
     0
102
RTVSPost2010PropOp33
 70
     0
102
RTVSPost2010Prop34
280
     0
102
RTVSPost2010PropOp34
 70
     0
102
RTVSPost2010Prop35
280
     0
102
RTVSPost2010PropOp35
 70
     0
102
RTVSPost2010Prop36
280
     0
102
RTVSPost2010PropOp36
 70
     0
102
RTVSPost2010Prop37
 90
       50
102
RTVSPost2010PropOp37
 70
     0
102
RTVSPost2010Prop38
140
0.0
102
RTVSPost2010PropOp38
 70
     0
102
RTVSPost2010Prop39
140
1.0
102
RTVSPost2010PropOp39
 70
     0
102
RTVSPost2010Prop40
 90
        0
102
RTVSPost2010PropOp40
 70
     0
102
RTVSPost2010Prop41ColorIndex
 90
       18
102
RTVSPost2010Prop41ColorRGB
 90
        0
102
RTVSPost2010PropOp41
 70
     0
102
RTVSPost2010Prop42
 90
       50
102
RTVSPost2010PropOp42
 70
     0
102
RTVSPost2010Prop43
 90
        3
102
RTVSPost2010PropOp43
 70
     0
102
RTVSPost2010Prop44ColorIndex
 90
        5
102
RTVSPost2010Prop44ColorRGB
 90
      255
102
RTVSPost2010PropOp44
 70
     0
102
RTVSPost2010Prop45
280
     0
102
RTVSPost2010PropOp45
 70
     0
102
RTVSPost2010Prop46
 90
       50
102
RTVSPost2010PropOp46
 70
     0
102
RTVSPost2010Prop47
 90
       50
102
RTVSPost2010PropOp47
 70
     0
102
RTVSPost2010Prop48
 90
       50
102
RTVSPost2010PropOp48
 70
     0
102
RTVSPost2010Prop49
280
     0
102
RTVSPost2010PropOp49
 70
     0
102
RTVSPost2010Prop50
 90
       50
102
RTVSPost2010PropOp50
 70
     0
102
RTVSPost2010Prop51ColorIndex
 90
      256
102
RTVSPost2010Prop51ColorRGB
 90
-16777216
102
RTVSPost2010PropOp51
 70
     0
102
RTVSPost2010Prop52
140
1.0
102
RTVSPost2010PropOp52
 70
     0
102
RTVSPost2010Prop53
 90
        2
102
RTVSPost2010PropOp53
 70
     0
102
RTVSPost2010Prop54
  1
strokes_ogs.tif
102
RTVSPost2010PropOp54
 70
     0
102
RTVSPost2010Prop55
280
     0
102
RTVSPost2010PropOp55
 70
     0
102
RTVSPost2010Prop56
140
1.0
102
RTVSPost2010PropOp56
 70
     0
102
RTVSPost2010Prop57
140
1.0
102
RTVSPost2010PropOp57
 70
     0
  0
XRECORD
  5
21C
102
{ACAD_REACTORS
330
21B
102
}
330
21B
100
AcDbXrecord
280
     1
102
RTVSPropertyOp0
 70
     1
102
RTVSPropertyOp1
 70
     1
102
RTVSPropertyOp2
 70
     1
102
RTVSPropertyOp3
 70
     1
102
RTVSPropertyOp4
 70
     1
102
RTVSPropertyOp5
 70
     1
102
RTVSPropertyOp6
 70
     1
102
RTVSPropertyOp7
 70
     1
102
RTVSPropertyOp8
 70
     1
102
RTVSPropertyOp9
 70
     1
102
RTVSPropertyOp10
 70
     1
102
RTVSPropertyOp11
 70
     1
102
RTVSPropertyOp12
 70
     1
102
RTVSPropertyOp13
 70
     1
102
RTVSPropertyOp14
 70
     1
102
RTVSPropertyOp15
 70
     1
102
RTVSPropertyOp16
 70
     1
102
RTVSPropertyOp17
 70
     1
102
RTVSPropertyOp18
 70
     1
102
RTVSPropertyOp19
 70
     1
102
RTVSPropertyOp20
 70
     1
102
RTVSPropertyOp21
 70
     1
102
RTVSPropertyOp22
 70
     1
102
RTVSPropertyOp23
 70
     1
102
RTVSPropertyOp24
 70
     1
102
RTVSPropertyOp25
 70
     1
102
RTVSPropertyOp26
 70
     1
102
RTVSPropertyOp27
 70
     1
102
RTVSPropertyOp28
 70
     1
102
RTVSPropertyOp29
 70
     1
102
RTVSPropertyOp30
 70
     1
102
RTVSPropertyOp31
 70
     1
102
RTVSPropertyOp32
 70
     1
102
RTVSPropertyOp33
 70
     1
102
RTVSPropertyOp34
 70
     1
102
RTVSPropertyOp35
 70
     1
102
RTVSPropertyOp36
 70
     1
102
RTVSPropertyOp37
 70
     1
102
RTVSPropertyOp38
 70
     1
102
RTVSPropertyOp39
 70
     1
102
RTVSPropertyOp40
 70
     1
102
RTVSPropertyOp41
 70
     1
102
RTVSPropertyOp42
 70
     1
102
RTVSPropertyOp43
 70
     1
102
RTVSPropertyOp44
 70
     1
102
RTVSPropertyOp45
 70
     1
102
RTVSPropertyOp46
 70
     1
102
RTVSPropertyOp47
 70
     1
102
RTVSPropertyOp48
 70
     1
102
RTVSPropertyOp49
 70
     1
102
RTVSPropertyOp50
 70
     1
102
RTVSPropertyOp51
 70
     0
102
RTVSPropertyOp52
 70
     0
102
RTVSPropertyOp53
 70
     1
102
RTVSPropertyOp54
 70
     1
102
RTVSPropertyOp55
 70
     1
102
RTVSPropertyOp56
 70
     1
102
RTVSPropertyOp57
 70
     1
102
RTVSPost2010Prop28
280
     0
102
RTVSPost2010PropOp28
 70
     1
102
RTVSPost2010Prop29
280
     1
102
RTVSPost2010PropOp29
 70
     1
102
RTVSPost2010Prop30
280
     1
102
RTVSPost2010PropOp30
 70
     1
102
RTVSPost2010Prop31
280
     0
102
RTVSPost2010PropOp31
 70
     1
102
RTVSPost2010Prop32
280
     0
102
RTVSPost2010PropOp32
 70
     1
102
RTVSPost2010Prop33
280
     0
102
RTVSPost2010PropOp33
 70
     1
102
RTVSPost2010Prop34
280
     0
102
RTVSPost2010PropOp34
 70
     1
102
RTVSPost2010Prop35
280
     0
102
RTVSPost2010PropOp35
 70
     1
102
RTVSPost2010Prop36
280
     0
102
RTVSPost2010PropOp36
 70
     1
102
RTVSPost2010Prop37
 90
       50
102
RTVSPost2010PropOp37
 70
     1
102
RTVSPost2010Prop38
140
0.0
102
RTVSPost2010PropOp38
 70
     1
102
RTVSPost2010Prop39
140
1.0
102
RTVSPost2010PropOp39
 70
     1
102
RTVSPost2010Prop40
 90
        0
102
RTVSPost2010PropOp40
 70
     1
102
RTVSPost2010Prop41ColorIndex
 90
       18
102
RTVSPost2010Prop41ColorRGB
 90
        0
102
RTVSPost2010PropOp41
 70
     1
102
RTVSPost2010Prop42
 90
       50
102
RTVSPost2010PropOp42
 70
     1
102
RTVSPost2010Prop43
 90
        3
102
RTVSPost2010PropOp43
 70
     1
102
RTVSPost2010Prop44ColorIndex
 90
        5
102
RTVSPost2010Prop44ColorRGB
 90
      255
102
RTVSPost2010PropOp44
 70
     1
102
RTVSPost2010Prop45
280
     0
102
RTVSPost2010PropOp45
 70
     1
102
RTVSPost2010Prop46
 90
       50
102
RTVSPost2010PropOp46
 70
     1
102
RTVSPost2010Prop47
 90
       50
102
RTVSPost2010PropOp47
 70
     1
102
RTVSPost2010Prop48
 90
       50
102
RTVSPost2010PropOp48
 70
     1
102
RTVSPost2010Prop49
280
     0
102
RTVSPost2010PropOp49
 70
     1
102
RTVSPost2010Prop50
 90
       50
102
RTVSPost2010PropOp50
 70
     1
102
RTVSPost2010Prop51ColorIndex
 90
      256
102
RTVSPost2010Prop51ColorRGB
 90
-16777216
102
RTVSPost2010PropOp51
 70
     0
102
RTVSPost2010Prop52
140
1.0
102
RTVSPost2010PropOp52
 70
     0
102
RTVSPost2010Prop53
 90
        2
102
RTVSPost2010PropOp53
 70
     1
102
RTVSPost2010Prop54
  1
strokes_ogs.tif
102
RTVSPost2010PropOp54
 70
     1
102
RTVSPost2010Prop55
280
     0
102
RTVSPost2010PropOp55
 70
     1
102
RTVSPost2010Prop56
140
1.0
102
RTVSPost2010PropOp56
 70
     1
102
RTVSPost2010Prop57
140
1.0
102
RTVSPost2010PropOp57
 70
     1
  0
XRECORD
  5
23A
102
{ACAD_REACTORS
330
239
102
}
330
239
100
AcDbXrecord
280
     1
102
RTVSPropertyOp0
 70
     1
102
RTVSPropertyOp1
 70
     1
102
RTVSPropertyOp2
 70
     1
102
RTVSPropertyOp3
 70
     1
102
RTVSPropertyOp4
 70
     1
102
RTVSPropertyOp5
 70
     1
102
RTVSPropertyOp6
 70
     1
102
RTVSPropertyOp7
 70
     1
102
RTVSPropertyOp8
 70
     1
102
RTVSPropertyOp9
 70
     1
102
RTVSPropertyOp10
 70
     1
102
RTVSPropertyOp11
 70
     1
102
RTVSPropertyOp12
 70
     1
102
RTVSPropertyOp13
 70
     1
102
RTVSPropertyOp14
 70
     1
102
RTVSPropertyOp15
 70
     1
102
RTVSPropertyOp16
 70
     1
102
RTVSPropertyOp17
 70
     1
102
RTVSPropertyOp18
 70
     1
102
RTVSPropertyOp19
 70
     1
102
RTVSPropertyOp20
 70
     1
102
RTVSPropertyOp21
 70
     1
102
RTVSPropertyOp22
 70
     1
102
RTVSPropertyOp23
 70
     1
102
RTVSPropertyOp24
 70
     1
102
RTVSPropertyOp25
 70
     1
102
RTVSPropertyOp26
 70
     1
102
RTVSPropertyOp27
 70
     1
102
RTVSPropertyOp28
 70
     1
102
RTVSPropertyOp29
 70
     1
102
RTVSPropertyOp30
 70
     1
102
RTVSPropertyOp31
 70
     1
102
RTVSPropertyOp32
 70
     1
102
RTVSPropertyOp33
 70
     1
102
RTVSPropertyOp34
 70
     1
102
RTVSPropertyOp35
 70
     1
102
RTVSPropertyOp36
 70
     1
102
RTVSPropertyOp37
 70
     1
102
RTVSPropertyOp38
 70
     1
102
RTVSPropertyOp39
 70
     1
102
RTVSPropertyOp40
 70
     1
102
RTVSPropertyOp41
 70
     1
102
RTVSPropertyOp42
 70
     1
102
RTVSPropertyOp43
 70
     1
102
RTVSPropertyOp44
 70
     1
102
RTVSPropertyOp45
 70
     1
102
RTVSPropertyOp46
 70
     1
102
RTVSPropertyOp47
 70
     1
102
RTVSPropertyOp48
 70
     1
102
RTVSPropertyOp49
 70
     1
102
RTVSPropertyOp50
 70
     1
102
RTVSPropertyOp51
 70
     0
102
RTVSPropertyOp52
 70
     0
102
RTVSPropertyOp53
 70
     1
102
RTVSPropertyOp54
 70
     1
102
RTVSPropertyOp55
 70
     1
102
RTVSPropertyOp56
 70
     1
102
RTVSPropertyOp57
 70
     1
102
RTVSPost2010Prop28
280
     0
102
RTVSPost2010PropOp28
 70
     1
102
RTVSPost2010Prop29
280
     1
102
RTVSPost2010PropOp29
 70
     1
102
RTVSPost2010Prop30
280
     1
102
RTVSPost2010PropOp30
 70
     1
102
RTVSPost2010Prop31
280
     0
102
RTVSPost2010PropOp31
 70
     1
102
RTVSPost2010Prop32
280
     0
102
RTVSPost2010PropOp32
 70
     1
102
RTVSPost2010Prop33
280
     0
102
RTVSPost2010PropOp33
 70
     1
102
RTVSPost2010Prop34
280
     0
102
RTVSPost2010PropOp34
 70
     1
102
RTVSPost2010Prop35
280
     0
102
RTVSPost2010PropOp35
 70
     1
102
RTVSPost2010Prop36
280
     0
102
RTVSPost2010PropOp36
 70
     1
102
RTVSPost2010Prop37
 90
       50
102
RTVSPost2010PropOp37
 70
     1
102
RTVSPost2010Prop38
140
0.0
102
RTVSPost2010PropOp38
 70
     1
102
RTVSPost2010Prop39
140
1.0
102
RTVSPost2010PropOp39
 70
     1
102
RTVSPost2010Prop40
 90
        0
102
RTVSPost2010PropOp40
 70
     1
102
RTVSPost2010Prop41ColorIndex
 90
       18
102
RTVSPost2010Prop41ColorRGB
 90
        0
102
RTVSPost2010PropOp41
 70
     1
102
RTVSPost2010Prop42
 90
       50
102
RTVSPost2010PropOp42
 70
     1
102
RTVSPost2010Prop43
 90
        3
102
RTVSPost2010PropOp43
 70
     1
102
RTVSPost2010Prop44ColorIndex
 90
        5
102
RTVSPost2010Prop44ColorRGB
 90
      255
102
RTVSPost2010PropOp44
 70
     1
102
RTVSPost2010Prop45
280
     0
102
RTVSPost2010PropOp45
 70
     1
102
RTVSPost2010Prop46
 90
       50
102
RTVSPost2010PropOp46
 70
     1
102
RTVSPost2010Prop47
 90
       50
102
RTVSPost2010PropOp47
 70
     1
102
RTVSPost2010Prop48
 90
       50
102
RTVSPost2010PropOp48
 70
     1
102
RTVSPost2010Prop49
280
     0
102
RTVSPost2010PropOp49
 70
     1
102
RTVSPost2010Prop50
 90
       50
102
RTVSPost2010PropOp50
 70
     1
102
RTVSPost2010Prop51ColorIndex
 90
      256
102
RTVSPost2010Prop51ColorRGB
 90
-16777216
102
RTVSPost2010PropOp51
 70
     0
102
RTVSPost2010Prop52
140
1.0
102
RTVSPost2010PropOp52
 70
     0
102
RTVSPost2010Prop53
 90
        2
102
RTVSPost2010PropOp53
 70
     1
102
RTVSPost2010Prop54
  1
strokes_ogs.tif
102
RTVSPost2010PropOp54
 70
     1
102
RTVSPost2010Prop55
280
     0
102
RTVSPost2010PropOp55
 70
     1
102
RTVSPost2010Prop56
140
1.0
102
RTVSPost2010PropOp56
 70
     1
102
RTVSPost2010Prop57
140
1.0
102
RTVSPost2010PropOp57
 70
     1
  0
XRECORD
  5
238
102
{ACAD_REACTORS
330
237
102
}
330
237
100
AcDbXrecord
280
     1
102
RTVSPropertyOp0
 70
     1
102
RTVSPropertyOp1
 70
     1
102
RTVSPropertyOp2
 70
     1
102
RTVSPropertyOp3
 70
     1
102
RTVSPropertyOp4
 70
     1
102
RTVSPropertyOp5
 70
     1
102
RTVSPropertyOp6
 70
     1
102
RTVSPropertyOp7
 70
     1
102
RTVSPropertyOp8
 70
     1
102
RTVSPropertyOp9
 70
     1
102
RTVSPropertyOp10
 70
     1
102
RTVSPropertyOp11
 70
     1
102
RTVSPropertyOp12
 70
     1
102
RTVSPropertyOp13
 70
     1
102
RTVSPropertyOp14
 70
     1
102
RTVSPropertyOp15
 70
     1
102
RTVSPropertyOp16
 70
     1
102
RTVSPropertyOp17
 70
     1
102
RTVSPropertyOp18
 70
     1
102
RTVSPropertyOp19
 70
     1
102
RTVSPropertyOp20
 70
     1
102
RTVSPropertyOp21
 70
     1
102
RTVSPropertyOp22
 70
     1
102
RTVSPropertyOp23
 70
     1
102
RTVSPropertyOp24
 70
     1
102
RTVSPropertyOp25
 70
     1
102
RTVSPropertyOp26
 70
     1
102
RTVSPropertyOp27
 70
     1
102
RTVSPropertyOp28
 70
     1
102
RTVSPropertyOp29
 70
     1
102
RTVSPropertyOp30
 70
     1
102
RTVSPropertyOp31
 70
     1
102
RTVSPropertyOp32
 70
     1
102
RTVSPropertyOp33
 70
     1
102
RTVSPropertyOp34
 70
     1
102
RTVSPropertyOp35
 70
     1
102
RTVSPropertyOp36
 70
     1
102
RTVSPropertyOp37
 70
     1
102
RTVSPropertyOp38
 70
     1
102
RTVSPropertyOp39
 70
     1
102
RTVSPropertyOp40
 70
     1
102
RTVSPropertyOp41
 70
     1
102
RTVSPropertyOp42
 70
     1
102
RTVSPropertyOp43
 70
     1
102
RTVSPropertyOp44
 70
     1
102
RTVSPropertyOp45
 70
     1
102
RTVSPropertyOp46
 70
     1
102
RTVSPropertyOp47
 70
     1
102
RTVSPropertyOp48
 70
     1
102
RTVSPropertyOp49
 70
     1
102
RTVSPropertyOp50
 70
     1
102
RTVSPropertyOp51
 70
     0
102
RTVSPropertyOp52
 70
     0
102
RTVSPropertyOp53
 70
     1
102
RTVSPropertyOp54
 70
     1
102
RTVSPropertyOp55
 70
     1
102
RTVSPropertyOp56
 70
     1
102
RTVSPropertyOp57
 70
     1
102
RTVSPost2010Prop28
280
     0
102
RTVSPost2010PropOp28
 70
     1
102
RTVSPost2010Prop29
280
     1
102
RTVSPost2010PropOp29
 70
     1
102
RTVSPost2010Prop30
280
     1
102
RTVSPost2010PropOp30
 70
     1
102
RTVSPost2010Prop31
280
     0
102
RTVSPost2010PropOp31
 70
     1
102
RTVSPost2010Prop32
280
     0
102
RTVSPost2010PropOp32
 70
     1
102
RTVSPost2010Prop33
280
     0
102
RTVSPost2010PropOp33
 70
     1
102
RTVSPost2010Prop34
280
     0
102
RTVSPost2010PropOp34
 70
     1
102
RTVSPost2010Prop35
280
     0
102
RTVSPost2010PropOp35
 70
     1
102
RTVSPost2010Prop36
280
     0
102
RTVSPost2010PropOp36
 70
     1
102
RTVSPost2010Prop37
 90
       50
102
RTVSPost2010PropOp37
 70
     1
102
RTVSPost2010Prop38
140
0.0
102
RTVSPost2010PropOp38
 70
     1
102
RTVSPost2010Prop39
140
1.0
102
RTVSPost2010PropOp39
 70
     1
102
RTVSPost2010Prop40
 90
        0
102
RTVSPost2010PropOp40
 70
     1
102
RTVSPost2010Prop41ColorIndex
 90
       18
102
RTVSPost2010Prop41ColorRGB
 90
        0
102
RTVSPost2010PropOp41
 70
     1
102
RTVSPost2010Prop42
 90
       50
102
RTVSPost2010PropOp42
 70
     1
102
RTVSPost2010Prop43
 90
        3
102
RTVSPost2010PropOp43
 70
     1
102
RTVSPost2010Prop44ColorIndex
 90
        5
102
RTVSPost2010Prop44ColorRGB
 90
      255
102
RTVSPost2010PropOp44
 70
     1
102
RTVSPost2010Prop45
280
     0
102
RTVSPost2010PropOp45
 70
     1
102
RTVSPost2010Prop46
 90
       50
102
RTVSPost2010PropOp46
 70
     1
102
RTVSPost2010Prop47
 90
       50
102
RTVSPost2010PropOp47
 70
     1
102
RTVSPost2010Prop48
 90
       50
102
RTVSPost2010PropOp48
 70
     1
102
RTVSPost2010Prop49
280
     0
102
RTVSPost2010PropOp49
 70
     1
102
RTVSPost2010Prop50
 90
       50
102
RTVSPost2010PropOp50
 70
     1
102
RTVSPost2010Prop51ColorIndex
 90
      256
102
RTVSPost2010Prop51ColorRGB
 90
-16777216
102
RTVSPost2010PropOp51
 70
     0
102
RTVSPost2010Prop52
140
1.0
102
RTVSPost2010PropOp52
 70
     0
102
RTVSPost2010Prop53
 90
        2
102
RTVSPost2010PropOp53
 70
     1
102
RTVSPost2010Prop54
  1
strokes_ogs.tif
102
RTVSPost2010PropOp54
 70
     1
102
RTVSPost2010Prop55
280
     0
102
RTVSPost2010PropOp55
 70
     1
102
RTVSPost2010Prop56
140
1.0
102
RTVSPost2010PropOp56
 70
     1
102
RTVSPost2010Prop57
140
1.0
102
RTVSPost2010PropOp57
 70
     1
  0
XRECORD
  5
232
102
{ACAD_REACTORS
330
231
102
}
330
231
100
AcDbXrecord
280
     1
102
RTVSPropertyOp0
 70
     1
102
RTVSPropertyOp1
 70
     1
102
RTVSPropertyOp2
 70
     1
102
RTVSPropertyOp3
 70
     1
102
RTVSPropertyOp4
 70
     1
102
RTVSPropertyOp5
 70
     1
102
RTVSPropertyOp6
 70
     1
102
RTVSPropertyOp7
 70
     1
102
RTVSPropertyOp8
 70
     1
102
RTVSPropertyOp9
 70
     1
102
RTVSPropertyOp10
 70
     1
102
RTVSPropertyOp11
 70
     1
102
RTVSPropertyOp12
 70
     1
102
RTVSPropertyOp13
 70
     1
102
RTVSPropertyOp14
 70
     1
102
RTVSPropertyOp15
 70
     1
102
RTVSPropertyOp16
 70
     1
102
RTVSPropertyOp17
 70
     1
102
RTVSPropertyOp18
 70
     1
102
RTVSPropertyOp19
 70
     1
102
RTVSPropertyOp20
 70
     1
102
RTVSPropertyOp21
 70
     1
102
RTVSPropertyOp22
 70
     1
102
RTVSPropertyOp23
 70
     1
102
RTVSPropertyOp24
 70
     1
102
RTVSPropertyOp25
 70
     1
102
RTVSPropertyOp26
 70
     1
102
RTVSPropertyOp27
 70
     1
102
RTVSPropertyOp28
 70
     1
102
RTVSPropertyOp29
 70
     1
102
RTVSPropertyOp30
 70
     1
102
RTVSPropertyOp31
 70
     1
102
RTVSPropertyOp32
 70
     1
102
RTVSPropertyOp33
 70
     1
102
RTVSPropertyOp34
 70
     1
102
RTVSPropertyOp35
 70
     1
102
RTVSPropertyOp36
 70
     1
102
RTVSPropertyOp37
 70
     1
102
RTVSPropertyOp38
 70
     1
102
RTVSPropertyOp39
 70
     1
102
RTVSPropertyOp40
 70
     1
102
RTVSPropertyOp41
 70
     1
102
RTVSPropertyOp42
 70
     1
102
RTVSPropertyOp43
 70
     1
102
RTVSPropertyOp44
 70
     1
102
RTVSPropertyOp45
 70
     1
102
RTVSPropertyOp46
 70
     1
102
RTVSPropertyOp47
 70
     1
102
RTVSPropertyOp48
 70
     1
102
RTVSPropertyOp49
 70
     1
102
RTVSPropertyOp50
 70
     1
102
RTVSPropertyOp51
 70
     0
102
RTVSPropertyOp52
 70
     0
102
RTVSPropertyOp53
 70
     1
102
RTVSPropertyOp54
 70
     1
102
RTVSPropertyOp55
 70
     1
102
RTVSPropertyOp56
 70
     1
102
RTVSPropertyOp57
 70
     1
102
RTVSPost2010Prop28
280
     0
102
RTVSPost2010PropOp28
 70
     1
102
RTVSPost2010Prop29
280
     1
102
RTVSPost2010PropOp29
 70
     1
102
RTVSPost2010Prop30
280
     1
102
RTVSPost2010PropOp30
 70
     1
102
RTVSPost2010Prop31
280
     0
102
RTVSPost2010PropOp31
 70
     1
102
RTVSPost2010Prop32
280
     0
102
RTVSPost2010PropOp32
 70
     1
102
RTVSPost2010Prop33
280
     0
102
RTVSPost2010PropOp33
 70
     1
102
RTVSPost2010Prop34
280
     0
102
RTVSPost2010PropOp34
 70
     1
102
RTVSPost2010Prop35
280
     0
102
RTVSPost2010PropOp35
 70
     1
102
RTVSPost2010Prop36
280
     0
102
RTVSPost2010PropOp36
 70
     1
102
RTVSPost2010Prop37
 90
       50
102
RTVSPost2010PropOp37
 70
     1
102
RTVSPost2010Prop38
140
0.0
102
RTVSPost2010PropOp38
 70
     1
102
RTVSPost2010Prop39
140
1.0
102
RTVSPost2010PropOp39
 70
     1
102
RTVSPost2010Prop40
 90
        0
102
RTVSPost2010PropOp40
 70
     1
102
RTVSPost2010Prop41ColorIndex
 90
       18
102
RTVSPost2010Prop41ColorRGB
 90
        0
102
RTVSPost2010PropOp41
 70
     1
102
RTVSPost2010Prop42
 90
       50
102
RTVSPost2010PropOp42
 70
     1
102
RTVSPost2010Prop43
 90
        3
102
RTVSPost2010PropOp43
 70
     1
102
RTVSPost2010Prop44ColorIndex
 90
        5
102
RTVSPost2010Prop44ColorRGB
 90
      255
102
RTVSPost2010PropOp44
 70
     1
102
RTVSPost2010Prop45
280
     0
102
RTVSPost2010PropOp45
 70
     1
102
RTVSPost2010Prop46
 90
       50
102
RTVSPost2010PropOp46
 70
     1
102
RTVSPost2010Prop47
 90
       50
102
RTVSPost2010PropOp47
 70
     1
102
RTVSPost2010Prop48
 90
       50
102
RTVSPost2010PropOp48
 70
     1
102
RTVSPost2010Prop49
280
     0
102
RTVSPost2010PropOp49
 70
     1
102
RTVSPost2010Prop50
 90
       50
102
RTVSPost2010PropOp50
 70
     1
102
RTVSPost2010Prop51ColorIndex
 90
      256
102
RTVSPost2010Prop51ColorRGB
 90
-16777216
102
RTVSPost2010PropOp51
 70
     0
102
RTVSPost2010Prop52
140
1.0
102
RTVSPost2010PropOp52
 70
     0
102
RTVSPost2010Prop53
 90
        2
102
RTVSPost2010PropOp53
 70
     1
102
RTVSPost2010Prop54
  1
strokes_ogs.tif
102
RTVSPost2010PropOp54
 70
     1
102
RTVSPost2010Prop55
280
     0
102
RTVSPost2010PropOp55
 70
     1
102
RTVSPost2010Prop56
140
1.0
102
RTVSPost2010PropOp56
 70
     1
102
RTVSPost2010Prop57
140
1.0
102
RTVSPost2010PropOp57
 70
     1
  0
XRECORD
  5
234
102
{ACAD_REACTORS
330
233
102
}
330
233
100
AcDbXrecord
280
     1
102
RTVSPropertyOp0
 70
     1
102
RTVSPropertyOp1
 70
     1
102
RTVSPropertyOp2
 70
     1
102
RTVSPropertyOp3
 70
     1
102
RTVSPropertyOp4
 70
     1
102
RTVSPropertyOp5
 70
     1
102
RTVSPropertyOp6
 70
     1
102
RTVSPropertyOp7
 70
     1
102
RTVSPropertyOp8
 70
     1
102
RTVSPropertyOp9
 70
     1
102
RTVSPropertyOp10
 70
     1
102
RTVSPropertyOp11
 70
     1
102
RTVSPropertyOp12
 70
     1
102
RTVSPropertyOp13
 70
     1
102
RTVSPropertyOp14
 70
     1
102
RTVSPropertyOp15
 70
     1
102
RTVSPropertyOp16
 70
     1
102
RTVSPropertyOp17
 70
     1
102
RTVSPropertyOp18
 70
     1
102
RTVSPropertyOp19
 70
     1
102
RTVSPropertyOp20
 70
     1
102
RTVSPropertyOp21
 70
     1
102
RTVSPropertyOp22
 70
     1
102
RTVSPropertyOp23
 70
     1
102
RTVSPropertyOp24
 70
     1
102
RTVSPropertyOp25
 70
     1
102
RTVSPropertyOp26
 70
     1
102
RTVSPropertyOp27
 70
     1
102
RTVSPropertyOp28
 70
     1
102
RTVSPropertyOp29
 70
     1
102
RTVSPropertyOp30
 70
     1
102
RTVSPropertyOp31
 70
     1
102
RTVSPropertyOp32
 70
     1
102
RTVSPropertyOp33
 70
     1
102
RTVSPropertyOp34
 70
     1
102
RTVSPropertyOp35
 70
     1
102
RTVSPropertyOp36
 70
     1
102
RTVSPropertyOp37
 70
     1
102
RTVSPropertyOp38
 70
     1
102
RTVSPropertyOp39
 70
     1
102
RTVSPropertyOp40
 70
     1
102
RTVSPropertyOp41
 70
     1
102
RTVSPropertyOp42
 70
     1
102
RTVSPropertyOp43
 70
     1
102
RTVSPropertyOp44
 70
     1
102
RTVSPropertyOp45
 70
     1
102
RTVSPropertyOp46
 70
     1
102
RTVSPropertyOp47
 70
     1
102
RTVSPropertyOp48
 70
     1
102
RTVSPropertyOp49
 70
     1
102
RTVSPropertyOp50
 70
     1
102
RTVSPropertyOp51
 70
     0
102
RTVSPropertyOp52
 70
     0
102
RTVSPropertyOp53
 70
     1
102
RTVSPropertyOp54
 70
     1
102
RTVSPropertyOp55
 70
     1
102
RTVSPropertyOp56
 70
     1
102
RTVSPropertyOp57
 70
     1
102
RTVSPost2010Prop28
280
     0
102
RTVSPost2010PropOp28
 70
     1
102
RTVSPost2010Prop29
280
     1
102
RTVSPost2010PropOp29
 70
     1
102
RTVSPost2010Prop30
280
     1
102
RTVSPost2010PropOp30
 70
     1
102
RTVSPost2010Prop31
280
     0
102
RTVSPost2010PropOp31
 70
     1
102
RTVSPost2010Prop32
280
     0
102
RTVSPost2010PropOp32
 70
     1
102
RTVSPost2010Prop33
280
     0
102
RTVSPost2010PropOp33
 70
     1
102
RTVSPost2010Prop34
280
     0
102
RTVSPost2010PropOp34
 70
     1
102
RTVSPost2010Prop35
280
     0
102
RTVSPost2010PropOp35
 70
     1
102
RTVSPost2010Prop36
280
     0
102
RTVSPost2010PropOp36
 70
     1
102
RTVSPost2010Prop37
 90
       50
102
RTVSPost2010PropOp37
 70
     1
102
RTVSPost2010Prop38
140
0.0
102
RTVSPost2010PropOp38
 70
     1
102
RTVSPost2010Prop39
140
1.0
102
RTVSPost2010PropOp39
 70
     1
102
RTVSPost2010Prop40
 90
        0
102
RTVSPost2010PropOp40
 70
     1
102
RTVSPost2010Prop41ColorIndex
 90
       18
102
RTVSPost2010Prop41ColorRGB
 90
        0
102
RTVSPost2010PropOp41
 70
     1
102
RTVSPost2010Prop42
 90
       50
102
RTVSPost2010PropOp42
 70
     1
102
RTVSPost2010Prop43
 90
        3
102
RTVSPost2010PropOp43
 70
     1
102
RTVSPost2010Prop44ColorIndex
 90
        5
102
RTVSPost2010Prop44ColorRGB
 90
      255
102
RTVSPost2010PropOp44
 70
     1
102
RTVSPost2010Prop45
280
     0
102
RTVSPost2010PropOp45
 70
     1
102
RTVSPost2010Prop46
 90
       50
102
RTVSPost2010PropOp46
 70
     1
102
RTVSPost2010Prop47
 90
       50
102
RTVSPost2010PropOp47
 70
     1
102
RTVSPost2010Prop48
 90
       50
102
RTVSPost2010PropOp48
 70
     1
102
RTVSPost2010Prop49
280
     0
102
RTVSPost2010PropOp49
 70
     1
102
RTVSPost2010Prop50
 90
       50
102
RTVSPost2010PropOp50
 70
     1
102
RTVSPost2010Prop51ColorIndex
 90
      256
102
RTVSPost2010Prop51ColorRGB
 90
-16777216
102
RTVSPost2010PropOp51
 70
     0
102
RTVSPost2010Prop52
140
1.0
102
RTVSPost2010PropOp52
 70
     0
102
RTVSPost2010Prop53
 90
        2
102
RTVSPost2010PropOp53
 70
     1
102
RTVSPost2010Prop54
  1
strokes_ogs.tif
102
RTVSPost2010PropOp54
 70
     1
102
RTVSPost2010Prop55
280
     0
102
RTVSPost2010PropOp55
 70
     1
102
RTVSPost2010Prop56
140
1.0
102
RTVSPost2010PropOp56
 70
     1
102
RTVSPost2010Prop57
140
1.0
102
RTVSPost2010PropOp57
 70
     1
  0
XRECORD
  5
224
102
{ACAD_REACTORS
330
223
102
}
330
223
100
AcDbXrecord
280
     1
102
RTVSPropertyOp0
 70
     1
102
RTVSPropertyOp1
 70
     1
102
RTVSPropertyOp2
 70
     1
102
RTVSPropertyOp3
 70
     1
102
RTVSPropertyOp4
 70
     1
102
RTVSPropertyOp5
 70
     1
102
RTVSPropertyOp6
 70
     1
102
RTVSPropertyOp7
 70
     1
102
RTVSPropertyOp8
 70
     1
102
RTVSPropertyOp9
 70
     1
102
RTVSPropertyOp10
 70
     1
102
RTVSPropertyOp11
 70
     1
102
RTVSPropertyOp12
 70
     1
102
RTVSPropertyOp13
 70
     1
102
RTVSPropertyOp14
 70
     1
102
RTVSPropertyOp15
 70
     1
102
RTVSPropertyOp16
 70
     1
102
RTVSPropertyOp17
 70
     1
102
RTVSPropertyOp18
 70
     1
102
RTVSPropertyOp19
 70
     1
102
RTVSPropertyOp20
 70
     1
102
RTVSPropertyOp21
 70
     1
102
RTVSPropertyOp22
 70
     1
102
RTVSPropertyOp23
 70
     1
102
RTVSPropertyOp24
 70
     1
102
RTVSPropertyOp25
 70
     1
102
RTVSPropertyOp26
 70
     1
102
RTVSPropertyOp27
 70
     1
102
RTVSPropertyOp28
 70
     1
102
RTVSPropertyOp29
 70
     1
102
RTVSPropertyOp30
 70
     1
102
RTVSPropertyOp31
 70
     1
102
RTVSPropertyOp32
 70
     1
102
RTVSPropertyOp33
 70
     1
102
RTVSPropertyOp34
 70
     1
102
RTVSPropertyOp35
 70
     1
102
RTVSPropertyOp36
 70
     1
102
RTVSPropertyOp37
 70
     1
102
RTVSPropertyOp38
 70
     1
102
RTVSPropertyOp39
 70
     1
102
RTVSPropertyOp40
 70
     1
102
RTVSPropertyOp41
 70
     1
102
RTVSPropertyOp42
 70
     1
102
RTVSPropertyOp43
 70
     1
102
RTVSPropertyOp44
 70
     1
102
RTVSPropertyOp45
 70
     1
102
RTVSPropertyOp46
 70
     1
102
RTVSPropertyOp47
 70
     1
102
RTVSPropertyOp48
 70
     1
102
RTVSPropertyOp49
 70
     1
102
RTVSPropertyOp50
 70
     1
102
RTVSPropertyOp51
 70
     0
102
RTVSPropertyOp52
 70
     0
102
RTVSPropertyOp53
 70
     1
102
RTVSPropertyOp54
 70
     1
102
RTVSPropertyOp55
 70
     1
102
RTVSPropertyOp56
 70
     1
102
RTVSPropertyOp57
 70
     1
102
RTVSPost2010Prop28
280
     0
102
RTVSPost2010PropOp28
 70
     1
102
RTVSPost2010Prop29
280
     1
102
RTVSPost2010PropOp29
 70
     1
102
RTVSPost2010Prop30
280
     1
102
RTVSPost2010PropOp30
 70
     1
102
RTVSPost2010Prop31
280
     0
102
RTVSPost2010PropOp31
 70
     1
102
RTVSPost2010Prop32
280
     0
102
RTVSPost2010PropOp32
 70
     1
102
RTVSPost2010Prop33
280
     0
102
RTVSPost2010PropOp33
 70
     1
102
RTVSPost2010Prop34
280
     0
102
RTVSPost2010PropOp34
 70
     1
102
RTVSPost2010Prop35
280
     0
102
RTVSPost2010PropOp35
 70
     1
102
RTVSPost2010Prop36
280
     0
102
RTVSPost2010PropOp36
 70
     1
102
RTVSPost2010Prop37
 90
       50
102
RTVSPost2010PropOp37
 70
     1
102
RTVSPost2010Prop38
140
0.0
102
RTVSPost2010PropOp38
 70
     1
102
RTVSPost2010Prop39
140
1.0
102
RTVSPost2010PropOp39
 70
     1
102
RTVSPost2010Prop40
 90
        0
102
RTVSPost2010PropOp40
 70
     1
102
RTVSPost2010Prop41ColorIndex
 90
       18
102
RTVSPost2010Prop41ColorRGB
 90
        0
102
RTVSPost2010PropOp41
 70
     1
102
RTVSPost2010Prop42
 90
       50
102
RTVSPost2010PropOp42
 70
     1
102
RTVSPost2010Prop43
 90
        3
102
RTVSPost2010PropOp43
 70
     1
102
RTVSPost2010Prop44ColorIndex
 90
        5
102
RTVSPost2010Prop44ColorRGB
 90
      255
102
RTVSPost2010PropOp44
 70
     1
102
RTVSPost2010Prop45
280
     0
102
RTVSPost2010PropOp45
 70
     1
102
RTVSPost2010Prop46
 90
       50
102
RTVSPost2010PropOp46
 70
     1
102
RTVSPost2010Prop47
 90
       50
102
RTVSPost2010PropOp47
 70
     1
102
RTVSPost2010Prop48
 90
       50
102
RTVSPost2010PropOp48
 70
     1
102
RTVSPost2010Prop49
280
     0
102
RTVSPost2010PropOp49
 70
     1
102
RTVSPost2010Prop50
 90
       50
102
RTVSPost2010PropOp50
 70
     1
102
RTVSPost2010Prop51ColorIndex
 90
      256
102
RTVSPost2010Prop51ColorRGB
 90
-16777216
102
RTVSPost2010PropOp51
 70
     0
102
RTVSPost2010Prop52
140
1.0
102
RTVSPost2010PropOp52
 70
     0
102
RTVSPost2010Prop53
 90
        2
102
RTVSPost2010PropOp53
 70
     1
102
RTVSPost2010Prop54
  1
strokes_ogs.tif
102
RTVSPost2010PropOp54
 70
     1
102
RTVSPost2010Prop55
280
     0
102
RTVSPost2010PropOp55
 70
     1
102
RTVSPost2010Prop56
140
1.0
102
RTVSPost2010PropOp56
 70
     1
102
RTVSPost2010Prop57
140
1.0
102
RTVSPost2010PropOp57
 70
     1
  0
XRECORD
  5
216
102
{ACAD_REACTORS
330
215
102
}
330
215
100
AcDbXrecord
280
     1
102
RTVSPropertyOp0
 70
     1
102
RTVSPropertyOp1
 70
     1
102
RTVSPropertyOp2
 70
     1
102
RTVSPropertyOp3
 70
     1
102
RTVSPropertyOp4
 70
     1
102
RTVSPropertyOp5
 70
     1
102
RTVSPropertyOp6
 70
     1
102
RTVSPropertyOp7
 70
     1
102
RTVSPropertyOp8
 70
     1
102
RTVSPropertyOp9
 70
     1
102
RTVSPropertyOp10
 70
     1
102
RTVSPropertyOp11
 70
     1
102
RTVSPropertyOp12
 70
     1
102
RTVSPropertyOp13
 70
     1
102
RTVSPropertyOp14
 70
     1
102
RTVSPropertyOp15
 70
     1
102
RTVSPropertyOp16
 70
     1
102
RTVSPropertyOp17
 70
     1
102
RTVSPropertyOp18
 70
     1
102
RTVSPropertyOp19
 70
     1
102
RTVSPropertyOp20
 70
     1
102
RTVSPropertyOp21
 70
     1
102
RTVSPropertyOp22
 70
     1
102
RTVSPropertyOp23
 70
     1
102
RTVSPropertyOp24
 70
     1
102
RTVSPropertyOp25
 70
     1
102
RTVSPropertyOp26
 70
     1
102
RTVSPropertyOp27
 70
     1
102
RTVSPropertyOp28
 70
     1
102
RTVSPropertyOp29
 70
     1
102
RTVSPropertyOp30
 70
     1
102
RTVSPropertyOp31
 70
     1
102
RTVSPropertyOp32
 70
     1
102
RTVSPropertyOp33
 70
     1
102
RTVSPropertyOp34
 70
     1
102
RTVSPropertyOp35
 70
     1
102
RTVSPropertyOp36
 70
     1
102
RTVSPropertyOp37
 70
     1
102
RTVSPropertyOp38
 70
     1
102
RTVSPropertyOp39
 70
     1
102
RTVSPropertyOp40
 70
     1
102
RTVSPropertyOp41
 70
     1
102
RTVSPropertyOp42
 70
     1
102
RTVSPropertyOp43
 70
     1
102
RTVSPropertyOp44
 70
     1
102
RTVSPropertyOp45
 70
     1
102
RTVSPropertyOp46
 70
     1
102
RTVSPropertyOp47
 70
     1
102
RTVSPropertyOp48
 70
     1
102
RTVSPropertyOp49
 70
     1
102
RTVSPropertyOp50
 70
     1
102
RTVSPropertyOp51
 70
     0
102
RTVSPropertyOp52
 70
     0
102
RTVSPropertyOp53
 70
     1
102
RTVSPropertyOp54
 70
     1
102
RTVSPropertyOp55
 70
     1
102
RTVSPropertyOp56
 70
     1
102
RTVSPropertyOp57
 70
     1
102
RTVSPost2010Prop28
280
     0
102
RTVSPost2010PropOp28
 70
     1
102
RTVSPost2010Prop29
280
     1
102
RTVSPost2010PropOp29
 70
     1
102
RTVSPost2010Prop30
280
     1
102
RTVSPost2010PropOp30
 70
     1
102
RTVSPost2010Prop31
280
     0
102
RTVSPost2010PropOp31
 70
     1
102
RTVSPost2010Prop32
280
     0
102
RTVSPost2010PropOp32
 70
     1
102
RTVSPost2010Prop33
280
     0
102
RTVSPost2010PropOp33
 70
     1
102
RTVSPost2010Prop34
280
     0
102
RTVSPost2010PropOp34
 70
     1
102
RTVSPost2010Prop35
280
     0
102
RTVSPost2010PropOp35
 70
     1
102
RTVSPost2010Prop36
280
     0
102
RTVSPost2010PropOp36
 70
     1
102
RTVSPost2010Prop37
 90
       50
102
RTVSPost2010PropOp37
 70
     1
102
RTVSPost2010Prop38
140
0.0
102
RTVSPost2010PropOp38
 70
     1
102
RTVSPost2010Prop39
140
1.0
102
RTVSPost2010PropOp39
 70
     1
102
RTVSPost2010Prop40
 90
        0
102
RTVSPost2010PropOp40
 70
     1
102
RTVSPost2010Prop41ColorIndex
 90
       18
102
RTVSPost2010Prop41ColorRGB
 90
        0
102
RTVSPost2010PropOp41
 70
     1
102
RTVSPost2010Prop42
 90
       50
102
RTVSPost2010PropOp42
 70
     1
102
RTVSPost2010Prop43
 90
        3
102
RTVSPost2010PropOp43
 70
     1
102
RTVSPost2010Prop44ColorIndex
 90
        5
102
RTVSPost2010Prop44ColorRGB
 90
      255
102
RTVSPost2010PropOp44
 70
     1
102
RTVSPost2010Prop45
280
     0
102
RTVSPost2010PropOp45
 70
     1
102
RTVSPost2010Prop46
 90
       50
102
RTVSPost2010PropOp46
 70
     1
102
RTVSPost2010Prop47
 90
       50
102
RTVSPost2010PropOp47
 70
     1
102
RTVSPost2010Prop48
 90
       50
102
RTVSPost2010PropOp48
 70
     1
102
RTVSPost2010Prop49
280
     0
102
RTVSPost2010PropOp49
 70
     1
102
RTVSPost2010Prop50
 90
       50
102
RTVSPost2010PropOp50
 70
     1
102
RTVSPost2010Prop51ColorIndex
 90
      256
102
RTVSPost2010Prop51ColorRGB
 90
-16777216
102
RTVSPost2010PropOp51
 70
     0
102
RTVSPost2010Prop52
140
1.0
102
RTVSPost2010PropOp52
 70
     0
102
RTVSPost2010Prop53
 90
        2
102
RTVSPost2010PropOp53
 70
     1
102
RTVSPost2010Prop54
  1
strokes_ogs.tif
102
RTVSPost2010PropOp54
 70
     1
102
RTVSPost2010Prop55
280
     0
102
RTVSPost2010PropOp55
 70
     1
102
RTVSPost2010Prop56
140
1.0
102
RTVSPost2010PropOp56
 70
     1
102
RTVSPost2010Prop57
140
1.0
102
RTVSPost2010PropOp57
 70
     1
  0
XRECORD
  5
236
102
{ACAD_REACTORS
330
235
102
}
330
235
100
AcDbXrecord
280
     1
102
RTVSPropertyOp0
 70
     1
102
RTVSPropertyOp1
 70
     1
102
RTVSPropertyOp2
 70
     1
102
RTVSPropertyOp3
 70
     1
102
RTVSPropertyOp4
 70
     1
102
RTVSPropertyOp5
 70
     1
102
RTVSPropertyOp6
 70
     1
102
RTVSPropertyOp7
 70
     1
102
RTVSPropertyOp8
 70
     1
102
RTVSPropertyOp9
 70
     1
102
RTVSPropertyOp10
 70
     1
102
RTVSPropertyOp11
 70
     1
102
RTVSPropertyOp12
 70
     1
102
RTVSPropertyOp13
 70
     1
102
RTVSPropertyOp14
 70
     1
102
RTVSPropertyOp15
 70
     1
102
RTVSPropertyOp16
 70
     1
102
RTVSPropertyOp17
 70
     1
102
RTVSPropertyOp18
 70
     1
102
RTVSPropertyOp19
 70
     1
102
RTVSPropertyOp20
 70
     1
102
RTVSPropertyOp21
 70
     1
102
RTVSPropertyOp22
 70
     1
102
RTVSPropertyOp23
 70
     1
102
RTVSPropertyOp24
 70
     1
102
RTVSPropertyOp25
 70
     1
102
RTVSPropertyOp26
 70
     1
102
RTVSPropertyOp27
 70
     1
102
RTVSPropertyOp28
 70
     1
102
RTVSPropertyOp29
 70
     1
102
RTVSPropertyOp30
 70
     1
102
RTVSPropertyOp31
 70
     1
102
RTVSPropertyOp32
 70
     1
102
RTVSPropertyOp33
 70
     1
102
RTVSPropertyOp34
 70
     1
102
RTVSPropertyOp35
 70
     1
102
RTVSPropertyOp36
 70
     1
102
RTVSPropertyOp37
 70
     1
102
RTVSPropertyOp38
 70
     1
102
RTVSPropertyOp39
 70
     1
102
RTVSPropertyOp40
 70
     1
102
RTVSPropertyOp41
 70
     1
102
RTVSPropertyOp42
 70
     1
102
RTVSPropertyOp43
 70
     1
102
RTVSPropertyOp44
 70
     1
102
RTVSPropertyOp45
 70
     1
102
RTVSPropertyOp46
 70
     1
102
RTVSPropertyOp47
 70
     1
102
RTVSPropertyOp48
 70
     1
102
RTVSPropertyOp49
 70
     1
102
RTVSPropertyOp50
 70
     1
102
RTVSPropertyOp51
 70
     0
102
RTVSPropertyOp52
 70
     0
102
RTVSPropertyOp53
 70
     1
102
RTVSPropertyOp54
 70
     1
102
RTVSPropertyOp55
 70
     1
102
RTVSPropertyOp56
 70
     1
102
RTVSPropertyOp57
 70
     1
102
RTVSPost2010Prop28
280
     0
102
RTVSPost2010PropOp28
 70
     1
102
RTVSPost2010Prop29
280
     1
102
RTVSPost2010PropOp29
 70
     1
102
RTVSPost2010Prop30
280
     1
102
RTVSPost2010PropOp30
 70
     1
102
RTVSPost2010Prop31
280
     0
102
RTVSPost2010PropOp31
 70
     1
102
RTVSPost2010Prop32
280
     0
102
RTVSPost2010PropOp32
 70
     1
102
RTVSPost2010Prop33
280
     0
102
RTVSPost2010PropOp33
 70
     1
102
RTVSPost2010Prop34
280
     0
102
RTVSPost2010PropOp34
 70
     1
102
RTVSPost2010Prop35
280
     0
102
RTVSPost2010PropOp35
 70
     1
102
RTVSPost2010Prop36
280
     0
102
RTVSPost2010PropOp36
 70
     1
102
RTVSPost2010Prop37
 90
       50
102
RTVSPost2010PropOp37
 70
     1
102
RTVSPost2010Prop38
140
0.0
102
RTVSPost2010PropOp38
 70
     1
102
RTVSPost2010Prop39
140
1.0
102
RTVSPost2010PropOp39
 70
     1
102
RTVSPost2010Prop40
 90
        0
102
RTVSPost2010PropOp40
 70
     1
102
RTVSPost2010Prop41ColorIndex
 90
       18
102
RTVSPost2010Prop41ColorRGB
 90
        0
102
RTVSPost2010PropOp41
 70
     1
102
RTVSPost2010Prop42
 90
       50
102
RTVSPost2010PropOp42
 70
     1
102
RTVSPost2010Prop43
 90
        3
102
RTVSPost2010PropOp43
 70
     1
102
RTVSPost2010Prop44ColorIndex
 90
        5
102
RTVSPost2010Prop44ColorRGB
 90
      255
102
RTVSPost2010PropOp44
 70
     1
102
RTVSPost2010Prop45
280
     0
102
RTVSPost2010PropOp45
 70
     1
102
RTVSPost2010Prop46
 90
       50
102
RTVSPost2010PropOp46
 70
     1
102
RTVSPost2010Prop47
 90
       50
102
RTVSPost2010PropOp47
 70
     1
102
RTVSPost2010Prop48
 90
       50
102
RTVSPost2010PropOp48
 70
     1
102
RTVSPost2010Prop49
280
     0
102
RTVSPost2010PropOp49
 70
     1
102
RTVSPost2010Prop50
 90
       50
102
RTVSPost2010PropOp50
 70
     1
102
RTVSPost2010Prop51ColorIndex
 90
      256
102
RTVSPost2010Prop51ColorRGB
 90
-16777216
102
RTVSPost2010PropOp51
 70
     0
102
RTVSPost2010Prop52
140
1.0
102
RTVSPost2010PropOp52
 70
     0
102
RTVSPost2010Prop53
 90
        2
102
RTVSPost2010PropOp53
 70
     1
102
RTVSPost2010Prop54
  1
strokes_ogs.tif
102
RTVSPost2010PropOp54
 70
     1
102
RTVSPost2010Prop55
280
     0
102
RTVSPost2010PropOp55
 70
     1
102
RTVSPost2010Prop56
140
1.0
102
RTVSPost2010PropOp56
 70
     1
102
RTVSPost2010Prop57
140
1.0
102
RTVSPost2010PropOp57
 70
     1
  0
ENDSEC
  0
EOF
