  0
SECTION
  2
HEADER
  9
$ACADVER
  1
AC1021
  9
$ACADMAINTVER
 70
    25
  9
$DWGCODEPAGE
  3
ANSI_1252
  9
$INSBASE
 10
0.0
 20
0.0
 30
0.0
  9
$EXTMIN
 10
0.0
 20
0.0
 30
0.0
  9
$EXTMAX
 10
594.0
 20
420.0
 30
0.0
  9
$LIMMIN
 10
0.0
 20
0.0
  9
$LIMMAX
 10
594.0
 20
420.0
  9
$ORTHOMODE
 70
     0
  9
$REGENMODE
 70
     1
  9
$FILLMODE
 70
     1
  9
$QTEXTMODE
 70
     0
  9
$MIRRTEXT
 70
     1
  9
$LTSCALE
 40
1.0
  9
$ATTMODE
 70
     1
  9
$TEXTSIZE
 40
4.0
  9
$TRACEWID
 40
1.0
  9
$TEXTSTYLE
  7
Standard
  9
$CLAYER
  8
0
  9
$CELTYPE
  6
ByLayer
  9
$CECOLOR
 62
   256
  9
$CELTSCALE
 40
1.0
  9
$DISPSILH
 70
     0
  9
$DIMSCALE
 40
1.0
  9
$DIMASZ
 40
2.5
  9
$DIMEXO
 40
0.625
  9
$DIMDLI
 40
3.75
  9
$DIMRND
 40
0.0
  9
$DIMDLE
 40
0.0
  9
$DIMEXE
 40
1.25
  9
$DIMTP
 40
0.0
  9
$DIMTM
 40
0.0
  9
$DIMTXT
 40
2.5
  9
$DIMCEN
 40
2.5
  9
$DIMTSZ
 40
0.0
  9
$DIMTOL
 70
     0
  9
$DIMLIM
 70
     0
  9
$DIMTIH
 70
     0
  9
$DIMTOH
 70
     0
  9
$DIMSE1
 70
     0
  9
$DIMSE2
 70
     0
  9
$DIMTAD
 70
     1
  9
$DIMZIN
 70
     8
  9
$DIMBLK
  1

  9
$DIMASO
 70
     1
  9
$DIMSHO
 70
     1
  9
$DIMPOST
  1

  9
$DIMAPOST
  1

  9
$DIMALT
 70
     0
  9
$DIMALTD
 70
     3
  9
$DIMALTF
 40
0.0393700787
  9
$DIMLFAC
 40
1.0
  9
$DIMTOFL
 70
     1
  9
$DIMTVP
 40
0.0
  9
$DIMTIX
 70
     0
  9
$DIMSOXD
 70
     0
  9
$DIMSAH
 70
     0
  9
$DIMBLK1
  1

  9
$DIMBLK2
  1

  9
$DIMSTYLE
  2
ISO-25
  9
$DIMCLRD
 70
     0
  9
$DIMCLRE
 70
     0
  9
$DIMCLRT
 70
     0
  9
$DIMTFAC
 40
1.0
  9
$DIMGAP
 40
0.625
  9
$DIMJUST
 70
     0
  9
$DIMSD1
 70
     0
  9
$DIMSD2
 70
     0
  9
$DIMTOLJ
 70
     0
  9
$DIMTZIN
 70
     8
  9
$DIMALTZ
 70
     0
  9
$DIMALTTZ
 70
     0
  9
$DIMUPT
 70
     0
  9
$DIMDEC
 70
     2
  9
$DIMTDEC
 70
     2
  9
$DIMALTU
 70
     2
  9
$DIMALTTD
 70
     3
  9
$DIMTXSTY
  7
Standard
  9
$DIMAUNIT
 70
     0
  9
$DIMADEC
 70
     0
  9
$DIMALTRND
 40
0.0
  9
$DIMAZIN
 70
     0
  9
$DIMDSEP
 70
    44
  9
$DIMATFIT
 70
     3
  9
$DIMFRAC
 70
     0
  9
$DIMLDRBLK
  1

  9
$DIMLUNIT
 70
     2
  9
$DIMLWD
 70
    -2
  9
$DIMLWE
 70
    -2
  9
$DIMTMOVE
 70
     0
  9
$DIMFXL
 40
1.0
  9
$DIMFXLON
 70
     0
  9
$DIMJOGANG
 40
0.7853981634
  9
$DIMTFILL
 70
     0
  9
$DIMTFILLCLR
 70
     0
  9
$DIMARCSYM
 70
     0
  9
$DIMLTYPE
  6

  9
$DIMLTEX1
  6

  9
$DIMLTEX2
  6

  9
$LUNITS
 70
     2
  9
$LUPREC
 70
     4
  9
$SKETCHINC
 40
1.0
  9
$FILLETRAD
 40
10.0
  9
$AUNITS
 70
     0
  9
$AUPREC
 70
     0
  9
$MENU
  1
.
  9
$ELEVATION
 40
0.0
  9
$PELEVATION
 40
0.0
  9
$THICKNESS
 40
0.0
  9
$LIMCHECK
 70
     0
  9
$CHAMFERA
 40
0.0
  9
$CHAMFERB
 40
0.0
  9
$CHAMFERC
 40
0.0
  9
$CHAMFERD
 40
0.0
  9
$SKPOLY
 70
     0
  9
$TDCREATE
 40
2459225.573209607
  9
$TDUCREATE
 40
2459225.53154294
  9
$TDUPDATE
 40
2459225.573210868
  9
$TDUUPDATE
 40
2459225.531544202
  9
$TDINDWG
 40
0.0000000116
  9
$TDUSRTIMER
 40
0.0000000116
  9
$USRTIMER
 70
     1
  9
$ANGBASE
 50
0.0
  9
$ANGDIR
 70
     0
  9
$PDMODE
 70
     0
  9
$PDSIZE
 40
0.0
  9
$PLINEWID
 40
0.0
  9
$SPLFRAME
 70
     0
  9
$SPLINETYPE
 70
     6
  9
$SPLINESEGS
 70
     8
  9
$HANDSEED
  5
37B
  9
$SURFTAB1
 70
     6
  9
$SURFTAB2
 70
     6
  9
$SURFTYPE
 70
     6
  9
$SURFU
 70
     6
  9
$SURFV
 70
     6
  9
$UCSBASE
  2

  9
$UCSNAME
  2

  9
$UCSORG
 10
0.0
 20
0.0
 30
0.0
  9
$UCSXDIR
 10
1.0
 20
0.0
 30
0.0
  9
$UCSYDIR
 10
0.0
 20
1.0
 30
0.0
  9
$UCSORTHOREF
  2

  9
$UCSORTHOVIEW
 70
     0
  9
$UCSORGTOP
 10
0.0
 20
0.0
 30
0.0
  9
$UCSORGBOTTOM
 10
0.0
 20
0.0
 30
0.0
  9
$UCSORGLEFT
 10
0.0
 20
0.0
 30
0.0
  9
$UCSORGRIGHT
 10
0.0
 20
0.0
 30
0.0
  9
$UCSORGFRONT
 10
0.0
 20
0.0
 30
0.0
  9
$UCSORGBACK
 10
0.0
 20
0.0
 30
0.0
  9
$PUCSBASE
  2

  9
$PUCSNAME
  2

  9
$PUCSORG
 10
0.0
 20
0.0
 30
0.0
  9
$PUCSXDIR
 10
1.0
 20
0.0
 30
0.0
  9
$PUCSYDIR
 10
0.0
 20
1.0
 30
0.0
  9
$PUCSORTHOREF
  2

  9
$PUCSORTHOVIEW
 70
     0
  9
$PUCSORGTOP
 10
0.0
 20
0.0
 30
0.0
  9
$PUCSORGBOTTOM
 10
0.0
 20
0.0
 30
0.0
  9
$PUCSORGLEFT
 10
0.0
 20
0.0
 30
0.0
  9
$PUCSORGRIGHT
 10
0.0
 20
0.0
 30
0.0
  9
$PUCSORGFRONT
 10
0.0
 20
0.0
 30
0.0
  9
$PUCSORGBACK
 10
0.0
 20
0.0
 30
0.0
  9
$USERI1
 70
     0
  9
$USERI2
 70
     0
  9
$USERI3
 70
     0
  9
$USERI4
 70
     0
  9
$USERI5
 70
     0
  9
$USERR1
 40
0.0
  9
$USERR2
 40
0.0
  9
$USERR3
 40
0.0
  9
$USERR4
 40
0.0
  9
$USERR5
 40
0.0
  9
$WORLDVIEW
 70
     1
  9
$SHADEDGE
 70
     3
  9
$SHADEDIF
 70
    70
  9
$TILEMODE
 70
     1
  9
$MAXACTVP
 70
    64
  9
$PINSBASE
 10
0.0
 20
0.0
 30
0.0
  9
$PLIMCHECK
 70
     0
  9
$PEXTMIN
 10
0.0
 20
0.0
 30
0.0
  9
$PEXTMAX
 10
594.0
 20
420.0
 30
0.0
  9
$PLIMMIN
 10
0.0
 20
0.0
  9
$PLIMMAX
 10
594.0
 20
420.0
  9
$UNITMODE
 70
     0
  9
$VISRETAIN
 70
     1
  9
$PLINEGEN
 70
     0
  9
$PSLTSCALE
 70
     1
  9
$TREEDEPTH
 70
  3020
  9
$CMLSTYLE
  2
Standard
  9
$CMLJUST
 70
     0
  9
$CMLSCALE
 40
20.0
  9
$PROXYGRAPHICS
 70
     1
  9
$MEASUREMENT
 70
     1
  9
$CELWEIGHT
370
    -1
  9
$ENDCAPS
280
     0
  9
$JOINSTYLE
280
     0
  9
$LWDISPLAY
290
     0
  9
$INSUNITS
 70
     4
  9
$HYPERLINKBASE
  1

  9
$STYLESHEET
  1

  9
$XEDIT
290
     1
  9
$CEPSNTYPE
380
     0
  9
$PSTYLEMODE
290
     1
  9
$FINGERPRINTGUID
  2
{8A64B638-3CF7-4E84-8DEE-50A3CC4AFAFB}
  9
$VERSIONGUID
  2
{FAEB1C32-E019-11D5-929B-00C0DF256EC4}
  9
$EXTNAMES
290
     1
  9
$PSVPSCALE
 40
0.0
  9
$OLESTARTUP
290
     0
  9
$SORTENTS
280
   127
  9
$INDEXCTL
280
     0
  9
$HIDETEXT
280
     1
  9
$XCLIPFRAME
290
     0
  9
$HALOGAP
280
     0
  9
$OBSCOLOR
 70
   257
  9
$OBSLTYPE
280
     0
  9
$INTERSECTIONDISPLAY
280
     0
  9
$INTERSECTIONCOLOR
 70
   257
  9
$DIMASSOC
280
     2
  9
$PROJECTNAME
  1

  9
$CAMERADISPLAY
290
     0
  9
$LENSLENGTH
 40
50.0
  9
$CAMERAHEIGHT
 40
0.0
  9
$STEPSPERSEC
 40
2.0
  9
$STEPSIZE
 40
6.0
  9
$3DDWFPREC
 40
2.0
  9
$PSOLWIDTH
 40
5.0
  9
$PSOLHEIGHT
 40
80.0
  9
$LOFTANG1
 40
1.5707963268
  9
$LOFTANG2
 40
1.5707963268
  9
$LOFTMAG1
 40
0.0
  9
$LOFTMAG2
 40
0.0
  9
$LOFTPARAM
 70
     7
  9
$LOFTNORMALS
280
     1
  9
$LATITUDE
 40
37.795
  9
$LONGITUDE
 40
-122.394
  9
$NORTHDIRECTION
 40
0.0
  9
$TIMEZONE
 70
 -8000
  9
$LIGHTGLYPHDISPLAY
280
     1
  9
$TILEMODELIGHTSYNCH
280
     1
  9
$CMATERIAL
347
44
  9
$SOLIDHIST
280
     0
  9
$SHOWHIST
280
     1
  9
$DWFFRAME
280
     2
  9
$DGNFRAME
280
     2
  9
$REALWORLDSCALE
290
     1
  9
$INTERFERECOLOR
 62
   256
  9
$CSHADOW
280
     0
  9
$SHADOWPLANELOCATION
 40
0.0
  0
ENDSEC
  0
SECTION
  2
CLASSES
  0
CLASS
  1
ACDBDICTIONARYWDFLT
  2
AcDbDictionaryWithDefault
  3
ObjectDBX Classes
 90
        0
 91
        4
280
     0
281
     0
  0
CLASS
  1
VISUALSTYLE
  2
AcDbVisualStyle
  3
ObjectDBX Classes
 90
     4095
 91
        4
280
     0
281
     0
  0
CLASS
  1
MATERIAL
  2
AcDbMaterial
  3
ObjectDBX Classes
 90
     1153
 91
        4
280
     0
281
     0
  0
CLASS
  1
SCALE
  2
AcDbScale
  3
ObjectDBX Classes
 90
     1153
 91
        4
280
     0
281
     0
  0
CLASS
  1
TABLESTYLE
  2
AcDbTableStyle
  3
ObjectDBX Classes
 90
     4095
 91
        4
280
     0
281
     0
  0
CLASS
  1
MLEADERSTYLE
  2
AcDbMLeaderStyle
  3
ACDB_MLEADERSTYLE_CLASS
 90
     4095
 91
        4
280
     0
281
     0
  0
CLASS
  1
SUN
  2
AcDbSun
  3
SCENEOE
 90
     1153
 91
        4
280
     0
281
     0
  0
CLASS
  1
MULTILEADER
  2
AcDbMLeader
  3
ACDB_MLEADER_CLASS
 90
     1025
 91
        4
280
     0
281
     1
  0
CLASS
  1
DICTIONARYVAR
  2
AcDbDictionaryVar
  3
ObjectDBX Classes
 90
        0
 91
        4
280
     0
281
     0
  0
CLASS
  1
CELLSTYLEMAP
  2
AcDbCellStyleMap
  3
ObjectDBX Classes
 90
     1152
 91
        4
280
     0
281
     0
  0
ENDSEC
  0
SECTION
  2
TABLES
  0
TABLE
  2
VPORT
  5
8
330
0
100
AcDbSymbolTable
 70
     1
  0
VPORT
  5
29
330
8
100
AcDbSymbolTableRecord
100
AcDbViewportTableRecord
  2
*Active
 70
     0
 10
0.0
 20
0.0
 11
1.0
 21
1.0
 12
344.1869158879
 22
148.5
 13
0.0
 23
0.0
 14
10.0
 24
10.0
 15
10.0
 25
10.0
 16
0.0
 26
0.0
 36
1.0
 17
0.0
 27
0.0
 37
0.0
 40
297.0
 41
1.9729729729
 42
50.0
 43
0.0
 44
0.0
 50
0.0
 51
0.0
 71
     0
 72
   100
 73
     1
 74
     3
 75
     0
 76
     0
 77
     0
 78
     0
281
     0
 65
     1
110
0.0
120
0.0
130
0.0
111
1.0
121
0.0
131
0.0
112
0.0
122
1.0
132
0.0
 79
     0
146
0.0
348
2F
 60
     3
 61
     5
292
     1
282
     1
141
0.0
142
0.0
 63
   250
361
6D
  0
ENDTAB
  0
TABLE
  2
LTYPE
  5
5
330
0
100
AcDbSymbolTable
 70
     1
  0
LTYPE
  5
14
330
5
100
AcDbSymbolTableRecord
100
AcDbLinetypeTableRecord
  2
ByBlock
 70
     0
  3

 72
    65
 73
     0
 40
0.0
  0
LTYPE
  5
15
330
5
100
AcDbSymbolTableRecord
100
AcDbLinetypeTableRecord
  2
ByLayer
 70
     0
  3

 72
    65
 73
     0
 40
0.0
  0
LTYPE
  5
16
330
5
100
AcDbSymbolTableRecord
100
AcDbLinetypeTableRecord
  2
Continuous
 70
     0
  3
Solid line
 72
    65
 73
     0
 40
0.0
  0
ENDTAB
  0
TABLE
  2
LAYER
  5
2
330
0
100
AcDbSymbolTable
 70
    13
  0
LAYER
  5
10
330
2
100
AcDbSymbolTableRecord
100
AcDbLayerTableRecord
  2
0
 70
     0
 62
     7
  6
Continuous
370
    -3
390
F
347
46
  0
LAYER
  5
6E
330
2
100
AcDbSymbolTableRecord
100
AcDbLayerTableRecord
  2
Default
 70
     0
 62
     7
  6
Continuous
370
    -3
390
F
347
46
  0
LAYER
  5
72
330
2
100
AcDbSymbolTableRecord
100
AcDbLayerTableRecord
  2
HELIBOTTOMCAP
 70
     0
 62
     7
  6
Continuous
370
    -3
390
F
347
46
  0
LAYER
  5
76
330
2
100
AcDbSymbolTableRecord
100
AcDbLayerTableRecord
  2
REVISEDGEARBOXCA
 70
     0
 62
     7
  6
Continuous
370
    -3
390
F
347
46
  0
LAYER
  5
90
330
2
100
AcDbSymbolTableRecord
100
AcDbLayerTableRecord
  2
HELIOUTPUTSHAFT
 70
     0
 62
     7
  6
Continuous
370
    -3
390
F
347
46
  0
LAYER
  5
95
330
2
100
AcDbSymbolTableRecord
100
AcDbLayerTableRecord
  2
HELI_OUTPUT_TUNN
 70
     0
 62
     7
  6
Continuous
370
    -3
390
F
347
46
  0
LAYER
  5
A3
330
2
100
AcDbSymbolTableRecord
100
AcDbLayerTableRecord
  2
TP_LUBE_FITTING
 70
     0
 62
     7
  6
Continuous
370
    -3
390
F
347
46
  0
LAYER
  5
B5
330
2
100
AcDbSymbolTableRecord
100
AcDbLayerTableRecord
  2
X45MASS
 70
     0
 62
     7
  6
Continuous
370
    -3
390
F
347
46
  0
LAYER
  5
DE
330
2
100
AcDbSymbolTableRecord
100
AcDbLayerTableRecord
  2
FESTOCOLM5T4
 70
     0
 62
     7
  6
Continuous
370
    -3
390
F
347
46
  0
LAYER
  5
FD
330
2
100
AcDbSymbolTableRecord
100
AcDbLayerTableRecord
  2
PCB_X45
 70
     0
 62
     7
  6
Continuous
370
    -3
390
F
347
46
  0
LAYER
  5
102
330
2
100
AcDbSymbolTableRecord
100
AcDbLayerTableRecord
  2
OUTWASHER
 70
     0
 62
     7
  6
Continuous
370
    -3
390
F
347
46
  0
LAYER
  5
105
330
2
100
AcDbSymbolTableRecord
100
AcDbLayerTableRecord
  2
EXHAUSTNOU_R1
 70
     0
 62
     7
  6
Continuous
370
    -3
390
F
347
46
  0
LAYER
  5
11A
330
2
100
AcDbSymbolTableRecord
100
AcDbLayerTableRecord
  2
2ONSTAGEMASS
 70
     0
 62
     7
  6
Continuous
370
    -3
390
F
347
46
  0
ENDTAB
  0
TABLE
  2
STYLE
  5
3
330
0
100
AcDbSymbolTable
 70
     2
  0
STYLE
  5
11
330
3
100
AcDbSymbolTableRecord
100
AcDbTextStyleTableRecord
  2
Standard
 70
     0
 40
0.0
 41
1.0
 50
0.0
 71
     0
 42
4.0
  3
txt
  4

  0
STYLE
  5
267
330
3
100
AcDbSymbolTableRecord
100
AcDbTextStyleTableRecord
  2
SEACAD_Solid_Edge_ISO
 70
     0
 40
0.0
 41
1.0
 50
0.0
 71
     0
 42
4.0
  3
seiso.ttf
  4

1001
ACAD
1000
Solid Edge ISO
1071
        0
  0
ENDTAB
  0
TABLE
  2
VIEW
  5
6
330
0
100
AcDbSymbolTable
 70
     0
  0
ENDTAB
  0
TABLE
  2
UCS
  5
7
330
0
100
AcDbSymbolTable
 70
     0
  0
ENDTAB
  0
TABLE
  2
APPID
  5
9
330
0
100
AcDbSymbolTable
 70
     2
  0
APPID
  5
12
330
9
100
AcDbSymbolTableRecord
100
AcDbRegAppTableRecord
  2
ACAD
 70
     0
  0
APPID
  5
33C
330
9
100
AcDbSymbolTableRecord
100
AcDbRegAppTableRecord
  2
ACAD_MLEADERVER
 70
     0
  0
ENDTAB
  0
TABLE
  2
DIMSTYLE
  5
A
330
0
100
AcDbSymbolTable
 70
     3
100
AcDbDimStyleTable
  0
DIMSTYLE
105
27
330
A
100
AcDbSymbolTableRecord
100
AcDbDimStyleTableRecord
  2
ISO-25
 70
     0
 41
2.5
 42
0.625
 43
3.75
 44
1.25
 73
     0
 74
     0
 77
     1
 78
     8
140
2.5
141
2.5
143
0.0393700787
147
0.625
171
     3
172
     1
178
     0
271
     2
272
     2
274
     3
278
    44
283
     0
284
     8
340
11
  0
DIMSTYLE
105
258
330
A
100
AcDbSymbolTableRecord
100
AcDbDimStyleTableRecord
  2
Standard
 70
     0
178
     0
340
11
  0
DIMSTYLE
105
268
102
{ACAD_REACTORS
330
269
330
273
330
27D
330
287
330
291
330
29B
330
2A5
330
2AF
330
2B7
330
2C1
330
2CB
330
2D5
330
2DF
330
2E9
330
2F3
102
}
330
A
100
AcDbSymbolTableRecord
100
AcDbDimStyleTableRecord
  2
DIN_(mm)
 70
     0
 41
3.5
 42
0.0
 44
1.75
 73
     0
 74
     0
 77
     1
 78
     8
140
3.5
141
1.75
143
0.0393700787
147
0.875
172
     1
173
     1
178
     0
271
     1
272
     2
278
    44
283
     0
284
     8
340
267
343
262
344
262
  0
ENDTAB
  0
TABLE
  2
BLOCK_RECORD
  5
1
330
0
100
AcDbSymbolTable
 70
    25
  0
BLOCK_RECORD
  5
1F
330
1
100
AcDbSymbolTableRecord
100
AcDbBlockTableRecord
  2
*Model_Space
340
22
 70
     0
280
     1
281
     0
  0
BLOCK_RECORD
  5
1B
330
1
100
AcDbSymbolTableRecord
100
AcDbBlockTableRecord
  2
*Paper_Space
340
1E
 70
     0
280
     1
281
     0
  0
BLOCK_RECORD
  5
70
330
1
100
AcDbSymbolTableRecord
100
AcDbBlockTableRecord
  2
SE
340
0
102
{BLKREFS
331
71
102
}
 70
     0
280
     1
281
     0
  0
BLOCK_RECORD
  5
135
330
1
100
AcDbSymbolTableRecord
100
AcDbBlockTableRecord
  2
SE1
340
0
102
{BLKREFS
331
136
102
}
 70
     0
280
     1
281
     0
  0
BLOCK_RECORD
  5
1F9
330
1
100
AcDbSymbolTableRecord
100
AcDbBlockTableRecord
  2
SE2
340
0
102
{BLKREFS
331
1FA
102
}
 70
     0
280
     1
281
     0
  0
BLOCK_RECORD
  5
259
330
1
100
AcDbSymbolTableRecord
100
AcDbBlockTableRecord
  2
_Oblique
340
0
 70
     0
280
     1
281
     0
  0
BLOCK_RECORD
  5
25D
330
1
100
AcDbSymbolTableRecord
100
AcDbBlockTableRecord
  2
_Dot
340
0
 70
     0
280
     1
281
     0
  0
BLOCK_RECORD
  5
262
330
1
100
AcDbSymbolTableRecord
100
AcDbBlockTableRecord
  2
_SE_FILLED
340
0
 70
     0
280
     1
281
     0
  0
BLOCK_RECORD
  5
26A
330
1
100
AcDbSymbolTableRecord
100
AcDbBlockTableRecord
  2
DMBLK45
340
0
 70
     0
280
     1
281
     0
  0
BLOCK_RECORD
  5
274
330
1
100
AcDbSymbolTableRecord
100
AcDbBlockTableRecord
  2
DMBLK46
340
0
 70
     0
280
     1
281
     0
  0
BLOCK_RECORD
  5
27E
330
1
100
AcDbSymbolTableRecord
100
AcDbBlockTableRecord
  2
DMBLK47
340
0
 70
     0
280
     1
281
     0
  0
BLOCK_RECORD
  5
288
330
1
100
AcDbSymbolTableRecord
100
AcDbBlockTableRecord
  2
DMBLK48
340
0
 70
     0
280
     1
281
     0
  0
BLOCK_RECORD
  5
292
330
1
100
AcDbSymbolTableRecord
100
AcDbBlockTableRecord
  2
DMBLK49
340
0
 70
     0
280
     1
281
     0
  0
BLOCK_RECORD
  5
29C
330
1
100
AcDbSymbolTableRecord
100
AcDbBlockTableRecord
  2
DMBLK50
340
0
 70
     0
280
     1
281
     0
  0
BLOCK_RECORD
  5
2A6
330
1
100
AcDbSymbolTableRecord
100
AcDbBlockTableRecord
  2
DMBLK51
340
0
 70
     0
280
     1
281
     0
  0
BLOCK_RECORD
  5
2B0
330
1
100
AcDbSymbolTableRecord
100
AcDbBlockTableRecord
  2
DMBLK52
340
0
 70
     0
280
     1
281
     0
  0
BLOCK_RECORD
  5
2B8
330
1
100
AcDbSymbolTableRecord
100
AcDbBlockTableRecord
  2
DMBLK53
340
0
 70
     0
280
     1
281
     0
  0
BLOCK_RECORD
  5
2C2
330
1
100
AcDbSymbolTableRecord
100
AcDbBlockTableRecord
  2
DMBLK54
340
0
 70
     0
280
     1
281
     0
  0
BLOCK_RECORD
  5
2CC
330
1
100
AcDbSymbolTableRecord
100
AcDbBlockTableRecord
  2
DMBLK55
340
0
 70
     0
280
     1
281
     0
  0
BLOCK_RECORD
  5
2D6
330
1
100
AcDbSymbolTableRecord
100
AcDbBlockTableRecord
  2
DMBLK56
340
0
 70
     0
280
     1
281
     0
  0
BLOCK_RECORD
  5
2E0
330
1
100
AcDbSymbolTableRecord
100
AcDbBlockTableRecord
  2
DMBLK57
340
0
 70
     0
280
     1
281
     0
  0
BLOCK_RECORD
  5
2EA
330
1
100
AcDbSymbolTableRecord
100
AcDbBlockTableRecord
  2
DMBLK58
340
0
 70
     0
280
     1
281
     0
  0
BLOCK_RECORD
  5
2F4
330
1
100
AcDbSymbolTableRecord
100
AcDbBlockTableRecord
  2
DMBLK59
340
0
 70
     0
280
     1
281
     0
  0
BLOCK_RECORD
  5
319
330
1
100
AcDbSymbolTableRecord
100
AcDbBlockTableRecord
  2
SEANNOT_GROUP
340
0
102
{BLKREFS
331
31A
102
}
 70
     0
280
     1
281
     0
  0
BLOCK_RECORD
  5
323
330
1
100
AcDbSymbolTableRecord
100
AcDbBlockTableRecord
  2
SEANNOT_GROUP1
340
0
102
{BLKREFS
331
324
102
}
 70
     0
280
     1
281
     0
  0
BLOCK_RECORD
  5
32A
330
1
100
AcDbSymbolTableRecord
100
AcDbBlockTableRecord
  2
SEANNOT_GROUP2
340
0
102
{BLKREFS
331
32B
102
}
 70
     0
280
     1
281
     0
  0
ENDTAB
  0
ENDSEC
  0
SECTION
  2
BLOCKS
  0
BLOCK
  5
20
330
1F
100
AcDbEntity
  8
0
100
AcDbBlockBegin
  2
*Model_Space
 70
     0
 10
0.0
 20
0.0
 30
0.0
  3
*Model_Space
  1

  0
ENDBLK
  5
21
330
1F
100
AcDbEntity
  8
0
100
AcDbBlockEnd
  0
BLOCK
  5
1C
330
1B
100
AcDbEntity
 67
     1
  8
0
100
AcDbBlockBegin
  2
*Paper_Space
 70
     0
 10
0.0
 20
0.0
 30
0.0
  3
*Paper_Space
  1

  0
ENDBLK
  5
1D
330
1B
100
AcDbEntity
 67
     1
  8
0
100
AcDbBlockEnd
  0
BLOCK
  5
133
330
70
100
AcDbEntity
  8
0
100
AcDbBlockBegin
  2
SE
 70
     0
 10
0.0
 20
0.0
 30
0.0
  3
SE
  1

  0
ARC
  5
73
330
70
100
AcDbEntity
  8
HELIBOTTOMCAP
  6
Continuous
 62
     7
100
AcDbCircle
 10
63.6788155727
 20
141.392025069
 30
0.0
 40
5.000000000000003
100
AcDbArc
 50
134.939666394
 51
179.9959699417
  0
LINE
  5
74
330
70
100
AcDbEntity
  8
HELIBOTTOMCAP
  6
Continuous
 62
     7
100
AcDbLine
 10
58.6788155851
 20
141.392376758
 30
0.0
 11
58.6776726138
 21
125.1426286406
 31
0.0
  0
ARC
  5
75
330
70
100
AcDbEntity
  8
HELIBOTTOMCAP
  6
Continuous
 62
     7
100
AcDbCircle
 10
63.6765295947
 20
108.8920251494
 30
0.0
 40
5.000000000000003
100
AcDbArc
 50
225.1413802427
 51
253.9523845951
  0
LINE
  5
77
330
70
100
AcDbEntity
  8
REVISEDGEARBOXCA
  6
Continuous
 62
     7
100
AcDbLine
 10
85.9317264755
 20
146.3908821202
 30
0.0
 11
85.9317264755
 21
151.6421266117
 31
0.0
  0
LINE
  5
78
330
70
100
AcDbEntity
  8
REVISEDGEARBOXCA
  6
Continuous
 62
     7
100
AcDbLine
 10
79.9304968891
 20
103.8908821202
 30
0.0
 11
79.9311950139
 21
98.6382844144
 31
0.0
  0
LINE
  5
79
330
70
100
AcDbEntity
  8
REVISEDGEARBOXCA
  6
Continuous
 62
     7
100
AcDbLine
 10
79.931194834
 20
151.6421266117
 30
0.0
 11
79.9304968891
 21
146.3908821202
 31
0.0
  0
LINE
  5
7A
330
70
100
AcDbEntity
  8
REVISEDGEARBOXCA
  6
Continuous
 62
     7
100
AcDbLine
 10
79.931194834
 20
151.6421266117
 30
0.0
 11
79.9317264755
 21
155.6421266117
 31
0.0
  0
LINE
  5
7B
330
70
100
AcDbEntity
  8
REVISEDGEARBOXCA
  6
Continuous
 62
     7
100
AcDbLine
 10
79.9317264755
 20
155.6421266117
 30
0.0
 11
85.9317264755
 21
155.6421266117
 31
0.0
  0
LINE
  5
7C
330
70
100
AcDbEntity
  8
REVISEDGEARBOXCA
  6
Continuous
 62
     7
100
AcDbLine
 10
85.9317264755
 20
155.6421266117
 30
0.0
 11
85.9317264755
 21
151.6421266117
 31
0.0
  0
LINE
  5
7D
330
70
100
AcDbEntity
  8
REVISEDGEARBOXCA
  6
Continuous
 62
     7
100
AcDbLine
 10
85.9317266554
 20
98.6382844144
 30
0.0
 11
85.9317266554
 21
103.8903174015
 31
0.0
  0
LINE
  5
7E
330
70
100
AcDbEntity
  8
REVISEDGEARBOXCA
  6
Continuous
 62
     7
100
AcDbLine
 10
85.9317266554
 20
98.6382844144
 30
0.0
 11
85.9317266554
 21
94.6382844144
 31
0.0
  0
LINE
  5
7F
330
70
100
AcDbEntity
  8
REVISEDGEARBOXCA
  6
Continuous
 62
     7
100
AcDbLine
 10
85.9317266554
 20
94.6382844144
 30
0.0
 11
79.9317266554
 21
94.6382844144
 31
0.0
  0
LINE
  5
80
330
70
100
AcDbEntity
  8
REVISEDGEARBOXCA
  6
Continuous
 62
     7
100
AcDbLine
 10
79.9317266554
 20
94.6382844144
 30
0.0
 11
79.9311950139
 21
98.6382844144
 31
0.0
  0
LINE
  5
81
330
70
100
AcDbEntity
  8
REVISEDGEARBOXCA
  6
Continuous
 62
     7
100
AcDbLine
 10
105.7638302224
 20
108.6408821202
 30
0.0
 11
105.7638302224
 21
141.6408821202
 31
0.0
  0
LINE
  5
82
330
70
100
AcDbEntity
  8
REVISEDGEARBOXCA
  6
Continuous
 62
     7
100
AcDbLine
 10
96.1816696439
 20
146.3908821202
 30
0.0
 11
85.9317264755
 21
146.3908821202
 31
0.0
  0
ARC
  5
83
330
70
100
AcDbEntity
  8
REVISEDGEARBOXCA
  6
Continuous
 62
     7
100
AcDbCircle
 10
96.1816696439
 20
141.3908821202
 30
0.0
 40
5.000000000000001
100
AcDbArc
 50
0.0
 51
90.0
  0
LINE
  5
84
330
70
100
AcDbEntity
  8
REVISEDGEARBOXCA
  6
Continuous
 62
     7
100
AcDbLine
 10
63.6804968891
 20
103.8908821202
 30
0.0
 11
79.9266733623
 21
103.8908821202
 31
0.0
  0
ARC
  5
85
330
70
100
AcDbEntity
  8
REVISEDGEARBOXCA
  6
Continuous
 62
     7
100
AcDbCircle
 10
63.6804968891
 20
108.8908821202
 30
0.0
 40
5.000000000000001
100
AcDbArc
 50
250.6275610092
 51
270.0
  0
LINE
  5
86
330
70
100
AcDbEntity
  8
REVISEDGEARBOXCA
  6
Continuous
 62
     7
100
AcDbLine
 10
101.1816696439
 20
108.8908821202
 30
0.0
 11
101.1816696439
 21
141.3908821202
 31
0.0
  0
ARC
  5
87
330
70
100
AcDbEntity
  8
REVISEDGEARBOXCA
  6
Continuous
 62
     7
100
AcDbCircle
 10
96.1816696439
 20
108.8908821202
 30
0.0
 40
5.000000000000004
100
AcDbArc
 50
285.4262885491
 51
0.0
  0
CIRCLE
  5
88
330
70
100
AcDbEntity
  8
REVISEDGEARBOXCA
  6
Continuous
 62
     7
100
AcDbCircle
 10
63.3118320304
 20
141.7590602406
 30
0.0
 40
1.2295
  0
CIRCLE
  5
89
330
70
100
AcDbEntity
  8
REVISEDGEARBOXCA
  6
Continuous
 62
     7
100
AcDbCircle
 10
96.546244501
 20
141.7563287314
 30
0.0
 40
1.2295
  0
CIRCLE
  5
8A
330
70
100
AcDbEntity
  8
REVISEDGEARBOXCA
  6
Continuous
 62
     7
100
AcDbCircle
 10
96.546244501
 20
108.5254355089
 30
0.0
 40
1.2295
  0
CIRCLE
  5
8B
330
70
100
AcDbEntity
  8
REVISEDGEARBOXCA
  6
Continuous
 62
     7
100
AcDbCircle
 10
63.3091005859
 20
108.5254355089
 30
0.0
 40
1.2295
  0
ARC
  5
8C
330
70
100
AcDbEntity
  8
REVISEDGEARBOXCA
  6
Continuous
 62
     7
100
AcDbCircle
 10
63.3118320304
 20
141.7590602406
 30
0.0
 40
1.5
100
AcDbArc
 50
255.0
 51
195.0
  0
ARC
  5
8D
330
70
100
AcDbEntity
  8
REVISEDGEARBOXCA
  6
Continuous
 62
     7
100
AcDbCircle
 10
96.546244501
 20
141.7563287314
 30
0.0
 40
1.5
100
AcDbArc
 50
255.0
 51
195.0
  0
ARC
  5
8E
330
70
100
AcDbEntity
  8
REVISEDGEARBOXCA
  6
Continuous
 62
     7
100
AcDbCircle
 10
96.546244501
 20
108.5254355089
 30
0.0
 40
1.5
100
AcDbArc
 50
255.0
 51
195.0
  0
ARC
  5
8F
330
70
100
AcDbEntity
  8
REVISEDGEARBOXCA
  6
Continuous
 62
     7
100
AcDbCircle
 10
63.3091005859
 20
108.5254355089
 30
0.0
 40
1.5
100
AcDbArc
 50
255.0
 51
195.0
  0
CIRCLE
  5
91
330
70
100
AcDbEntity
  8
HELIOUTPUTSHAFT
  6
Continuous
 62
     7
100
AcDbCircle
 10
79.9276725435
 20
125.1408821202
 30
0.0
 40
3.970000000000001
  0
CIRCLE
  5
92
330
70
100
AcDbEntity
  8
HELIOUTPUTSHAFT
  6
Continuous
 62
     7
100
AcDbCircle
 10
79.9276725435
 20
125.1408821202
 30
0.0
 40
3.67
  0
CIRCLE
  5
93
330
70
100
AcDbEntity
  8
HELIOUTPUTSHAFT
  6
Continuous
 62
     7
100
AcDbCircle
 10
79.9276725435
 20
125.1408821202
 30
0.0
 40
4.75
  0
CIRCLE
  5
94
330
70
100
AcDbEntity
  8
HELIOUTPUTSHAFT
  6
Continuous
 62
     7
100
AcDbCircle
 10
79.9276725435
 20
125.1408821202
 30
0.0
 40
4.6
  0
LINE
  5
96
330
70
100
AcDbEntity
  8
HELI_OUTPUT_TUNN
  6
Continuous
 62
     7
100
AcDbLine
 10
63.6796709776
 20
146.3924101856
 30
0.0
 11
96.1796708339
 21
146.3893538669
 31
0.0
  0
ARC
  5
97
330
70
100
AcDbEntity
  8
HELI_OUTPUT_TUNN
  6
Continuous
 62
     7
100
AcDbCircle
 10
63.6792007747
 20
141.3924102077
 30
0.0
 40
5.000000000000001
100
AcDbArc
 50
89.9946118718
 51
179.9946118718
  0
LINE
  5
98
330
70
100
AcDbEntity
  8
HELI_OUTPUT_TUNN
  6
Continuous
 62
     7
100
AcDbLine
 10
58.6761444781
 20
108.8928805543
 30
0.0
 11
58.6792007968
 21
141.3928804106
 31
0.0
  0
ARC
  5
99
330
70
100
AcDbEntity
  8
HELI_OUTPUT_TUNN
  6
Continuous
 62
     7
100
AcDbCircle
 10
63.676144456
 20
108.8924103514
 30
0.0
 40
5.000000000000001
100
AcDbArc
 50
179.9946118718
 51
269.9946118718
  0
LINE
  5
9A
330
70
100
AcDbEntity
  8
HELI_OUTPUT_TUNN
  6
Continuous
 62
     7
100
AcDbLine
 10
96.1756741094
 20
103.8893540548
 30
0.0
 11
63.6756742531
 21
103.8924103735
 31
0.0
  0
ARC
  5
9B
330
70
100
AcDbEntity
  8
HELI_OUTPUT_TUNN
  6
Continuous
 62
     7
100
AcDbCircle
 10
96.1761443123
 20
108.8893540327
 30
0.0
 40
5.000000000000001
100
AcDbArc
 50
269.9946118718
 51
359.9946118718
  0
LINE
  5
9C
330
70
100
AcDbEntity
  8
HELI_OUTPUT_TUNN
  6
Continuous
 62
     7
100
AcDbLine
 10
101.1792006089
 20
141.3888836861
 30
0.0
 11
101.1761442902
 21
108.8888838298
 31
0.0
  0
ARC
  5
9D
330
70
100
AcDbEntity
  8
HELI_OUTPUT_TUNN
  6
Continuous
 62
     7
100
AcDbCircle
 10
96.179200631
 20
141.389353889
 30
0.0
 40
5.000000000000001
100
AcDbArc
 50
359.9946118718
 51
89.9946118718
  0
CIRCLE
  5
9E
330
70
100
AcDbEntity
  8
HELI_OUTPUT_TUNN
  6
Continuous
 62
     7
100
AcDbCircle
 10
63.3122259322
 20
141.7594540777
 30
0.0
 40
1.55
  0
CIRCLE
  5
9F
330
70
100
AcDbEntity
  8
HELI_OUTPUT_TUNN
  6
Continuous
 62
     7
100
AcDbCircle
 10
96.546244501
 20
141.7563287314
 30
0.0
 40
1.55
  0
CIRCLE
  5
A0
330
70
100
AcDbEntity
  8
HELI_OUTPUT_TUNN
  6
Continuous
 62
     7
100
AcDbCircle
 10
96.5431191548
 20
108.5223101626
 30
0.0
 40
1.55
  0
CIRCLE
  5
A1
330
70
100
AcDbEntity
  8
HELI_OUTPUT_TUNN
  6
Continuous
 62
     7
100
AcDbCircle
 10
63.3091005859
 20
108.5254355089
 30
0.0
 40
1.55
  0
CIRCLE
  5
A2
330
70
100
AcDbEntity
  8
HELI_OUTPUT_TUNN
  6
Continuous
 62
     7
100
AcDbCircle
 10
79.9276725435
 20
125.1408821202
 30
0.0
 40
13.5
  0
LINE
  5
A4
330
70
100
AcDbEntity
  8
TP_LUBE_FITTING
  6
Continuous
 62
     7
100
AcDbLine
 10
97.6816696439
 20
103.3908821202
 30
0.0
 11
92.6816696439
 21
103.3908821202
 31
0.0
  0
LINE
  5
A5
330
70
100
AcDbEntity
  8
TP_LUBE_FITTING
  6
Continuous
 62
     7
100
AcDbLine
 10
97.8809079414
 20
100.8908821202
 30
0.0
 11
94.6509738032
 21
100.8908821202
 31
0.0
  0
LINE
  5
A6
330
70
100
AcDbEntity
  8
TP_LUBE_FITTING
  6
Continuous
 62
     7
100
AcDbLine
 10
98.4116037822
 20
100.8908821202
 30
0.0
 11
97.8809079414
 21
100.8908821202
 31
0.0
  0
LINE
  5
A7
330
70
100
AcDbEntity
  8
TP_LUBE_FITTING
  6
Continuous
 62
     7
100
AcDbLine
 10
94.6509738032
 20
100.8908821202
 30
0.0
 11
91.9517355056
 21
100.8908821202
 31
0.0
  0
LINE
  5
A8
330
70
100
AcDbEntity
  8
TP_LUBE_FITTING
  6
Continuous
 62
     7
100
AcDbLine
 10
97.8809079414
 20
102.8908821202
 30
0.0
 11
97.8809079414
 21
100.8908821202
 31
0.0
  0
LINE
  5
A9
330
70
100
AcDbEntity
  8
TP_LUBE_FITTING
  6
Continuous
 62
     7
100
AcDbLine
 10
97.8809079414
 20
102.8908821202
 30
0.0
 11
94.6509738032
 21
102.8908821202
 31
0.0
  0
LINE
  5
AA
330
70
100
AcDbEntity
  8
TP_LUBE_FITTING
  6
Continuous
 62
     7
100
AcDbLine
 10
98.4116037822
 20
102.8908821202
 30
0.0
 11
98.4116037822
 21
100.8908821202
 31
0.0
  0
LINE
  5
AB
330
70
100
AcDbEntity
  8
TP_LUBE_FITTING
  6
Continuous
 62
     7
100
AcDbLine
 10
98.4116037822
 20
102.8908821202
 30
0.0
 11
97.8809079414
 21
102.8908821202
 31
0.0
  0
LINE
  5
AC
330
70
100
AcDbEntity
  8
TP_LUBE_FITTING
  6
Continuous
 62
     7
100
AcDbLine
 10
91.9517355056
 20
102.8908821202
 30
0.0
 11
91.9517355056
 21
100.8908821202
 31
0.0
  0
LINE
  5
AD
330
70
100
AcDbEntity
  8
TP_LUBE_FITTING
  6
Continuous
 62
     7
100
AcDbLine
 10
94.6509738032
 20
102.8908821202
 30
0.0
 11
94.6509738032
 21
100.8908821202
 31
0.0
  0
LINE
  5
AE
330
70
100
AcDbEntity
  8
TP_LUBE_FITTING
  6
Continuous
 62
     7
100
AcDbLine
 10
94.6509738032
 20
102.8908821202
 30
0.0
 11
91.9517355056
 21
102.8908821202
 31
0.0
  0
LINE
  5
AF
330
70
100
AcDbEntity
  8
TP_LUBE_FITTING
  6
Continuous
 62
     7
100
AcDbLine
 10
97.4316696439
 20
102.8908821202
 30
0.0
 11
97.4316696439
 21
103.3908821202
 31
0.0
  0
LINE
  5
B0
330
70
100
AcDbEntity
  8
TP_LUBE_FITTING
  6
Continuous
 62
     7
100
AcDbLine
 10
92.9316696439
 20
103.3908821202
 30
0.0
 11
92.9316696439
 21
102.8908821202
 31
0.0
  0
LINE
  5
B1
330
70
100
AcDbEntity
  8
TP_LUBE_FITTING
  6
Continuous
 62
     7
100
AcDbLine
 10
97.6816696439
 20
103.3908821202
 30
0.0
 11
97.6816696439
 21
104.1211861131
 31
0.0
  0
LINE
  5
B2
330
70
100
AcDbEntity
  8
TP_LUBE_FITTING
  6
Continuous
 62
     7
100
AcDbLine
 10
92.6816696439
 20
103.889682633
 30
0.0
 11
92.6816696439
 21
103.3908821202
 31
0.0
  0
LINE
  5
B3
330
70
100
AcDbEntity
  8
TP_LUBE_FITTING
  6
Continuous
 62
     7
100
AcDbLine
 10
93.1721696439
 20
103.3908821202
 30
0.0
 11
93.1721696439
 21
103.889682633
 31
0.0
  0
LINE
  5
B4
330
70
100
AcDbEntity
  8
TP_LUBE_FITTING
  6
Continuous
 62
     7
100
AcDbLine
 10
97.1911696439
 20
103.3908821202
 30
0.0
 11
97.1911696439
 21
104.1211861131
 31
0.0
  0
LINE
  5
B6
330
70
100
AcDbEntity
  8
X45MASS
  6
Continuous
 62
     7
100
AcDbLine
 10
296.2651360212
 20
95.2670874863
 30
0.0
 11
296.2651360212
 21
155.0146767541
 31
0.0
  0
LINE
  5
B7
330
70
100
AcDbEntity
  8
X45MASS
  6
Continuous
 62
     7
100
AcDbLine
 10
303.0727065568
 20
97.0511453473
 30
0.0
 11
303.0727065568
 21
153.2306188931
 31
0.0
  0
LINE
  5
B8
330
70
100
AcDbEntity
  8
X45MASS
  6
Continuous
 62
     7
100
AcDbLine
 10
331.7123778684
 20
115.1408827238
 30
0.0
 11
331.7123778684
 21
135.1408815166
 31
0.0
  0
LINE
  5
B9
330
70
100
AcDbEntity
  8
X45MASS
  6
Continuous
 62
     7
100
AcDbLine
 10
331.8145399293
 20
115.1408827115
 30
0.0
 11
331.8145399293
 21
135.1408815289
 31
0.0
  0
LINE
  5
BA
330
70
100
AcDbEntity
  8
X45MASS
  6
Continuous
 62
     7
100
AcDbLine
 10
335.7145402189
 20
117.5408822408
 30
0.0
 11
335.7145402189
 21
132.7408819995
 31
0.0
  0
LINE
  5
BB
330
70
100
AcDbEntity
  8
X45MASS
  6
Continuous
 62
     7
100
AcDbLine
 10
336.7145403805
 20
118.8802675195
 30
0.0
 11
336.7145403805
 21
131.4014967208
 31
0.0
  0
LINE
  5
BC
330
70
100
AcDbEntity
  8
X45MASS
  6
Continuous
 62
     7
100
AcDbLine
 10
203.1096372446
 20
99.1408792598
 30
0.0
 11
203.1096372446
 21
151.1408849806
 31
0.0
  0
LINE
  5
BD
330
70
100
AcDbEntity
  8
X45MASS
  6
Continuous
 62
     7
100
AcDbLine
 10
221.4533399336
 20
95.2095583325
 30
0.0
 11
221.4533399336
 21
155.0722059078
 31
0.0
  0
LINE
  5
BE
330
70
100
AcDbEntity
  8
X45MASS
  6
Continuous
 62
     7
100
AcDbLine
 10
226.9533399336
 20
95.2095576688
 30
0.0
 11
226.9533399336
 21
155.0722065716
 31
0.0
  0
LINE
  5
BF
330
70
100
AcDbEntity
  8
X45MASS
  6
Continuous
 62
     7
100
AcDbLine
 10
253.4533399336
 20
95.2095544708
 30
0.0
 11
253.4533399336
 21
155.0722097696
 31
0.0
  0
LINE
  5
C0
330
70
100
AcDbEntity
  8
X45MASS
  6
Continuous
 62
     7
100
AcDbLine
 10
258.9533399336
 20
95.2095538071
 30
0.0
 11
258.9533399336
 21
155.0722104333
 31
0.0
  0
ARC
  5
C1
330
70
100
AcDbEntity
  8
X45MASS
  6
Continuous
 62
     7
100
AcDbCircle
 10
296.2651376962
 20
109.1472023987
 30
0.0
 40
13.88011491240285
100
AcDbArc
 50
269.9999930856
 51
299.3704780604
  0
ARC
  5
C2
330
70
100
AcDbEntity
  8
X45MASS
  6
Continuous
 62
     7
100
AcDbCircle
 10
296.2651376962
 20
141.1345618417
 30
0.0
 40
13.88011491240284
100
AcDbArc
 50
60.6295219396
 51
90.0000069144
  0
LINE
  5
C3
330
70
100
AcDbEntity
  8
X45MASS
  6
Continuous
 62
     7
100
AcDbLine
 10
303.0727065568
 20
97.0511453473
 30
0.0
 11
316.980177143
 21
98.7575289786
 31
0.0
  0
LINE
  5
C4
330
70
100
AcDbEntity
  8
X45MASS
  6
Continuous
 62
     7
100
AcDbLine
 10
316.980177143
 20
151.5242352617
 30
0.0
 11
303.0727065568
 21
153.2306188931
 31
0.0
  0
ARC
  5
C5
330
70
100
AcDbEntity
  8
X45MASS
  6
Continuous
 62
     7
100
AcDbCircle
 10
314.9369669195
 20
115.4102239309
 30
0.0
 40
16.77757304227201
100
AcDbArc
 50
276.9949711908
 51
359.0801543638
  0
ARC
  5
C6
330
70
100
AcDbEntity
  8
X45MASS
  6
Continuous
 62
     7
100
AcDbCircle
 10
314.9369669195
 20
134.8715403095
 30
0.0
 40
16.77757304227205
100
AcDbArc
 50
0.9198456362
 51
83.0050288092
  0
LINE
  5
C7
330
70
100
AcDbEntity
  8
X45MASS
  6
Continuous
 62
     7
100
AcDbLine
 10
331.7123778684
 20
115.1408827177
 30
0.0
 11
331.8145399293
 21
115.1408827177
 31
0.0
  0
LINE
  5
C8
330
70
100
AcDbEntity
  8
X45MASS
  6
Continuous
 62
     7
100
AcDbLine
 10
331.8145399293
 20
135.1408815227
 30
0.0
 11
331.7123778684
 21
135.1408815227
 31
0.0
  0
LINE
  5
C9
330
70
100
AcDbEntity
  8
X45MASS
  6
Continuous
 62
     7
100
AcDbLine
 10
331.8145399293
 20
115.1408827115
 30
0.0
 11
335.7145402189
 21
117.5408822408
 31
0.0
  0
LINE
  5
CA
330
70
100
AcDbEntity
  8
X45MASS
  6
Continuous
 62
     7
100
AcDbLine
 10
335.7145402189
 20
132.7408819995
 30
0.0
 11
331.8145399293
 21
135.1408815289
 31
0.0
  0
ARC
  5
CB
330
70
100
AcDbEntity
  8
X45MASS
  6
Continuous
 62
     7
100
AcDbCircle
 10
335.4751549812
 20
118.8802676691
 30
0.0
 40
1.239385399351507
100
AcDbArc
 50
281.1365759746
 51
359.9999930856
  0
ARC
  5
CC
330
70
100
AcDbEntity
  8
X45MASS
  6
Continuous
 62
     7
100
AcDbCircle
 10
335.4751549812
 20
131.4014965713
 30
0.0
 40
1.239385399351543
100
AcDbArc
 50
0.0000069144
 51
78.8634240254
  0
LINE
  5
CD
330
70
100
AcDbEntity
  8
X45MASS
  6
Continuous
 62
     7
100
AcDbLine
 10
203.0813392305
 20
99.1408792915
 30
0.0
 11
203.1096372446
 21
99.1408792915
 31
0.0
  0
LINE
  5
CE
330
70
100
AcDbEntity
  8
X45MASS
  6
Continuous
 62
     7
100
AcDbLine
 10
203.1096372446
 20
151.1408849489
 30
0.0
 11
203.0813392305
 21
151.1408849489
 31
0.0
  0
ARC
  5
CF
330
70
100
AcDbEntity
  8
X45MASS
  6
Continuous
 62
     7
100
AcDbCircle
 10
207.5126573527
 20
99.6408787284
 30
0.0
 40
4.4313187135345
100
AcDbArc
 50
186.4786578337
 51
269.9999930856
  0
ARC
  5
D0
330
70
100
AcDbEntity
  8
X45MASS
  6
Continuous
 62
     7
100
AcDbCircle
 10
207.5126573527
 20
150.640885512
 30
0.0
 40
4.431318713534486
100
AcDbArc
 50
90.0000069144
 51
173.5213421663
  0
LINE
  5
D1
330
70
100
AcDbEntity
  8
X45MASS
  6
Continuous
 62
     7
100
AcDbLine
 10
207.5126568179
 20
95.2095591737
 30
0.0
 11
221.4533399336
 21
95.2095591737
 31
0.0
  0
LINE
  5
D2
330
70
100
AcDbEntity
  8
X45MASS
  6
Continuous
 62
     7
100
AcDbLine
 10
221.4533399336
 20
155.0722050667
 30
0.0
 11
207.5126568179
 21
155.0722050667
 31
0.0
  0
LINE
  5
D3
330
70
100
AcDbEntity
  8
X45MASS
  6
Continuous
 62
     7
100
AcDbLine
 10
221.4533399472
 20
95.3223729594
 30
0.0
 11
226.9533399472
 21
95.3223729594
 31
0.0
  0
LINE
  5
D4
330
70
100
AcDbEntity
  8
X45MASS
  6
Continuous
 62
     7
100
AcDbLine
 10
226.9533399472
 20
154.959391281
 30
0.0
 11
221.4533399472
 21
154.959391281
 31
0.0
  0
LINE
  5
D5
330
70
100
AcDbEntity
  8
X45MASS
  6
Continuous
 62
     7
100
AcDbLine
 10
226.9533399336
 20
95.2095560698
 30
0.0
 11
253.4533399336
 21
95.2095560698
 31
0.0
  0
LINE
  5
D6
330
70
100
AcDbEntity
  8
X45MASS
  6
Continuous
 62
     7
100
AcDbLine
 10
253.4533399336
 20
155.0722081706
 30
0.0
 11
226.9533399336
 21
155.0722081706
 31
0.0
  0
LINE
  5
D7
330
70
100
AcDbEntity
  8
X45MASS
  6
Continuous
 62
     7
100
AcDbLine
 10
253.4533399467
 20
95.3179294668
 30
0.0
 11
258.9533399467
 21
95.3179294668
 31
0.0
  0
LINE
  5
D8
330
70
100
AcDbEntity
  8
X45MASS
  6
Continuous
 62
     7
100
AcDbLine
 10
258.9533399467
 20
154.9638347736
 30
0.0
 11
253.4533399467
 21
154.9638347736
 31
0.0
  0
LINE
  5
D9
330
70
100
AcDbEntity
  8
X45MASS
  6
Continuous
 62
     7
100
AcDbLine
 10
258.9533399336
 20
95.2095516615
 30
0.0
 11
274.6125376797
 21
95.2095516615
 31
0.0
  0
LINE
  5
DA
330
70
100
AcDbEntity
  8
X45MASS
  6
Continuous
 62
     7
100
AcDbLine
 10
283.8501419868
 20
95.2095516615
 30
0.0
 11
294.5123790419
 21
95.2095516615
 31
0.0
  0
LINE
  5
DB
330
70
100
AcDbEntity
  8
X45MASS
  6
Continuous
 62
     7
100
AcDbLine
 10
294.5123790419
 20
155.0722125789
 30
0.0
 11
258.9533399336
 21
155.0722125789
 31
0.0
  0
ARC
  5
DC
330
70
100
AcDbEntity
  8
X45MASS
  6
Continuous
 62
     7
100
AcDbCircle
 10
294.5123794626
 20
98.6958661492
 30
0.0
 40
3.486316633316837
100
AcDbArc
 50
269.9999930856
 51
300.1823135593
  0
ARC
  5
DD
330
70
100
AcDbEntity
  8
X45MASS
  6
Continuous
 62
     7
100
AcDbCircle
 10
294.5123794626
 20
151.5858980912
 30
0.0
 40
3.486316633316839
100
AcDbArc
 50
59.8176864407
 51
90.0000069144
  0
ELLIPSE
  5
DF
330
70
100
AcDbEntity
  8
FESTOCOLM5T4
  6
Continuous
 62
     7
100
AcDbEllipse
 10
266.1883917473
 20
94.5416659983
 30
0.0
 11
0.4714666260401401
 21
-4.832053830466955
 31
0.0
210
0.0
220
0.0
230
1.0
 40
0.0993168553
 41
4.56404165915008
 42
5.474107342861681
  0
ELLIPSE
  5
E0
330
70
100
AcDbEntity
  8
FESTOCOLM5T4
  6
Continuous
 62
     7
100
AcDbEllipse
 10
266.1883917473
 20
94.5416659983
 30
0.0
 11
0.4714666260401401
 21
-4.832053830466955
 31
0.0
210
0.0
220
0.0
230
1.0
 40
0.0993168553
 41
0.7896977509690615
 42
1.69976343468067
  0
ELLIPSE
  5
E1
330
70
100
AcDbEntity
  8
FESTOCOLM5T4
  6
Continuous
 62
     7
100
AcDbEllipse
 10
267.871991728
 20
94.7059359403
 30
0.0
 11
0.4714666260401401
 21
-4.832053830466948
 31
0.0
210
0.0
220
0.0
230
1.0
 40
0.0993168553
 41
0.4224415097480838
 42
1.665514866315927
  0
ELLIPSE
  5
E2
330
70
100
AcDbEntity
  8
FESTOCOLM5T4
  6
Continuous
 62
     7
100
AcDbEllipse
 10
266.1883917473
 20
94.5416659983
 30
0.0
 11
0.1942190014583567
 21
-1.990547406989465
 31
0.0
210
0.0
220
0.0
230
1.0
 40
0.0993168553
 41
4.36054925114728
 42
6.283185307179586
  0
ELLIPSE
  5
E3
330
70
100
AcDbEntity
  8
FESTOCOLM5T4
  6
Continuous
 62
     7
100
AcDbEllipse
 10
266.1883917473
 20
94.5416659983
 30
0.0
 11
0.1942190014583567
 21
-1.990547406989465
 31
0.0
210
0.0
220
0.0
230
1.0
 40
0.0993168553
 41
0.000000000000246
 42
1.903255842683467
  0
LINE
  5
E4
330
70
100
AcDbEntity
  8
FESTOCOLM5T4
  6
Continuous
 62
     7
100
AcDbLine
 10
268.5324134008
 20
90.7513787494
 30
0.0
 11
274.6125376797
 21
91.3446204185
 31
0.0
  0
ELLIPSE
  5
E5
330
70
100
AcDbEntity
  8
FESTOCOLM5T4
  6
Continuous
 62
     7
100
AcDbEllipse
 10
279.2313398332
 20
86.3178622735
 30
0.0
 11
-3.000000000000003
 21
0.0
 31
0.0
210
0.0
220
0.0
230
1.0
 40
0.2241107725
 41
1.570796326794897
 42
4.71238898038469
  0
ELLIPSE
  5
E6
330
70
100
AcDbEntity
  8
FESTOCOLM5T4
  6
Continuous
 62
     7
100
AcDbEllipse
 10
279.2313398332
 20
89.728835145
 30
0.0
 11
-3.000000000000003
 21
1.387778780781446E-14
 31
0.0
210
0.0
220
0.0
230
1.0
 40
0.2241107725
 41
3.141592653589793
 42
5.581511183391981
  0
LINE
  5
E7
330
70
100
AcDbEntity
  8
FESTOCOLM5T4
  6
Continuous
 62
     7
100
AcDbLine
 10
283.8501419868
 20
95.2838481071
 30
0.0
 11
281.54074091
 21
96.1802911973
 31
0.0
  0
LINE
  5
E8
330
70
100
AcDbEntity
  8
FESTOCOLM5T4
  6
Continuous
 62
     7
100
AcDbLine
 10
281.54074091
 20
96.1802911973
 30
0.0
 11
276.9219387565
 21
96.1802911973
 31
0.0
  0
LINE
  5
E9
330
70
100
AcDbEntity
  8
FESTOCOLM5T4
  6
Continuous
 62
     7
100
AcDbLine
 10
276.9219387565
 20
96.1802911973
 30
0.0
 11
274.6125376797
 21
95.2838481071
 31
0.0
  0
LINE
  5
EA
330
70
100
AcDbEntity
  8
FESTOCOLM5T4
  6
Continuous
 62
     7
100
AcDbLine
 10
274.6125376797
 20
95.2838481071
 30
0.0
 11
274.6125376797
 21
90.3178622735
 31
0.0
  0
LINE
  5
EB
330
70
100
AcDbEntity
  8
FESTOCOLM5T4
  6
Continuous
 62
     7
100
AcDbLine
 10
276.9219387565
 20
96.1802911973
 30
0.0
 11
276.9219387565
 21
90.6252782352
 31
0.0
  0
LINE
  5
EC
330
70
100
AcDbEntity
  8
FESTOCOLM5T4
  6
Continuous
 62
     7
100
AcDbLine
 10
281.54074091
 20
96.1802911973
 30
0.0
 11
281.54074091
 21
90.6252782352
 31
0.0
  0
LINE
  5
ED
330
70
100
AcDbEntity
  8
FESTOCOLM5T4
  6
Continuous
 62
     7
100
AcDbLine
 10
283.8501419868
 20
95.2838481071
 30
0.0
 11
283.8501419868
 21
89.728835145
 31
0.0
  0
LINE
  5
EE
330
70
100
AcDbEntity
  8
FESTOCOLM5T4
  6
Continuous
 62
     7
100
AcDbLine
 10
275.7305716685
 20
90.1628237899
 30
0.0
 11
276.9219387565
 21
90.6252782352
 31
0.0
  0
LINE
  5
EF
330
70
100
AcDbEntity
  8
FESTOCOLM5T4
  6
Continuous
 62
     7
100
AcDbLine
 10
276.9219387565
 20
90.6252782352
 30
0.0
 11
281.54074091
 21
90.6252782352
 31
0.0
  0
LINE
  5
F0
330
70
100
AcDbEntity
  8
FESTOCOLM5T4
  6
Continuous
 62
     7
100
AcDbLine
 10
281.54074091
 20
90.6252782352
 30
0.0
 11
283.8501419868
 21
89.728835145
 31
0.0
  0
LINE
  5
F1
330
70
100
AcDbEntity
  8
FESTOCOLM5T4
  6
Continuous
 62
     7
100
AcDbLine
 10
283.8501419868
 20
89.728835145
 30
0.0
 11
282.2313398332
 21
89.1004626984
 31
0.0
  0
LINE
  5
F2
330
70
100
AcDbEntity
  8
FESTOCOLM5T4
  6
Continuous
 62
     7
100
AcDbLine
 10
276.9400519858
 20
90.1628237899
 30
0.0
 11
275.7305716685
 21
90.1628237899
 31
0.0
  0
LINE
  5
F3
330
70
100
AcDbEntity
  8
FESTOCOLM5T4
  6
Continuous
 62
     7
100
AcDbLine
 10
279.2313398332
 20
89.5686477188
 30
0.0
 11
279.2313398332
 21
82.3178622735
 31
0.0
  0
ELLIPSE
  5
F4
330
70
100
AcDbEntity
  8
FESTOCOLM5T4
  6
Continuous
 62
     7
100
AcDbEllipse
 10
274.6125376797
 20
86.3178622735
 30
0.0
 11
-0.7451803009715652
 21
-3.9789972144849
 31
0.0
210
0.0
220
0.0
230
1.0
 40
0.54935267
 41
2.964783842908927
 42
3.244113849370144
  0
ARC
  5
F5
330
70
100
AcDbEntity
  8
FESTOCOLM5T4
  6
Continuous
 62
     7
100
AcDbCircle
 10
279.5384848072
 20
95.4680440736
 30
0.0
 40
5.907386510580785
100
AcDbArc
 50
243.9049453305
 51
267.0196551054
  0
LINE
  5
F6
330
70
100
AcDbEntity
  8
FESTOCOLM5T4
  6
Continuous
 62
     7
100
AcDbLine
 10
266.0613398332
 20
91.1728622735
 30
0.0
 11
266.0613398332
 21
81.4628622735
 31
0.0
  0
LINE
  5
F7
330
70
100
AcDbEntity
  8
FESTOCOLM5T4
  6
Continuous
 62
     7
100
AcDbLine
 10
267.7613398332
 20
91.1728622735
 30
0.0
 11
267.7613398332
 21
81.4628622735
 31
0.0
  0
LINE
  5
F8
330
70
100
AcDbEntity
  8
FESTOCOLM5T4
  6
Continuous
 62
     7
100
AcDbLine
 10
282.2313398332
 20
86.3178622735
 30
0.0
 11
282.2313398332
 21
89.728835145
 31
0.0
  0
LINE
  5
F9
330
70
100
AcDbEntity
  8
FESTOCOLM5T4
  6
Continuous
 62
     7
100
AcDbLine
 10
275.1300993392
 20
90.3178622735
 30
0.0
 11
267.7613398332
 21
90.3178622735
 31
0.0
  0
LINE
  5
FA
330
70
100
AcDbEntity
  8
FESTOCOLM5T4
  6
Continuous
 62
     7
100
AcDbLine
 10
267.7613398332
 20
82.3178622735
 30
0.0
 11
279.2313398332
 21
82.3178622735
 31
0.0
  0
LINE
  5
FB
330
70
100
AcDbEntity
  8
FESTOCOLM5T4
  6
Continuous
 62
     7
100
AcDbLine
 10
266.0613398332
 20
81.4628622735
 30
0.0
 11
267.7613398332
 21
81.4628622735
 31
0.0
  0
LINE
  5
FC
330
70
100
AcDbEntity
  8
FESTOCOLM5T4
  6
Continuous
 62
     7
100
AcDbLine
 10
267.7613398332
 20
91.1728622735
 30
0.0
 11
266.0613398332
 21
91.1728622735
 31
0.0
  0
LINE
  5
FE
330
70
100
AcDbEntity
  8
PCB_X45
  6
Continuous
 62
     7
100
AcDbLine
 10
280.5313398332
 20
132.5954858263
 30
0.0
 11
280.5313398332
 21
118.0093944149
 31
0.0
  0
LINE
  5
FF
330
70
100
AcDbEntity
  8
PCB_X45
  6
Continuous
 62
     7
100
AcDbLine
 10
279.0313398332
 20
132.5954858263
 30
0.0
 11
279.0313398332
 21
118.0093944149
 31
0.0
  0
LINE
  5
100
330
70
100
AcDbEntity
  8
PCB_X45
  6
Continuous
 62
     7
100
AcDbLine
 10
280.5313398332
 20
118.0093944149
 30
0.0
 11
279.0313398332
 21
118.0093944149
 31
0.0
  0
LINE
  5
101
330
70
100
AcDbEntity
  8
PCB_X45
  6
Continuous
 62
     7
100
AcDbLine
 10
280.5313398332
 20
132.5954858263
 30
0.0
 11
279.0313398332
 21
132.5954858263
 31
0.0
  0
CIRCLE
  5
103
330
70
100
AcDbEntity
  8
OUTWASHER
  6
Continuous
 62
     7
100
AcDbCircle
 10
79.9276725435
 20
125.1408821202
 30
0.0
 40
8.0
  0
CIRCLE
  5
104
330
70
100
AcDbEntity
  8
OUTWASHER
  6
Continuous
 62
     7
100
AcDbCircle
 10
79.9276725435
 20
125.1408821202
 30
0.0
 40
4.8
  0
LINE
  5
106
330
70
100
AcDbEntity
  8
EXHAUSTNOU_R1
  6
Continuous
 62
     7
100
AcDbLine
 10
107.0813398439
 20
175.6408821202
 30
0.0
 11
129.0719623091
 21
175.6408821202
 31
0.0
  0
LINE
  5
107
330
70
100
AcDbEntity
  8
EXHAUSTNOU_R1
  6
Continuous
 62
     7
100
AcDbLine
 10
129.0725059764
 20
142.4945943807
 30
0.0
 11
129.0719623091
 21
175.6408821202
 31
0.0
  0
LINE
  5
108
330
70
100
AcDbEntity
  8
EXHAUSTNOU_R1
  6
Continuous
 62
     7
100
AcDbLine
 10
129.0719623091
 20
175.6408821202
 30
0.0
 11
151.0813398306
 21
175.6408821202
 31
0.0
  0
LINE
  5
109
330
70
100
AcDbEntity
  8
EXHAUSTNOU_R1
  6
Continuous
 62
     7
100
AcDbLine
 10
151.0220291526
 20
175.1070860427
 30
0.0
 11
151.0813398279
 21
175.6408821202
 31
0.0
  0
LINE
  5
10A
330
70
100
AcDbEntity
  8
EXHAUSTNOU_R1
  6
Continuous
 62
     7
100
AcDbLine
 10
151.0813398332
 20
185.6408821202
 30
0.0
 11
107.0813398332
 21
185.6408821202
 31
0.0
  0
LINE
  5
10B
330
70
100
AcDbEntity
  8
EXHAUSTNOU_R1
  6
Continuous
 62
     7
100
AcDbLine
 10
150.3798606333
 20
80.9541948737
 30
0.0
 11
151.0813398279
 21
74.6408821202
 31
0.0
  0
LINE
  5
10C
330
70
100
AcDbEntity
  8
EXHAUSTNOU_R1
  6
Continuous
 62
     7
100
AcDbLine
 10
129.0726147881
 20
107.7871699245
 30
0.0
 11
129.0733349845
 21
74.6408821202
 31
0.0
  0
LINE
  5
10D
330
70
100
AcDbEntity
  8
EXHAUSTNOU_R1
  6
Continuous
 62
     7
100
AcDbLine
 10
129.0733349844
 20
74.6408821202
 30
0.0
 11
107.0813398439
 21
74.6408821202
 31
0.0
  0
LINE
  5
10E
330
70
100
AcDbEntity
  8
EXHAUSTNOU_R1
  6
Continuous
 62
     7
100
AcDbLine
 10
151.0813398306
 20
74.6408821202
 30
0.0
 11
129.0733349844
 21
74.6408821202
 31
0.0
  0
LINE
  5
10F
330
70
100
AcDbEntity
  8
EXHAUSTNOU_R1
  6
Continuous
 62
     7
100
AcDbLine
 10
151.0813398332
 20
64.6408821202
 30
0.0
 11
107.0813398332
 21
64.6408821202
 31
0.0
  0
SPLINE
  5
110
330
70
100
AcDbEntity
  8
EXHAUSTNOU_R1
  6
Continuous
 62
     7
100
AcDbSpline
210
0.0
220
0.0
230
1.0
 70
     8
 71
     3
 72
     8
 73
     4
 74
     0
 42
0.000000001
 43
0.0000000001
 40
0.0
 40
0.0
 40
0.0
 40
0.0
 40
0.9536280216529458
 40
0.9536280216529458
 40
0.9536280216529458
 40
0.9536280216529458
 10
107.0843062792283
 20
175.6141842025745
 30
0.0
 10
108.2598450287726
 20
165.0198762524699
 30
0.0
 10
109.0156594546751
 20
158.1953922328046
 30
0.0
 10
109.3517495569359
 20
155.1407321435785
 30
0.0
  0
ARC
  5
111
330
70
100
AcDbEntity
  8
EXHAUSTNOU_R1
  6
Continuous
 62
     7
100
AcDbCircle
 10
-19196.715791703
 20
-1971.7010059156
 30
0.0
 40
19422.86438400944
100
AcDbArc
 50
6.2853678947
 51
6.3474497115
  0
ARC
  5
112
330
70
100
AcDbEntity
  8
EXHAUSTNOU_R1
  6
Continuous
 62
     7
100
AcDbCircle
 10
18262.3713611845
 20
-1840.901557417
 30
0.0
 40
18223.20678359285
100
AcDbArc
 50
173.6484446403
 51
173.7129305806
  0
SPLINE
  5
113
330
70
100
AcDbEntity
  8
EXHAUSTNOU_R1
  6
Continuous
 62
     7
100
AcDbSpline
210
0.0
220
0.0
230
1.0
 70
     8
 71
     3
 72
     9
 73
     5
 74
     0
 42
0.000000001
 43
0.0000000001
 40
0.0188334352795085
 40
0.0188334352795085
 40
0.0188334352795085
 40
0.0188334352795085
 40
0.0909739751567806
 40
0.1930095703381822
 40
0.1930095703381822
 40
0.1930095703381822
 40
0.1930095703381822
 10
148.8107753454078
 20
155.140873129125
 30
0.0
 10
148.86842506167
 20
155.6632439424628
 30
0.0
 10
148.9941808665791
 20
156.8026008790285
 30
0.0
 10
149.1303804914959
 20
158.0355023508748
 30
0.0
 10
149.2099873385503
 20
158.7558797978608
 30
0.0
  0
LINE
  5
114
330
70
100
AcDbEntity
  8
EXHAUSTNOU_R1
  6
Continuous
 62
     7
100
AcDbLine
 10
151.0813398332
 20
175.634165276
 30
0.0
 11
151.0813398332
 21
185.6408821202
 31
0.0
  0
LINE
  5
115
330
70
100
AcDbEntity
  8
EXHAUSTNOU_R1
  6
Continuous
 62
     7
100
AcDbLine
 10
107.0813398332
 20
185.6408821202
 30
0.0
 11
107.0813398332
 21
175.634165276
 31
0.0
  0
SPLINE
  5
116
330
70
100
AcDbEntity
  8
EXHAUSTNOU_R1
  6
Continuous
 62
     7
100
AcDbSpline
210
0.0
220
0.0
230
1.0
 70
     8
 71
     3
 72
     8
 73
     4
 74
     0
 42
0.000000001
 43
0.0000000001
 40
0.0
 40
0.0
 40
0.0
 40
0.0
 40
1.0
 40
1.0
 40
1.0
 40
1.0
 10
109.3975102619714
 20
95.55726911563376
 30
0.0
 10
109.0880753703505
 20
92.740285805186
 30
0.0
 10
108.3170073761029
 20
85.77705611257498
 30
0.0
 10
107.0843062792284
 20
74.66758003780069
 30
0.0
  0
SPLINE
  5
117
330
70
100
AcDbEntity
  8
EXHAUSTNOU_R1
  6
Continuous
 62
     7
100
AcDbSpline
210
0.0
220
0.0
230
1.0
 70
     8
 71
     3
 72
    20
 73
    16
 74
     0
 42
0.000000001
 43
0.0000000001
 40
0.0
 40
0.0
 40
0.0
 40
0.0
 40
0.0675167231125278
 40
0.1224764749005754
 40
0.1648793129658595
 40
0.1971997984045556
 40
0.2291759742894723
 40
0.2618009227851247
 40
0.2949575814772378
 40
0.4776060421857467
 40
0.8037871735937248
 40
0.8630984750529243
 40
0.9224111228089331
 40
0.9817271607991703
 40
1.0
 40
1.0
 40
1.0
 40
1.0
 10
151.0796828264754
 20
74.64088212018788
 30
0.0
 10
151.0222436117957
 20
75.15880627218233
 30
0.0
 10
150.9347227175177
 20
75.9479866683072
 30
0.0
 10
150.8048984872879
 20
77.11894446735734
 30
0.0
 10
150.7050774810902
 20
78.01943891455949
 30
0.0
 10
150.6225252016519
 20
78.76423652638326
 30
0.0
 10
150.5476375956938
 20
79.4399581455439
 30
0.0
 10
150.4720883559302
 20
80.12173062026704
 30
0.0
 10
150.2801406857954
 20
81.85412453343999
 30
0.0
 10
149.8614539259173
 20
85.6345069871451
 30
0.0
 10
149.4236351859635
 20
89.59210656887014
 30
0.0
 10
149.0804027948534
 20
92.69867961275416
 30
0.0
 10
148.9444388835627
 20
93.92983301423332
 30
0.0
 10
148.836025159307
 20
94.91184922913185
 30
0.0
 10
148.7799624208783
 20
95.4199890626977
 30
0.0
 10
148.7645033539852
 20
95.56010795515421
 30
0.0
  0
LINE
  5
118
330
70
100
AcDbEntity
  8
EXHAUSTNOU_R1
  6
Continuous
 62
     7
100
AcDbLine
 10
107.0813398332
 20
74.6475989643
 30
0.0
 11
107.0813398332
 21
64.6408821202
 31
0.0
  0
LINE
  5
119
330
70
100
AcDbEntity
  8
EXHAUSTNOU_R1
  6
Continuous
 62
     7
100
AcDbLine
 10
151.0813398332
 20
64.6408821202
 30
0.0
 11
151.0813398332
 21
74.6475989643
 31
0.0
  0
LINE
  5
11B
330
70
100
AcDbEntity
  8
2ONSTAGEMASS
  6
Continuous
 62
     7
100
AcDbLine
 10
201.8775929988
 20
151.2408821202
 30
0.0
 11
201.8775929988
 21
99.0408821202
 31
0.0
  0
LINE
  5
11C
330
70
100
AcDbEntity
  8
2ONSTAGEMASS
  6
Continuous
 62
     7
100
AcDbLine
 10
201.5775929988
 20
150.9408821202
 30
0.0
 11
201.5775929988
 21
99.3408821202
 31
0.0
  0
LINE
  5
11D
330
70
100
AcDbEntity
  8
2ONSTAGEMASS
  6
Continuous
 62
     7
100
AcDbLine
 10
197.9844125497
 20
146.1408821202
 30
0.0
 11
197.9844125497
 21
104.1408821202
 31
0.0
  0
LINE
  5
11E
330
70
100
AcDbEntity
  8
2ONSTAGEMASS
  6
Continuous
 62
     7
100
AcDbLine
 10
177.8879555049
 20
153.40277533
 30
0.0
 11
177.8879555049
 21
96.8789889104
 31
0.0
  0
LINE
  5
11F
330
70
100
AcDbEntity
  8
2ONSTAGEMASS
  6
Continuous
 62
     7
100
AcDbLine
 10
105.8847750748
 20
155.1408821202
 30
0.0
 11
105.8847750748
 21
95.1408821202
 31
0.0
  0
LINE
  5
120
330
70
100
AcDbEntity
  8
2ONSTAGEMASS
  6
Continuous
 62
     7
100
AcDbLine
 10
203.0813392305
 20
151.2408821202
 30
0.0
 11
203.0813392305
 21
99.0408821202
 31
0.0
  0
LINE
  5
121
330
70
100
AcDbEntity
  8
2ONSTAGEMASS
  6
Continuous
 62
     7
100
AcDbLine
 10
201.8775929988
 20
151.2408821202
 30
0.0
 11
201.5775929988
 21
150.9408821202
 31
0.0
  0
LINE
  5
122
330
70
100
AcDbEntity
  8
2ONSTAGEMASS
  6
Continuous
 62
     7
100
AcDbLine
 10
201.5775929988
 20
99.3408821202
 30
0.0
 11
201.8775929988
 21
99.0408821202
 31
0.0
  0
LINE
  5
123
330
70
100
AcDbEntity
  8
2ONSTAGEMASS
  6
Continuous
 62
     7
100
AcDbLine
 10
201.5775929988
 20
146.1408821202
 30
0.0
 11
197.9844125497
 21
146.1408821202
 31
0.0
  0
LINE
  5
124
330
70
100
AcDbEntity
  8
2ONSTAGEMASS
  6
Continuous
 62
     7
100
AcDbLine
 10
197.9844125497
 20
104.1408821202
 30
0.0
 11
201.5775929988
 21
104.1408821202
 31
0.0
  0
LINE
  5
125
330
70
100
AcDbEntity
  8
2ONSTAGEMASS
  6
Continuous
 62
     7
100
AcDbLine
 10
177.8879555049
 20
96.8789889104
 30
0.0
 11
197.9844125497
 21
104.1408821202
 31
0.0
  0
LINE
  5
126
330
70
100
AcDbEntity
  8
2ONSTAGEMASS
  6
Continuous
 62
     7
100
AcDbLine
 10
197.9844125497
 20
146.1408821202
 30
0.0
 11
177.8879555049
 21
153.40277533
 31
0.0
  0
ARC
  5
127
330
70
100
AcDbEntity
  8
2ONSTAGEMASS
  6
Continuous
 62
     7
100
AcDbCircle
 10
178.1874629124
 20
154.2598078498
 30
0.0
 40
0.9078598058609745
100
AcDbArc
 50
187.8008481804
 51
250.736995982
  0
ARC
  5
128
330
70
100
AcDbEntity
  8
2ONSTAGEMASS
  6
Continuous
 62
     7
100
AcDbCircle
 10
178.1874629124
 20
96.0219563906
 30
0.0
 40
0.9078598058609813
100
AcDbArc
 50
109.263004018
 51
172.1991518196
  0
ARC
  5
129
330
70
100
AcDbEntity
  8
2ONSTAGEMASS
  6
Continuous
 62
     7
100
AcDbCircle
 10
176.1367386379
 20
153.9788626395
 30
0.0
 40
1.162019480727785
100
AcDbArc
 50
7.8008481826
 51
90.0
  0
ARC
  5
12A
330
70
100
AcDbEntity
  8
2ONSTAGEMASS
  6
Continuous
 62
     7
100
AcDbCircle
 10
176.1367386379
 20
96.3029016009
 30
0.0
 40
1.162019480727791
100
AcDbArc
 50
270.0
 51
352.1991518174
  0
LINE
  5
12B
330
70
100
AcDbEntity
  8
2ONSTAGEMASS
  6
Continuous
 62
     7
100
AcDbLine
 10
176.1367386379
 20
155.1408821202
 30
0.0
 11
148.810770193
 21
155.1408821202
 31
0.0
  0
LINE
  5
12C
330
70
100
AcDbEntity
  8
2ONSTAGEMASS
  6
Continuous
 62
     7
100
AcDbLine
 10
109.3507365548
 20
155.1408821202
 30
0.0
 11
105.8847750748
 21
155.1408821202
 31
0.0
  0
LINE
  5
12D
330
70
100
AcDbEntity
  8
2ONSTAGEMASS
  6
Continuous
 62
     7
100
AcDbLine
 10
105.8847750748
 20
95.1408821202
 30
0.0
 11
109.3515666604
 21
95.1408821202
 31
0.0
  0
LINE
  5
12E
330
70
100
AcDbEntity
  8
2ONSTAGEMASS
  6
Continuous
 62
     7
100
AcDbLine
 10
148.8107604576
 20
95.1408821202
 30
0.0
 11
176.1367386379
 21
95.1408821202
 31
0.0
  0
LINE
  5
12F
330
70
100
AcDbEntity
  8
2ONSTAGEMASS
  6
Continuous
 62
     7
100
AcDbLine
 10
105.8847750748
 20
141.6908821202
 30
0.0
 11
101.1726615293
 21
141.6908821202
 31
0.0
  0
LINE
  5
130
330
70
100
AcDbEntity
  8
2ONSTAGEMASS
  6
Continuous
 62
     7
100
AcDbLine
 10
101.1726615293
 20
108.5908821202
 30
0.0
 11
105.8847750748
 21
108.5908821202
 31
0.0
  0
LINE
  5
131
330
70
100
AcDbEntity
  8
2ONSTAGEMASS
  6
Continuous
 62
     7
100
AcDbLine
 10
203.0813392305
 20
151.2408821202
 30
0.0
 11
201.8775929988
 21
151.2408821202
 31
0.0
  0
LINE
  5
132
330
70
100
AcDbEntity
  8
2ONSTAGEMASS
  6
Continuous
 62
     7
100
AcDbLine
 10
201.8775929988
 20
99.0408821202
 30
0.0
 11
203.0813392305
 21
99.0408821202
 31
0.0
  0
ENDBLK
  5
134
330
70
100
AcDbEntity
  8
0
100
AcDbBlockEnd
  0
BLOCK
  5
1F7
330
135
100
AcDbEntity
  8
0
100
AcDbBlockBegin
  2
SE1
 70
     0
 10
0.0
 20
0.0
 30
0.0
  3
SE1
  1

  0
LINE
  5
137
330
135
100
AcDbEntity
  8
HELIBOTTOMCAP
  6
Continuous
 62
     7
100
AcDbLine
 10
58.676529607
 20
263.1020251755
 30
0.0
 11
62.294255967
 21
263.1020251755
 31
0.0
  0
LINE
  5
138
330
135
100
AcDbEntity
  8
HELIBOTTOMCAP
  6
Continuous
 62
     7
100
AcDbLine
 10
79.9269260609
 20
263.1020251755
 30
0.0
 11
79.9304968891
 21
263.1020251755
 31
0.0
  0
LINE
  5
139
330
135
100
AcDbEntity
  8
HELIBOTTOMCAP
  6
Continuous
 62
     7
100
AcDbLine
 10
85.9317266554
 20
263.1020251755
 30
0.0
 11
96.1761778253
 21
263.1020251755
 31
0.0
  0
LINE
  5
13A
330
135
100
AcDbEntity
  8
HELIBOTTOMCAP
  6
Continuous
 62
     7
100
AcDbLine
 10
96.1761778253
 20
263.1020251755
 30
0.0
 11
97.2643831245
 21
263.1020251755
 31
0.0
  0
LINE
  5
13B
330
135
100
AcDbEntity
  8
HELIBOTTOMCAP
  6
Continuous
 62
     7
100
AcDbLine
 10
101.1765295019
 20
261.6020251755
 30
0.0
 11
96.1761778253
 21
261.6020251755
 31
0.0
  0
LINE
  5
13C
330
135
100
AcDbEntity
  8
HELIBOTTOMCAP
  6
Continuous
 62
     7
100
AcDbLine
 10
96.1761778253
 20
261.6020251755
 30
0.0
 11
63.6761779057
 21
261.6020251755
 31
0.0
  0
LINE
  5
13D
330
135
100
AcDbEntity
  8
HELIBOTTOMCAP
  6
Continuous
 62
     7
100
AcDbLine
 10
63.6761779057
 20
261.6020251755
 30
0.0
 11
58.676529607
 21
261.6020251755
 31
0.0
  0
LINE
  5
13E
330
135
100
AcDbEntity
  8
HELIBOTTOMCAP
  6
Continuous
 62
     7
100
AcDbLine
 10
58.676529607
 20
261.6020251755
 30
0.0
 11
58.676529607
 21
263.1020251755
 31
0.0
  0
LINE
  5
13F
330
135
100
AcDbEntity
  8
HELIBOTTOMCAP
  6
Continuous
 62
     7
100
AcDbLine
 10
101.17881548
 20
261.6020251755
 30
0.0
 11
101.17881548
 21
263.1020251755
 31
0.0
  0
LINE
  5
140
330
135
100
AcDbEntity
  8
HELIBOTTOMCAP
  6
Continuous
 62
     7
100
AcDbLine
 10
101.17881548
 20
261.6020251755
 30
0.0
 11
101.1765295019
 21
261.6020251755
 31
0.0
  0
LINE
  5
141
330
135
100
AcDbEntity
  8
HELIBOTTOMCAP
  6
Continuous
 62
     7
100
AcDbLine
 10
95.6399272134
 20
280.1020251755
 30
0.0
 11
94.7234120744
 21
280.1020251755
 31
0.0
  0
LINE
  5
142
330
135
100
AcDbEntity
  8
REVISEDGEARBOXCA
  6
Continuous
 62
     7
100
AcDbLine
 10
79.9304968891
 20
297.1020251755
 30
0.0
 11
79.9311950139
 21
297.1020251755
 31
0.0
  0
LINE
  5
143
330
135
100
AcDbEntity
  8
REVISEDGEARBOXCA
  6
Continuous
 62
     7
100
AcDbLine
 10
79.9304968891
 20
263.1020251755
 30
0.0
 11
79.9311950139
 21
263.1020251755
 31
0.0
  0
LINE
  5
144
330
135
100
AcDbEntity
  8
REVISEDGEARBOXCA
  6
Continuous
 62
     7
100
AcDbLine
 10
79.9304968891
 20
297.1020251755
 30
0.0
 11
79.9304968891
 21
263.1020251755
 31
0.0
  0
ELLIPSE
  5
145
330
135
100
AcDbEntity
  8
REVISEDGEARBOXCA
  6
Continuous
 62
     7
100
AcDbEllipse
 10
79.9311282134
 20
292.5994819217
 30
0.0
 11
2.202285662861181E-17
 21
2.050000000000003
 31
0.0
210
0.0
220
0.0
230
1.0
 40
0.0001329104
 41
0.0
 42
6.283185307179586
  0
ELLIPSE
  5
146
330
135
100
AcDbEntity
  8
REVISEDGEARBOXCA
  6
Continuous
 62
     7
100
AcDbEllipse
 10
79.9311282134
 20
267.6011505538
 30
0.0
 11
2.159934015498466E-17
 21
2.049999999999998
 31
0.0
210
0.0
220
0.0
230
1.0
 40
0.0001329104
 41
0.0
 42
6.283185307179586
  0
LINE
  5
147
330
135
100
AcDbEntity
  8
REVISEDGEARBOXCA
  6
Continuous
 62
     7
100
AcDbLine
 10
79.9311950139
 20
297.1020251755
 30
0.0
 11
85.9317266554
 21
297.1020251755
 31
0.0
  0
LINE
  5
148
330
135
100
AcDbEntity
  8
REVISEDGEARBOXCA
  6
Continuous
 62
     7
100
AcDbLine
 10
85.9317266554
 20
293.1020251755
 30
0.0
 11
85.9317266554
 21
267.1020251755
 31
0.0
  0
LINE
  5
149
330
135
100
AcDbEntity
  8
REVISEDGEARBOXCA
  6
Continuous
 62
     7
100
AcDbLine
 10
85.9317266554
 20
297.1020251755
 30
0.0
 11
85.9317266554
 21
293.1020251755
 31
0.0
  0
LINE
  5
14A
330
135
100
AcDbEntity
  8
REVISEDGEARBOXCA
  6
Continuous
 62
     7
100
AcDbLine
 10
79.9317266554
 20
293.1020251755
 30
0.0
 11
79.9317266554
 21
267.1020251755
 31
0.0
  0
ELLIPSE
  5
14B
330
135
100
AcDbEntity
  8
REVISEDGEARBOXCA
  6
Continuous
 62
     7
100
AcDbEllipse
 10
79.9311950139
 20
293.1020251755
 30
0.0
 11
-4.235164736271502E-17
 21
-4.000000000000004
 31
0.0
210
0.0
220
0.0
230
1.0
 40
0.0001329104
 41
1.570796326794897
 42
3.141592653589793
  0
LINE
  5
14C
330
135
100
AcDbEntity
  8
REVISEDGEARBOXCA
  6
Continuous
 62
     7
100
AcDbLine
 10
85.9317266554
 20
267.1020251755
 30
0.0
 11
85.9317266554
 21
263.1020251755
 31
0.0
  0
LINE
  5
14D
330
135
100
AcDbEntity
  8
REVISEDGEARBOXCA
  6
Continuous
 62
     7
100
AcDbLine
 10
85.9317266554
 20
263.1020251755
 30
0.0
 11
79.9311950139
 21
263.1020251755
 31
0.0
  0
ELLIPSE
  5
14E
330
135
100
AcDbEntity
  8
REVISEDGEARBOXCA
  6
Continuous
 62
     7
100
AcDbEllipse
 10
79.9311950139
 20
267.1020251755
 30
0.0
 11
-4.235164736271502E-17
 21
-3.999999999999999
 31
0.0
210
0.0
220
0.0
230
1.0
 40
0.0001329104
 41
0.0000000000000797
 42
1.570796326794897
  0
LINE
  5
14F
330
135
100
AcDbEntity
  8
REVISEDGEARBOXCA
  6
Continuous
 62
     7
100
AcDbLine
 10
105.7638302224
 20
296.6020251755
 30
0.0
 11
105.7638302224
 21
263.6020251755
 31
0.0
  0
LINE
  5
150
330
135
100
AcDbEntity
  8
REVISEDGEARBOXCA
  6
Continuous
 62
     7
100
AcDbLine
 10
63.6804968891
 20
263.1020251755
 30
0.0
 11
79.9304968891
 21
263.1020251755
 31
0.0
  0
LINE
  5
151
330
135
100
AcDbEntity
  8
REVISEDGEARBOXCA
  6
Continuous
 62
     7
100
AcDbLine
 10
63.6804968891
 20
297.1020251755
 30
0.0
 11
79.9304968891
 21
297.1020251755
 31
0.0
  0
LINE
  5
152
330
135
100
AcDbEntity
  8
REVISEDGEARBOXCA
  6
Continuous
 62
     7
100
AcDbLine
 10
63.6804968891
 20
263.1020251755
 30
0.0
 11
62.294255967
 21
263.1020251755
 31
0.0
  0
LINE
  5
153
330
135
100
AcDbEntity
  8
REVISEDGEARBOXCA
  6
Continuous
 62
     7
100
AcDbLine
 10
58.6804968891
 20
263.1020251755
 30
0.0
 11
58.6804968891
 21
297.1020251755
 31
0.0
  0
LINE
  5
154
330
135
100
AcDbEntity
  8
REVISEDGEARBOXCA
  6
Continuous
 62
     7
100
AcDbLine
 10
62.0218576731
 20
297.1020251755
 30
0.0
 11
63.6804968891
 21
297.1020251755
 31
0.0
  0
LINE
  5
155
330
135
100
AcDbEntity
  8
REVISEDGEARBOXCA
  6
Continuous
 62
     7
100
AcDbLine
 10
101.1816696439
 20
282.963405961
 30
0.0
 11
101.1816696439
 21
277.2406443899
 31
0.0
  0
LINE
  5
156
330
135
100
AcDbEntity
  8
REVISEDGEARBOXCA
  6
Continuous
 62
     7
100
AcDbLine
 10
101.1816696439
 20
277.2406443899
 30
0.0
 11
101.1816696439
 21
263.1020251755
 31
0.0
  0
LINE
  5
157
330
135
100
AcDbEntity
  8
REVISEDGEARBOXCA
  6
Continuous
 62
     7
100
AcDbLine
 10
101.1816696439
 20
297.1020251755
 30
0.0
 11
101.1816696439
 21
282.963405961
 31
0.0
  0
LINE
  5
158
330
135
100
AcDbEntity
  8
REVISEDGEARBOXCA
  6
Continuous
 62
     7
100
AcDbLine
 10
101.1816696439
 20
263.1020251755
 30
0.0
 11
97.2643831245
 21
263.1020251755
 31
0.0
  0
LINE
  5
159
330
135
100
AcDbEntity
  8
REVISEDGEARBOXCA
  6
Continuous
 62
     7
100
AcDbLine
 10
97.5116784724
 20
297.1020251755
 30
0.0
 11
101.1816696439
 21
297.1020251755
 31
0.0
  0
CIRCLE
  5
15A
330
135
100
AcDbEntity
  8
REVISEDGEARBOXCA
  6
Continuous
 62
     7
100
AcDbCircle
 10
95.1816696439
 20
281.1020251755
 30
0.0
 40
1.1
  0
LINE
  5
15B
330
135
100
AcDbEntity
  8
REVISEDGEARBOXCA
  6
Continuous
 62
     7
100
AcDbLine
 10
105.7638302224
 20
296.6020251755
 30
0.0
 11
101.1816696439
 21
296.6020251755
 31
0.0
  0
LINE
  5
15C
330
135
100
AcDbEntity
  8
HELIOUTPUTSHAFT
  6
Continuous
 62
     7
100
AcDbLine
 10
83.8976725435
 20
368.8020251755
 30
0.0
 11
75.9576725435
 21
368.8020251755
 31
0.0
  0
LINE
  5
15D
330
135
100
AcDbEntity
  8
HELIOUTPUTSHAFT
  6
Continuous
 62
     7
100
AcDbLine
 10
83.5976725435
 20
369.1020251755
 30
0.0
 11
76.2576725435
 21
369.1020251755
 31
0.0
  0
LINE
  5
15E
330
135
100
AcDbEntity
  8
HELIOUTPUTSHAFT
  6
Continuous
 62
     7
100
AcDbLine
 10
84.6776725435
 20
346.9520251755
 30
0.0
 11
75.1776725435
 21
346.9520251755
 31
0.0
  0
LINE
  5
15F
330
135
100
AcDbEntity
  8
HELIOUTPUTSHAFT
  6
Continuous
 62
     7
100
AcDbLine
 10
84.5276725435
 20
347.1020251755
 30
0.0
 11
75.3276725435
 21
347.1020251755
 31
0.0
  0
LINE
  5
160
330
135
100
AcDbEntity
  8
HELIOUTPUTSHAFT
  6
Continuous
 62
     7
100
AcDbLine
 10
84.6776725435
 20
337.3020251755
 30
0.0
 11
84.6776725435
 21
346.9520251755
 31
0.0
  0
LINE
  5
161
330
135
100
AcDbEntity
  8
HELIOUTPUTSHAFT
  6
Continuous
 62
     7
100
AcDbLine
 10
75.1776725435
 20
346.9520251755
 30
0.0
 11
75.1776725435
 21
337.3020251755
 31
0.0
  0
LINE
  5
162
330
135
100
AcDbEntity
  8
HELIOUTPUTSHAFT
  6
Continuous
 62
     7
100
AcDbLine
 10
83.8976725435
 20
347.1020251755
 30
0.0
 11
83.8976725435
 21
368.8020251755
 31
0.0
  0
LINE
  5
163
330
135
100
AcDbEntity
  8
HELIOUTPUTSHAFT
  6
Continuous
 62
     7
100
AcDbLine
 10
75.9576725435
 20
368.8020251755
 30
0.0
 11
75.9576725435
 21
347.1020251755
 31
0.0
  0
LINE
  5
164
330
135
100
AcDbEntity
  8
HELIOUTPUTSHAFT
  6
Continuous
 62
     7
100
AcDbLine
 10
83.8976725435
 20
368.8020251755
 30
0.0
 11
83.5976725435
 21
369.1020251755
 31
0.0
  0
LINE
  5
165
330
135
100
AcDbEntity
  8
HELIOUTPUTSHAFT
  6
Continuous
 62
     7
100
AcDbLine
 10
76.2576725435
 20
369.1020251755
 30
0.0
 11
75.9576725435
 21
368.8020251755
 31
0.0
  0
LINE
  5
166
330
135
100
AcDbEntity
  8
HELIOUTPUTSHAFT
  6
Continuous
 62
     7
100
AcDbLine
 10
84.6776725435
 20
346.9520251755
 30
0.0
 11
84.5276725435
 21
347.1020251755
 31
0.0
  0
LINE
  5
167
330
135
100
AcDbEntity
  8
HELIOUTPUTSHAFT
  6
Continuous
 62
     7
100
AcDbLine
 10
75.3276725435
 20
347.1020251755
 30
0.0
 11
75.1776725435
 21
346.9520251755
 31
0.0
  0
LINE
  5
168
330
135
100
AcDbEntity
  8
HELI_OUTPUT_TUNN
  6
Continuous
 62
     7
100
AcDbLine
 10
63.6756742531
 20
300.6020251755
 30
0.0
 11
58.6761444781
 21
300.6020251755
 31
0.0
  0
LINE
  5
169
330
135
100
AcDbEntity
  8
HELI_OUTPUT_TUNN
  6
Continuous
 62
     7
100
AcDbLine
 10
96.1756741094
 20
300.6020251755
 30
0.0
 11
63.6756742531
 21
300.6020251755
 31
0.0
  0
LINE
  5
16A
330
135
100
AcDbEntity
  8
HELI_OUTPUT_TUNN
  6
Continuous
 62
     7
100
AcDbLine
 10
101.1761442902
 20
300.6020251755
 30
0.0
 11
96.1756741094
 21
300.6020251755
 31
0.0
  0
LINE
  5
16B
330
135
100
AcDbEntity
  8
HELI_OUTPUT_TUNN
  6
Continuous
 62
     7
100
AcDbLine
 10
101.1792006089
 20
300.6020251755
 30
0.0
 11
101.1761442902
 21
300.6020251755
 31
0.0
  0
LINE
  5
16C
330
135
100
AcDbEntity
  8
HELI_OUTPUT_TUNN
  6
Continuous
 62
     7
100
AcDbLine
 10
96.1756741094
 20
297.1020251755
 30
0.0
 11
97.5116784724
 21
297.1020251755
 31
0.0
  0
LINE
  5
16D
330
135
100
AcDbEntity
  8
HELI_OUTPUT_TUNN
  6
Continuous
 62
     7
100
AcDbLine
 10
79.9266733674
 20
297.1020251755
 30
0.0
 11
79.9304968891
 21
297.1020251755
 31
0.0
  0
LINE
  5
16E
330
135
100
AcDbEntity
  8
HELI_OUTPUT_TUNN
  6
Continuous
 62
     7
100
AcDbLine
 10
85.9317266554
 20
297.1020251755
 30
0.0
 11
96.1756741094
 21
297.1020251755
 31
0.0
  0
LINE
  5
16F
330
135
100
AcDbEntity
  8
HELI_OUTPUT_TUNN
  6
Continuous
 62
     7
100
AcDbLine
 10
58.6761444781
 20
297.1020251755
 30
0.0
 11
62.0218576731
 21
297.1020251755
 31
0.0
  0
LINE
  5
170
330
135
100
AcDbEntity
  8
HELI_OUTPUT_TUNN
  6
Continuous
 62
     7
100
AcDbLine
 10
101.1792006089
 20
300.6020251755
 30
0.0
 11
101.1792006089
 21
297.1020251755
 31
0.0
  0
LINE
  5
171
330
135
100
AcDbEntity
  8
HELI_OUTPUT_TUNN
  6
Continuous
 62
     7
100
AcDbLine
 10
58.6761444781
 20
300.6020251755
 30
0.0
 11
58.6761444781
 21
297.1020251755
 31
0.0
  0
LINE
  5
172
330
135
100
AcDbEntity
  8
HELI_OUTPUT_TUNN
  6
Continuous
 62
     7
100
AcDbLine
 10
93.4276725435
 20
336.5020251755
 30
0.0
 11
66.4276725435
 21
336.5020251755
 31
0.0
  0
LINE
  5
173
330
135
100
AcDbEntity
  8
HELI_OUTPUT_TUNN
  6
Continuous
 62
     7
100
AcDbLine
 10
93.4276725435
 20
306.1020251755
 30
0.0
 11
93.4276725435
 21
336.5020251755
 31
0.0
  0
LINE
  5
174
330
135
100
AcDbEntity
  8
HELI_OUTPUT_TUNN
  6
Continuous
 62
     7
100
AcDbLine
 10
66.4276725435
 20
336.5020251755
 30
0.0
 11
66.4276725435
 21
306.1020251755
 31
0.0
  0
ARC
  5
175
330
135
100
AcDbEntity
  8
HELI_OUTPUT_TUNN
  6
Continuous
 62
     7
100
AcDbCircle
 10
98.9276725435
 20
306.1020251755
 30
0.0
 40
5.500000000000005
100
AcDbArc
 50
180.0
 51
270.0
  0
ARC
  5
176
330
135
100
AcDbEntity
  8
HELI_OUTPUT_TUNN
  6
Continuous
 62
     7
100
AcDbCircle
 10
60.9276725435
 20
306.1020251755
 30
0.0
 40
5.500000000000004
100
AcDbArc
 50
270.0
 51
0.0
  0
CIRCLE
  5
177
330
135
100
AcDbEntity
  8
TP_LUBE_FITTING
  6
Continuous
 62
     7
100
AcDbCircle
 10
95.1816696439
 20
281.1020251755
 30
0.0
 40
1.149999999999999
  0
LINE
  5
178
330
135
100
AcDbEntity
  8
TP_LUBE_FITTING
  6
Continuous
 62
     7
100
AcDbLine
 10
97.8809079414
 20
283.2732259062
 30
0.0
 11
94.6509738032
 21
284.5252344774
 31
0.0
  0
LINE
  5
179
330
135
100
AcDbEntity
  8
TP_LUBE_FITTING
  6
Continuous
 62
     7
100
AcDbLine
 10
98.4116037822
 20
279.8500166043
 30
0.0
 11
97.8809079414
 21
283.2732259062
 31
0.0
  0
LINE
  5
17A
330
135
100
AcDbEntity
  8
TP_LUBE_FITTING
  6
Continuous
 62
     7
100
AcDbLine
 10
95.7123654847
 20
277.6788158736
 30
0.0
 11
98.4116037822
 21
279.8500166043
 31
0.0
  0
LINE
  5
17B
330
135
100
AcDbEntity
  8
TP_LUBE_FITTING
  6
Continuous
 62
     7
100
AcDbLine
 10
92.4824313464
 20
278.9308244447
 30
0.0
 11
95.7123654847
 21
277.6788158736
 31
0.0
  0
LINE
  5
17C
330
135
100
AcDbEntity
  8
TP_LUBE_FITTING
  6
Continuous
 62
     7
100
AcDbLine
 10
91.9517355056
 20
282.3540337466
 30
0.0
 11
92.4824313464
 21
278.9308244447
 31
0.0
  0
LINE
  5
17D
330
135
100
AcDbEntity
  8
TP_LUBE_FITTING
  6
Continuous
 62
     7
100
AcDbLine
 10
94.6509738032
 20
284.5252344774
 30
0.0
 11
91.9517355056
 21
282.3540337466
 31
0.0
  0
LINE
  5
17E
330
135
100
AcDbEntity
  8
X45MASS
  6
Continuous
 62
     7
100
AcDbLine
 10
296.2651360212
 20
250.1782305415
 30
0.0
 11
296.2651360212
 21
309.9258198094
 31
0.0
  0
LINE
  5
17F
330
135
100
AcDbEntity
  8
X45MASS
  6
Continuous
 62
     7
100
AcDbLine
 10
303.0727065568
 20
251.9622884026
 30
0.0
 11
303.0727065568
 21
308.1417619483
 31
0.0
  0
LINE
  5
180
330
135
100
AcDbEntity
  8
X45MASS
  6
Continuous
 62
     7
100
AcDbLine
 10
331.7123778684
 20
270.0520257791
 30
0.0
 11
331.7123778684
 21
290.0520245718
 31
0.0
  0
LINE
  5
181
330
135
100
AcDbEntity
  8
X45MASS
  6
Continuous
 62
     7
100
AcDbLine
 10
331.8145399293
 20
270.0520257668
 30
0.0
 11
331.8145399293
 21
290.0520245841
 31
0.0
  0
LINE
  5
182
330
135
100
AcDbEntity
  8
X45MASS
  6
Continuous
 62
     7
100
AcDbLine
 10
335.7145402189
 20
272.4520252961
 30
0.0
 11
335.7145402189
 21
287.6520250548
 31
0.0
  0
LINE
  5
183
330
135
100
AcDbEntity
  8
X45MASS
  6
Continuous
 62
     7
100
AcDbLine
 10
336.7145403805
 20
273.7914105748
 30
0.0
 11
336.7145403805
 21
286.3126397761
 31
0.0
  0
LINE
  5
184
330
135
100
AcDbEntity
  8
X45MASS
  6
Continuous
 62
     7
100
AcDbLine
 10
203.1096372446
 20
254.052022315
 30
0.0
 11
203.1096372446
 21
306.0520280359
 31
0.0
  0
LINE
  5
185
330
135
100
AcDbEntity
  8
X45MASS
  6
Continuous
 62
     7
100
AcDbLine
 10
221.4533399336
 20
250.1207013878
 30
0.0
 11
221.4533399336
 21
309.9833489631
 31
0.0
  0
LINE
  5
186
330
135
100
AcDbEntity
  8
X45MASS
  6
Continuous
 62
     7
100
AcDbLine
 10
226.9533399336
 20
250.1207007241
 30
0.0
 11
226.9533399336
 21
309.9833496268
 31
0.0
  0
LINE
  5
187
330
135
100
AcDbEntity
  8
X45MASS
  6
Continuous
 62
     7
100
AcDbLine
 10
253.4533399336
 20
250.1206975261
 30
0.0
 11
253.4533399336
 21
309.9833528248
 31
0.0
  0
LINE
  5
188
330
135
100
AcDbEntity
  8
X45MASS
  6
Continuous
 62
     7
100
AcDbLine
 10
258.9533399336
 20
250.1206968624
 30
0.0
 11
258.9533399336
 21
309.9833534886
 31
0.0
  0
ARC
  5
189
330
135
100
AcDbEntity
  8
X45MASS
  6
Continuous
 62
     7
100
AcDbCircle
 10
296.2651376962
 20
264.0583454539
 30
0.0
 40
13.88011491240285
100
AcDbArc
 50
269.9999930856
 51
299.3704780604
  0
ARC
  5
18A
330
135
100
AcDbEntity
  8
X45MASS
  6
Continuous
 62
     7
100
AcDbCircle
 10
296.2651376962
 20
296.045704897
 30
0.0
 40
13.88011491240285
100
AcDbArc
 50
60.6295219396
 51
90.0000069144
  0
LINE
  5
18B
330
135
100
AcDbEntity
  8
X45MASS
  6
Continuous
 62
     7
100
AcDbLine
 10
303.0727065568
 20
251.9622884026
 30
0.0
 11
316.980177143
 21
253.6686720339
 31
0.0
  0
LINE
  5
18C
330
135
100
AcDbEntity
  8
X45MASS
  6
Continuous
 62
     7
100
AcDbLine
 10
316.980177143
 20
306.435378317
 30
0.0
 11
303.0727065568
 21
308.1417619483
 31
0.0
  0
ARC
  5
18D
330
135
100
AcDbEntity
  8
X45MASS
  6
Continuous
 62
     7
100
AcDbCircle
 10
314.9369669195
 20
270.3213669861
 30
0.0
 40
16.77757304227201
100
AcDbArc
 50
276.9949711908
 51
359.0801543638
  0
ARC
  5
18E
330
135
100
AcDbEntity
  8
X45MASS
  6
Continuous
 62
     7
100
AcDbCircle
 10
314.9369669195
 20
289.7826833648
 30
0.0
 40
16.77757304227205
100
AcDbArc
 50
0.9198456362
 51
83.0050288092
  0
LINE
  5
18F
330
135
100
AcDbEntity
  8
X45MASS
  6
Continuous
 62
     7
100
AcDbLine
 10
331.7123778684
 20
270.0520257729
 30
0.0
 11
331.8145399293
 21
270.0520257729
 31
0.0
  0
LINE
  5
190
330
135
100
AcDbEntity
  8
X45MASS
  6
Continuous
 62
     7
100
AcDbLine
 10
331.8145399293
 20
290.052024578
 30
0.0
 11
331.7123778684
 21
290.052024578
 31
0.0
  0
LINE
  5
191
330
135
100
AcDbEntity
  8
X45MASS
  6
Continuous
 62
     7
100
AcDbLine
 10
331.8145399293
 20
270.0520257668
 30
0.0
 11
335.7145402189
 21
272.4520252961
 31
0.0
  0
LINE
  5
192
330
135
100
AcDbEntity
  8
X45MASS
  6
Continuous
 62
     7
100
AcDbLine
 10
335.7145402189
 20
287.6520250548
 30
0.0
 11
331.8145399293
 21
290.0520245841
 31
0.0
  0
ARC
  5
193
330
135
100
AcDbEntity
  8
X45MASS
  6
Continuous
 62
     7
100
AcDbCircle
 10
335.4751549812
 20
273.7914107244
 30
0.0
 40
1.239385399351514
100
AcDbArc
 50
281.1365759746
 51
359.9999930856
  0
ARC
  5
194
330
135
100
AcDbEntity
  8
X45MASS
  6
Continuous
 62
     7
100
AcDbCircle
 10
335.4751549812
 20
286.3126396265
 30
0.0
 40
1.239385399351487
100
AcDbArc
 50
0.0000069144
 51
78.8634240254
  0
LINE
  5
195
330
135
100
AcDbEntity
  8
X45MASS
  6
Continuous
 62
     7
100
AcDbLine
 10
203.0813392305
 20
254.0520223467
 30
0.0
 11
203.1096372446
 21
254.0520223467
 31
0.0
  0
LINE
  5
196
330
135
100
AcDbEntity
  8
X45MASS
  6
Continuous
 62
     7
100
AcDbLine
 10
203.1096372446
 20
306.0520280042
 30
0.0
 11
203.0813392305
 21
306.0520280042
 31
0.0
  0
ARC
  5
197
330
135
100
AcDbEntity
  8
X45MASS
  6
Continuous
 62
     7
100
AcDbCircle
 10
207.5126573527
 20
254.5520217837
 30
0.0
 40
4.431318713534485
100
AcDbArc
 50
186.4786578337
 51
269.9999930856
  0
ARC
  5
198
330
135
100
AcDbEntity
  8
X45MASS
  6
Continuous
 62
     7
100
AcDbCircle
 10
207.5126573527
 20
305.5520285672
 30
0.0
 40
4.431318713534489
100
AcDbArc
 50
90.0000069144
 51
173.5213421663
  0
LINE
  5
199
330
135
100
AcDbEntity
  8
X45MASS
  6
Continuous
 62
     7
100
AcDbLine
 10
207.5126568179
 20
250.120702229
 30
0.0
 11
221.4533399336
 21
250.120702229
 31
0.0
  0
LINE
  5
19A
330
135
100
AcDbEntity
  8
X45MASS
  6
Continuous
 62
     7
100
AcDbLine
 10
221.4533399336
 20
309.9833481219
 30
0.0
 11
207.5126568179
 21
309.9833481219
 31
0.0
  0
LINE
  5
19B
330
135
100
AcDbEntity
  8
X45MASS
  6
Continuous
 62
     7
100
AcDbLine
 10
221.4533399472
 20
250.2335160146
 30
0.0
 11
226.9533399472
 21
250.2335160146
 31
0.0
  0
LINE
  5
19C
330
135
100
AcDbEntity
  8
X45MASS
  6
Continuous
 62
     7
100
AcDbLine
 10
226.9533399472
 20
309.8705343363
 30
0.0
 11
221.4533399472
 21
309.8705343363
 31
0.0
  0
LINE
  5
19D
330
135
100
AcDbEntity
  8
X45MASS
  6
Continuous
 62
     7
100
AcDbLine
 10
226.9533399336
 20
250.1206991251
 30
0.0
 11
253.4533399336
 21
250.1206991251
 31
0.0
  0
LINE
  5
19E
330
135
100
AcDbEntity
  8
X45MASS
  6
Continuous
 62
     7
100
AcDbLine
 10
253.4533399336
 20
309.9833512258
 30
0.0
 11
226.9533399336
 21
309.9833512258
 31
0.0
  0
LINE
  5
19F
330
135
100
AcDbEntity
  8
X45MASS
  6
Continuous
 62
     7
100
AcDbLine
 10
253.4533399467
 20
250.2290725221
 30
0.0
 11
258.9533399467
 21
250.2290725221
 31
0.0
  0
LINE
  5
1A0
330
135
100
AcDbEntity
  8
X45MASS
  6
Continuous
 62
     7
100
AcDbLine
 10
258.9533399467
 20
309.8749778289
 30
0.0
 11
253.4533399467
 21
309.8749778289
 31
0.0
  0
LINE
  5
1A1
330
135
100
AcDbEntity
  8
X45MASS
  6
Continuous
 62
     7
100
AcDbLine
 10
258.9533399336
 20
250.1206947168
 30
0.0
 11
265.5567580979
 21
250.1206947168
 31
0.0
  0
LINE
  5
1A2
330
135
100
AcDbEntity
  8
X45MASS
  6
Continuous
 62
     7
100
AcDbLine
 10
267.6789326674
 20
250.1206947168
 30
0.0
 11
269.9869089964
 21
250.1206947168
 31
0.0
  0
LINE
  5
1A3
330
135
100
AcDbEntity
  8
X45MASS
  6
Continuous
 62
     7
100
AcDbLine
 10
279.168565066
 20
250.1206947168
 30
0.0
 11
294.5123790419
 21
250.1206947168
 31
0.0
  0
LINE
  5
1A4
330
135
100
AcDbEntity
  8
X45MASS
  6
Continuous
 62
     7
100
AcDbLine
 10
294.5123790419
 20
309.9833556342
 30
0.0
 11
280.5313398332
 21
309.9833556342
 31
0.0
  0
LINE
  5
1A5
330
135
100
AcDbEntity
  8
X45MASS
  6
Continuous
 62
     7
100
AcDbLine
 10
279.0313398332
 20
309.9833556342
 30
0.0
 11
258.9533399336
 21
309.9833556342
 31
0.0
  0
ARC
  5
1A6
330
135
100
AcDbEntity
  8
X45MASS
  6
Continuous
 62
     7
100
AcDbCircle
 10
294.5123794626
 20
253.6070092045
 30
0.0
 40
3.48631663331683
100
AcDbArc
 50
269.9999930856
 51
300.1823135593
  0
ARC
  5
1A7
330
135
100
AcDbEntity
  8
X45MASS
  6
Continuous
 62
     7
100
AcDbCircle
 10
294.5123794626
 20
306.4970411464
 30
0.0
 40
3.486316633316845
100
AcDbArc
 50
59.8176864407
 51
90.0000069144
  0
ELLIPSE
  5
1A8
330
135
100
AcDbEntity
  8
FESTOCOLM5T4
  6
Continuous
 62
     7
100
AcDbEllipse
 10
279.2313398332
 20
253.2136869605
 30
0.0
 11
-3.000000000000003
 21
-1.214306433183765E-14
 31
0.0
210
0.0
220
0.0
230
1.0
 40
0.7167376113
 41
1.608648406381663
 42
4.531684331280838
  0
ELLIPSE
  5
1A9
330
135
100
AcDbEntity
  8
FESTOCOLM5T4
  6
Continuous
 62
     7
100
AcDbEllipse
 10
279.2313398332
 20
255.6543873023
 30
0.0
 11
-3.000000000000003
 21
-8.673617379884033E-16
 31
0.0
210
0.0
220
0.0
230
1.0
 40
0.7167376113
 41
3.141592653589793
 42
5.329602510099329
  0
LINE
  5
1AA
330
135
100
AcDbEntity
  8
FESTOCOLM5T4
  6
Continuous
 62
     7
100
AcDbLine
 10
283.8055840783
 20
259.1705172396
 30
0.0
 11
282.0727337211
 21
262.2391724651
 31
0.0
  0
LINE
  5
1AB
330
135
100
AcDbEntity
  8
FESTOCOLM5T4
  6
Continuous
 62
     7
100
AcDbLine
 10
282.0727337211
 20
262.2391724651
 30
0.0
 11
277.4984894761
 21
262.6978973701
 31
0.0
  0
LINE
  5
1AC
330
135
100
AcDbEntity
  8
FESTOCOLM5T4
  6
Continuous
 62
     7
100
AcDbLine
 10
277.4984894761
 20
262.6978973701
 30
0.0
 11
274.6570955882
 21
260.0879670496
 31
0.0
  0
LINE
  5
1AD
330
135
100
AcDbEntity
  8
FESTOCOLM5T4
  6
Continuous
 62
     7
100
AcDbLine
 10
274.6570955882
 20
260.0879670496
 30
0.0
 11
274.6570955882
 21
257.6924754308
 31
0.0
  0
LINE
  5
1AE
330
135
100
AcDbEntity
  8
FESTOCOLM5T4
  6
Continuous
 62
     7
100
AcDbLine
 10
277.4984894761
 20
262.6978973701
 30
0.0
 11
277.4984894761
 21
258.7230425277
 31
0.0
  0
LINE
  5
1AF
330
135
100
AcDbEntity
  8
FESTOCOLM5T4
  6
Continuous
 62
     7
100
AcDbLine
 10
282.0727337211
 20
262.2391724651
 30
0.0
 11
282.0727337211
 21
258.2643176227
 31
0.0
  0
LINE
  5
1B0
330
135
100
AcDbEntity
  8
FESTOCOLM5T4
  6
Continuous
 62
     7
100
AcDbLine
 10
283.8055840783
 20
259.1705172396
 30
0.0
 11
283.8055840783
 21
255.1956623973
 31
0.0
  0
LINE
  5
1B1
330
135
100
AcDbEntity
  8
FESTOCOLM5T4
  6
Continuous
 62
     7
100
AcDbLine
 10
276.2072796498
 20
257.5370162996
 30
0.0
 11
277.4984894761
 21
258.7230425277
 31
0.0
  0
LINE
  5
1B2
330
135
100
AcDbEntity
  8
FESTOCOLM5T4
  6
Continuous
 62
     7
100
AcDbLine
 10
277.4984894761
 20
258.7230425277
 30
0.0
 11
282.0727337211
 21
258.2643176227
 31
0.0
  0
LINE
  5
1B3
330
135
100
AcDbEntity
  8
FESTOCOLM5T4
  6
Continuous
 62
     7
100
AcDbLine
 10
282.0727337211
 20
258.2643176227
 30
0.0
 11
283.8055840783
 21
255.1956623973
 31
0.0
  0
LINE
  5
1B4
330
135
100
AcDbEntity
  8
FESTOCOLM5T4
  6
Continuous
 62
     7
100
AcDbLine
 10
283.8055840783
 20
255.1956623973
 30
0.0
 11
282.2313398332
 21
253.7496580948
 31
0.0
  0
ELLIPSE
  5
1B5
330
135
100
AcDbEntity
  8
FESTOCOLM5T4
  6
Continuous
 62
     7
100
AcDbEllipse
 10
279.2313398332
 20
253.2136869605
 30
0.0
 11
0.3991352011970539
 21
3.980036569073885
 31
0.0
210
0.0
220
0.0
230
1.0
 40
0.0966293777
 41
3.141592653589792
 42
6.239080323917917
  0
SPLINE
  5
1B6
330
135
100
AcDbEntity
  8
FESTOCOLM5T4
  6
Continuous
 62
     7
100
AcDbSpline
210
0.0
220
0.0
230
1.0
 70
     8
 71
     3
 72
    10
 73
     6
 74
     0
 42
0.000000001
 43
0.0000000001
 40
0.0
 40
0.0
 40
0.0
 40
0.0
 40
0.25
 40
0.25
 40
0.310678174824091
 40
0.310678174824091
 40
0.310678174824091
 40
0.310678174824091
 10
279.6470436572515
 20
257.1881525771237
 30
0.0
 10
279.4160597112684
 20
257.2113166416124
 30
0.0
 10
279.1897038146624
 20
257.2363061761432
 30
0.0
 10
278.9126582718322
 20
257.2655102407835
 30
0.0
 10
278.8586605159805
 20
257.2711110965935
 30
0.0
 10
278.8051473894305
 20
257.2764885528223
 30
0.0
  0
ELLIPSE
  5
1B7
330
135
100
AcDbEntity
  8
FESTOCOLM5T4
  6
Continuous
 62
     7
100
AcDbEllipse
 10
266.1883917473
 20
254.5216899444
 30
0.0
 11
0.4844503504529419
 21
4.830769385713423
 31
0.0
210
0.0
220
0.0
230
1.0
 40
0.0966293777
 41
0.0
 42
6.283185307179586
  0
ELLIPSE
  5
1B8
330
135
100
AcDbEntity
  8
FESTOCOLM5T4
  6
Continuous
 62
     7
100
AcDbEllipse
 10
267.871991728
 20
254.3528512905
 30
0.0
 11
0.4844503504529419
 21
4.830769385713423
 31
0.0
210
0.0
220
0.0
230
1.0
 40
0.0966293777
 41
3.141592653589793
 42
6.283185307179552
  0
ELLIPSE
  5
1B9
330
135
100
AcDbEntity
  8
FESTOCOLM5T4
  6
Continuous
 62
     7
100
AcDbEllipse
 10
266.1883917473
 20
254.5216899444
 30
0.0
 11
0.1995676005985547
 21
1.990018284536939
 31
0.0
210
0.0
220
0.0
230
1.0
 40
0.0966293777
 41
0.0
 42
6.283185307179586
  0
LINE
  5
1BA
330
135
100
AcDbEntity
  8
FESTOCOLM5T4
  6
Continuous
 62
     7
100
AcDbLine
 10
282.2313398332
 20
253.2136869605
 30
0.0
 11
282.2313398332
 21
255.6543873023
 31
0.0
  0
LINE
  5
1BB
330
135
100
AcDbEntity
  8
FESTOCOLM5T4
  6
Continuous
 62
     7
100
AcDbLine
 10
278.8057877177
 20
257.276426724
 30
0.0
 11
268.5356804793
 21
258.3063572906
 31
0.0
  0
LINE
  5
1BC
330
135
100
AcDbEntity
  8
FESTOCOLM5T4
  6
Continuous
 62
     7
100
AcDbLine
 10
267.7374100769
 20
250.3462841525
 30
0.0
 11
278.832204632
 21
249.2336503914
 31
0.0
  0
LINE
  5
1BD
330
135
100
AcDbEntity
  8
FESTOCOLM5T4
  6
Continuous
 62
     7
100
AcDbLine
 10
265.7039413969
 20
249.6909205587
 30
0.0
 11
267.3875413776
 21
249.5220819048
 31
0.0
  0
LINE
  5
1BE
330
135
100
AcDbEntity
  8
FESTOCOLM5T4
  6
Continuous
 62
     7
100
AcDbLine
 10
268.3564420785
 20
259.1836206762
 30
0.0
 11
266.6728420978
 21
259.3524593301
 31
0.0
  0
ELLIPSE
  5
1BF
330
135
100
AcDbEntity
  8
FESTOCOLM5T4
  6
Continuous
 62
     7
100
AcDbEllipse
 10
279.2313398332
 20
288.9797710989
 30
0.0
 11
-3.000000000000003
 21
-1.387778780781446E-14
 31
0.0
210
0.0
220
0.0
230
1.0
 40
0.9745636776
 41
1.570796326794892
 42
4.712388980384685
  0
ELLIPSE
  5
1C0
330
135
100
AcDbEntity
  8
FESTOCOLM5T4
  6
Continuous
 62
     7
100
AcDbEllipse
 10
279.2313398332
 20
288.195383395
 30
0.0
 11
-3.000000000000003
 21
-7.632783294297951E-14
 31
0.0
210
0.0
220
0.0
230
1.0
 40
0.9745636776
 41
1.570796326794872
 42
3.141592653589793
  0
LINE
  5
1C1
330
135
100
AcDbEntity
  8
FESTOCOLM5T4
  6
Continuous
 62
     7
100
AcDbLine
 10
276.9219387565
 20
283.0196972812
 30
0.0
 11
281.54074091
 21
283.0196972812
 31
0.0
  0
LINE
  5
1C2
330
135
100
AcDbEntity
  8
FESTOCOLM5T4
  6
Continuous
 62
     7
100
AcDbLine
 10
281.54074091
 20
283.0196972812
 30
0.0
 11
283.8501419868
 21
286.9179519915
 31
0.0
  0
LINE
  5
1C3
330
135
100
AcDbEntity
  8
FESTOCOLM5T4
  6
Continuous
 62
     7
100
AcDbLine
 10
275.7607533231
 20
284.9797710989
 30
0.0
 11
276.9219387565
 21
283.0196972812
 31
0.0
  0
LINE
  5
1C4
330
135
100
AcDbEntity
  8
FESTOCOLM5T4
  6
Continuous
 62
     7
100
AcDbLine
 10
283.8501419868
 20
286.9179519915
 30
0.0
 11
283.8501419868
 21
288.195383395
 31
0.0
  0
LINE
  5
1C5
330
135
100
AcDbEntity
  8
FESTOCOLM5T4
  6
Continuous
 62
     7
100
AcDbLine
 10
281.54074091
 20
283.0196972812
 30
0.0
 11
281.54074091
 21
284.2971286847
 31
0.0
  0
LINE
  5
1C6
330
135
100
AcDbEntity
  8
FESTOCOLM5T4
  6
Continuous
 62
     7
100
AcDbLine
 10
276.9219387565
 20
283.0196972812
 30
0.0
 11
276.9219387565
 21
284.2971286847
 31
0.0
  0
LINE
  5
1C7
330
135
100
AcDbEntity
  8
FESTOCOLM5T4
  6
Continuous
 62
     7
100
AcDbLine
 10
276.9219387565
 20
284.2971286847
 30
0.0
 11
276.5175282591
 21
284.9797710989
 31
0.0
  0
LINE
  5
1C8
330
135
100
AcDbEntity
  8
FESTOCOLM5T4
  6
Continuous
 62
     7
100
AcDbLine
 10
279.2313398332
 20
292.0936381052
 30
0.0
 11
281.54074091
 21
292.0936381052
 31
0.0
  0
LINE
  5
1C9
330
135
100
AcDbEntity
  8
FESTOCOLM5T4
  6
Continuous
 62
     7
100
AcDbLine
 10
281.54074091
 20
292.0936381052
 30
0.0
 11
283.8501419868
 21
288.195383395
 31
0.0
  0
LINE
  5
1CA
330
135
100
AcDbEntity
  8
FESTOCOLM5T4
  6
Continuous
 62
     7
100
AcDbLine
 10
283.8501419868
 20
288.195383395
 30
0.0
 11
281.54074091
 21
284.2971286847
 31
0.0
  0
LINE
  5
1CB
330
135
100
AcDbEntity
  8
FESTOCOLM5T4
  6
Continuous
 62
     7
100
AcDbLine
 10
281.54074091
 20
284.2971286847
 30
0.0
 11
276.9219387565
 21
284.2971286847
 31
0.0
  0
LINE
  5
1CC
330
135
100
AcDbEntity
  8
FESTOCOLM5T4
  6
Continuous
 62
     7
100
AcDbLine
 10
279.2313398332
 20
292.9797710989
 30
0.0
 11
279.2313398332
 21
284.9797710989
 31
0.0
  0
LINE
  5
1CD
330
135
100
AcDbEntity
  8
FESTOCOLM5T4
  6
Continuous
 62
     7
100
AcDbLine
 10
266.0613398332
 20
284.1247710989
 30
0.0
 11
266.0613398332
 21
293.8347710989
 31
0.0
  0
LINE
  5
1CE
330
135
100
AcDbEntity
  8
FESTOCOLM5T4
  6
Continuous
 62
     7
100
AcDbLine
 10
267.7613398332
 20
284.1247710989
 30
0.0
 11
267.7613398332
 21
293.8347710989
 31
0.0
  0
LINE
  5
1CF
330
135
100
AcDbEntity
  8
FESTOCOLM5T4
  6
Continuous
 62
     7
100
AcDbLine
 10
282.2313398332
 20
288.195383395
 30
0.0
 11
282.2313398332
 21
288.9797710989
 31
0.0
  0
LINE
  5
1D0
330
135
100
AcDbEntity
  8
FESTOCOLM5T4
  6
Continuous
 62
     7
100
AcDbLine
 10
279.2313398332
 20
292.9797710989
 30
0.0
 11
267.7613398332
 21
292.9797710989
 31
0.0
  0
LINE
  5
1D1
330
135
100
AcDbEntity
  8
FESTOCOLM5T4
  6
Continuous
 62
     7
100
AcDbLine
 10
267.7613398332
 20
284.9797710989
 30
0.0
 11
279.2313398332
 21
284.9797710989
 31
0.0
  0
LINE
  5
1D2
330
135
100
AcDbEntity
  8
FESTOCOLM5T4
  6
Continuous
 62
     7
100
AcDbLine
 10
266.0613398332
 20
284.1247710989
 30
0.0
 11
267.7613398332
 21
284.1247710989
 31
0.0
  0
LINE
  5
1D3
330
135
100
AcDbEntity
  8
FESTOCOLM5T4
  6
Continuous
 62
     7
100
AcDbLine
 10
267.7613398332
 20
293.8347710989
 30
0.0
 11
266.0613398332
 21
293.8347710989
 31
0.0
  0
LINE
  5
1D4
330
135
100
AcDbEntity
  8
PCB_X45
  6
Continuous
 62
     7
100
AcDbLine
 10
280.5313398332
 20
314.9654093445
 30
0.0
 11
280.5313398332
 21
308.16119719
 31
0.0
  0
LINE
  5
1D5
330
135
100
AcDbEntity
  8
PCB_X45
  6
Continuous
 62
     7
100
AcDbLine
 10
279.0313398332
 20
314.9654093445
 30
0.0
 11
279.0313398332
 21
308.16119719
 31
0.0
  0
LINE
  5
1D6
330
135
100
AcDbEntity
  8
PCB_X45
  6
Continuous
 62
     7
100
AcDbLine
 10
280.5313398332
 20
314.9654093445
 30
0.0
 11
279.0313398332
 21
314.9654093445
 31
0.0
  0
LINE
  5
1D7
330
135
100
AcDbEntity
  8
OUTWASHER
  6
Continuous
 62
     7
100
AcDbLine
 10
87.9276725435
 20
337.3020251755
 30
0.0
 11
71.9276725435
 21
337.3020251755
 31
0.0
  0
LINE
  5
1D8
330
135
100
AcDbEntity
  8
OUTWASHER
  6
Continuous
 62
     7
100
AcDbLine
 10
87.9276725435
 20
336.5020251755
 30
0.0
 11
87.9276725435
 21
337.3020251755
 31
0.0
  0
LINE
  5
1D9
330
135
100
AcDbEntity
  8
OUTWASHER
  6
Continuous
 62
     7
100
AcDbLine
 10
71.9276725435
 20
337.3020251755
 30
0.0
 11
71.9276725435
 21
336.5020251755
 31
0.0
  0
LINE
  5
1DA
330
135
100
AcDbEntity
  8
EXHAUSTNOU_R1
  6
Continuous
 62
     7
100
AcDbLine
 10
129.0725059764
 20
256.0726867613
 30
0.0
 11
129.0719623091
 21
258.052027174
 31
0.0
  0
LINE
  5
1DB
330
135
100
AcDbEntity
  8
EXHAUSTNOU_R1
  6
Continuous
 62
     7
100
AcDbLine
 10
129.0726147881
 20
304.0313636365
 30
0.0
 11
129.0733349845
 21
302.0520236266
 31
0.0
  0
CIRCLE
  5
1DC
330
135
100
AcDbEntity
  8
EXHAUSTNOU_R1
  6
Continuous
 62
     7
100
AcDbCircle
 10
129.0813398332
 20
280.0520251755
 30
0.0
 40
22.0
  0
ARC
  5
1DD
330
135
100
AcDbEntity
  8
EXHAUSTNOU_R1
  6
Continuous
 62
     7
100
AcDbCircle
 10
68.6524185992
 20
326.5367109766
 30
0.0
 40
54.23988709607498
100
AcDbArc
 50
322.5122311245
 51
327.5850378668
  0
ARC
  5
1DE
330
135
100
AcDbEntity
  8
EXHAUSTNOU_R1
  6
Continuous
 62
     7
100
AcDbCircle
 10
72.5921349827
 20
236.3857015635
 30
0.0
 40
49.39881744273411
100
AcDbArc
 50
32.107431575
 51
37.6758498685
  0
ARC
  5
1DF
330
135
100
AcDbEntity
  8
EXHAUSTNOU_R1
  6
Continuous
 62
     7
100
AcDbCircle
 10
188.4365204523
 20
234.0537225236
 30
0.0
 40
53.09295804903211
100
AcDbArc
 50
142.3454235732
 51
147.4032565351
  0
ARC
  5
1E0
330
135
100
AcDbEntity
  8
EXHAUSTNOU_R1
  6
Continuous
 62
     7
100
AcDbCircle
 10
187.8682753112
 20
325.6507809062
 30
0.0
 40
52.39894957858217
100
AcDbArc
 50
212.559267626
 51
217.6969462339
  0
LINE
  5
1E1
330
135
100
AcDbEntity
  8
2ONSTAGEMASS
  6
Continuous
 62
     7
100
AcDbLine
 10
201.8775929988
 20
306.1520251755
 30
0.0
 11
201.8775929988
 21
253.9520251755
 31
0.0
  0
LINE
  5
1E2
330
135
100
AcDbEntity
  8
2ONSTAGEMASS
  6
Continuous
 62
     7
100
AcDbLine
 10
201.5775929988
 20
305.8520251755
 30
0.0
 11
201.5775929988
 21
254.2520251755
 31
0.0
  0
LINE
  5
1E3
330
135
100
AcDbEntity
  8
2ONSTAGEMASS
  6
Continuous
 62
     7
100
AcDbLine
 10
197.9844125497
 20
301.0520251755
 30
0.0
 11
197.9844125497
 21
259.0520251755
 31
0.0
  0
LINE
  5
1E4
330
135
100
AcDbEntity
  8
2ONSTAGEMASS
  6
Continuous
 62
     7
100
AcDbLine
 10
177.8879555049
 20
308.3139183853
 30
0.0
 11
177.8879555049
 21
251.7901319656
 31
0.0
  0
LINE
  5
1E5
330
135
100
AcDbEntity
  8
2ONSTAGEMASS
  6
Continuous
 62
     7
100
AcDbLine
 10
105.8847750748
 20
310.0520251755
 30
0.0
 11
105.8847750748
 21
250.0520251755
 31
0.0
  0
LINE
  5
1E6
330
135
100
AcDbEntity
  8
2ONSTAGEMASS
  6
Continuous
 62
     7
100
AcDbLine
 10
203.0813392305
 20
306.1520251755
 30
0.0
 11
203.0813392305
 21
253.9520251755
 31
0.0
  0
LINE
  5
1E7
330
135
100
AcDbEntity
  8
2ONSTAGEMASS
  6
Continuous
 62
     7
100
AcDbLine
 10
201.8775929988
 20
306.1520251755
 30
0.0
 11
201.5775929988
 21
305.8520251755
 31
0.0
  0
LINE
  5
1E8
330
135
100
AcDbEntity
  8
2ONSTAGEMASS
  6
Continuous
 62
     7
100
AcDbLine
 10
201.5775929988
 20
254.2520251755
 30
0.0
 11
201.8775929988
 21
253.9520251755
 31
0.0
  0
LINE
  5
1E9
330
135
100
AcDbEntity
  8
2ONSTAGEMASS
  6
Continuous
 62
     7
100
AcDbLine
 10
201.5775929988
 20
301.0520251755
 30
0.0
 11
197.9844125497
 21
301.0520251755
 31
0.0
  0
LINE
  5
1EA
330
135
100
AcDbEntity
  8
2ONSTAGEMASS
  6
Continuous
 62
     7
100
AcDbLine
 10
197.9844125497
 20
259.0520251755
 30
0.0
 11
201.5775929988
 21
259.0520251755
 31
0.0
  0
LINE
  5
1EB
330
135
100
AcDbEntity
  8
2ONSTAGEMASS
  6
Continuous
 62
     7
100
AcDbLine
 10
177.8879555049
 20
251.7901319656
 30
0.0
 11
197.9844125497
 21
259.0520251755
 31
0.0
  0
LINE
  5
1EC
330
135
100
AcDbEntity
  8
2ONSTAGEMASS
  6
Continuous
 62
     7
100
AcDbLine
 10
197.9844125497
 20
301.0520251755
 30
0.0
 11
177.8879555049
 21
308.3139183853
 31
0.0
  0
ARC
  5
1ED
330
135
100
AcDbEntity
  8
2ONSTAGEMASS
  6
Continuous
 62
     7
100
AcDbCircle
 10
178.1874629124
 20
309.170950905
 30
0.0
 40
0.9078598058609745
100
AcDbArc
 50
187.8008481804
 51
250.736995982
  0
ARC
  5
1EE
330
135
100
AcDbEntity
  8
2ONSTAGEMASS
  6
Continuous
 62
     7
100
AcDbCircle
 10
178.1874629124
 20
250.9330994459
 30
0.0
 40
0.9078598058609793
100
AcDbArc
 50
109.263004018
 51
172.1991518197
  0
ARC
  5
1EF
330
135
100
AcDbEntity
  8
2ONSTAGEMASS
  6
Continuous
 62
     7
100
AcDbCircle
 10
176.1367386379
 20
308.8900056947
 30
0.0
 40
1.162019480727785
100
AcDbArc
 50
7.8008481826
 51
90.0
  0
ARC
  5
1F0
330
135
100
AcDbEntity
  8
2ONSTAGEMASS
  6
Continuous
 62
     7
100
AcDbCircle
 10
176.1367386379
 20
251.2140446562
 30
0.0
 40
1.162019480727791
100
AcDbArc
 50
270.0
 51
352.1991518174
  0
LINE
  5
1F1
330
135
100
AcDbEntity
  8
2ONSTAGEMASS
  6
Continuous
 62
     7
100
AcDbLine
 10
176.1367386379
 20
310.0520251755
 30
0.0
 11
105.8847750748
 21
310.0520251755
 31
0.0
  0
LINE
  5
1F2
330
135
100
AcDbEntity
  8
2ONSTAGEMASS
  6
Continuous
 62
     7
100
AcDbLine
 10
105.8847750748
 20
250.0520251755
 30
0.0
 11
176.1367386379
 21
250.0520251755
 31
0.0
  0
LINE
  5
1F3
330
135
100
AcDbEntity
  8
2ONSTAGEMASS
  6
Continuous
 62
     7
100
AcDbLine
 10
105.8847750748
 20
296.6020251755
 30
0.0
 11
101.1816696439
 21
296.6020251755
 31
0.0
  0
LINE
  5
1F4
330
135
100
AcDbEntity
  8
2ONSTAGEMASS
  6
Continuous
 62
     7
100
AcDbLine
 10
101.1816696439
 20
263.5020251755
 30
0.0
 11
105.8847750748
 21
263.5020251755
 31
0.0
  0
LINE
  5
1F5
330
135
100
AcDbEntity
  8
2ONSTAGEMASS
  6
Continuous
 62
     7
100
AcDbLine
 10
203.0813392305
 20
306.1520251755
 30
0.0
 11
201.8775929988
 21
306.1520251755
 31
0.0
  0
LINE
  5
1F6
330
135
100
AcDbEntity
  8
2ONSTAGEMASS
  6
Continuous
 62
     7
100
AcDbLine
 10
201.8775929988
 20
253.9520251755
 30
0.0
 11
203.0813392305
 21
253.9520251755
 31
0.0
  0
ENDBLK
  5
1F8
330
135
100
AcDbEntity
  8
0
100
AcDbBlockEnd
  0
BLOCK
  5
256
330
1F9
100
AcDbEntity
  8
0
100
AcDbBlockBegin
  2
SE2
 70
     0
 10
0.0
 20
0.0
 30
0.0
  3
SE2
  1

  0
LINE
  5
1FB
330
1F9
100
AcDbEntity
  8
HELIBOTTOMCAP
  6
Continuous
 62
     7
100
AcDbLine
 10
456.468295224
 20
263.1020251755
 30
0.0
 11
461.4679435227
 21
263.1020251755
 31
0.0
  0
LINE
  5
1FC
330
1F9
100
AcDbEntity
  8
HELIBOTTOMCAP
  6
Continuous
 62
     7
100
AcDbLine
 10
461.4679435227
 20
263.1020251755
 30
0.0
 11
493.9679434423
 21
263.1020251755
 31
0.0
  0
LINE
  5
1FD
330
1F9
100
AcDbEntity
  8
HELIBOTTOMCAP
  6
Continuous
 62
     7
100
AcDbLine
 10
493.9679434423
 20
263.1020251755
 30
0.0
 11
498.773429845
 21
263.1020251755
 31
0.0
  0
LINE
  5
1FE
330
1F9
100
AcDbEntity
  8
HELIBOTTOMCAP
  6
Continuous
 62
     7
100
AcDbLine
 10
498.9705810969
 20
261.6020251755
 30
0.0
 11
498.9705810969
 21
263.1020251755
 31
0.0
  0
LINE
  5
1FF
330
1F9
100
AcDbEntity
  8
HELIBOTTOMCAP
  6
Continuous
 62
     7
100
AcDbLine
 10
498.9705810969
 20
261.6020251755
 30
0.0
 11
498.9682951188
 21
261.6020251755
 31
0.0
  0
LINE
  5
200
330
1F9
100
AcDbEntity
  8
HELIBOTTOMCAP
  6
Continuous
 62
     7
100
AcDbLine
 10
498.9682951188
 20
261.6020251755
 30
0.0
 11
493.9679434423
 21
261.6020251755
 31
0.0
  0
LINE
  5
201
330
1F9
100
AcDbEntity
  8
HELIBOTTOMCAP
  6
Continuous
 62
     7
100
AcDbLine
 10
493.9679434423
 20
261.6020251755
 30
0.0
 11
461.4679435227
 21
261.6020251755
 31
0.0
  0
LINE
  5
202
330
1F9
100
AcDbEntity
  8
HELIBOTTOMCAP
  6
Continuous
 62
     7
100
AcDbLine
 10
461.4679435227
 20
261.6020251755
 30
0.0
 11
456.468295224
 21
261.6020251755
 31
0.0
  0
LINE
  5
203
330
1F9
100
AcDbEntity
  8
HELIBOTTOMCAP
  6
Continuous
 62
     7
100
AcDbLine
 10
456.468295224
 20
261.6020251755
 30
0.0
 11
456.468295224
 21
263.1020251755
 31
0.0
  0
LINE
  5
204
330
1F9
100
AcDbEntity
  8
REVISEDGEARBOXCA
  6
Continuous
 62
     7
100
AcDbLine
 10
498.9694381604
 20
297.1020251755
 30
0.0
 11
504.2220358662
 21
297.1020251755
 31
0.0
  0
LINE
  5
205
330
1F9
100
AcDbEntity
  8
REVISEDGEARBOXCA
  6
Continuous
 62
     7
100
AcDbLine
 10
498.9694381604
 20
263.1020251755
 30
0.0
 11
504.2220358662
 21
263.1020251755
 31
0.0
  0
CIRCLE
  5
206
330
1F9
100
AcDbEntity
  8
REVISEDGEARBOXCA
  6
Continuous
 62
     7
100
AcDbCircle
 10
451.7194381604
 20
292.6020251755
 30
0.0
 40
2.050000000000001
  0
CIRCLE
  5
207
330
1F9
100
AcDbEntity
  8
REVISEDGEARBOXCA
  6
Continuous
 62
     7
100
AcDbCircle
 10
451.7194381604
 20
267.6020251755
 30
0.0
 40
2.050000000000001
  0
CIRCLE
  5
208
330
1F9
100
AcDbEntity
  8
REVISEDGEARBOXCA
  6
Continuous
 62
     7
100
AcDbCircle
 10
503.7194381604
 20
292.5994819217
 30
0.0
 40
2.049999999999989
  0
CIRCLE
  5
209
330
1F9
100
AcDbEntity
  8
REVISEDGEARBOXCA
  6
Continuous
 62
     7
100
AcDbCircle
 10
503.7194381604
 20
267.6011505538
 30
0.0
 40
2.049999999999996
  0
LINE
  5
20A
330
1F9
100
AcDbEntity
  8
REVISEDGEARBOXCA
  6
Continuous
 62
     7
100
AcDbLine
 10
451.2181936689
 20
263.1020251755
 30
0.0
 11
456.468295224
 21
263.1020251755
 31
0.0
  0
ARC
  5
20B
330
1F9
100
AcDbEntity
  8
REVISEDGEARBOXCA
  6
Continuous
 62
     7
100
AcDbCircle
 10
451.2181936689
 20
267.1020251755
 30
0.0
 40
4.0
100
AcDbArc
 50
180.0
 51
270.0
  0
LINE
  5
20C
330
1F9
100
AcDbEntity
  8
REVISEDGEARBOXCA
  6
Continuous
 62
     7
100
AcDbLine
 10
451.2181936689
 20
297.1020251755
 30
0.0
 11
456.467910095
 21
297.1020251755
 31
0.0
  0
LINE
  5
20D
330
1F9
100
AcDbEntity
  8
REVISEDGEARBOXCA
  6
Continuous
 62
     7
100
AcDbLine
 10
447.2181936689
 20
293.1020251755
 30
0.0
 11
447.2181936689
 21
267.1020251755
 31
0.0
  0
ARC
  5
20E
330
1F9
100
AcDbEntity
  8
REVISEDGEARBOXCA
  6
Continuous
 62
     7
100
AcDbCircle
 10
451.2181936689
 20
293.1020251755
 30
0.0
 40
4.000000000000004
100
AcDbArc
 50
90.0
 51
180.0
  0
LINE
  5
20F
330
1F9
100
AcDbEntity
  8
REVISEDGEARBOXCA
  6
Continuous
 62
     7
100
AcDbLine
 10
508.2220358662
 20
293.1020251755
 30
0.0
 11
508.2220358662
 21
267.1020251755
 31
0.0
  0
ARC
  5
210
330
1F9
100
AcDbEntity
  8
REVISEDGEARBOXCA
  6
Continuous
 62
     7
100
AcDbCircle
 10
504.2220358662
 20
293.1020251755
 30
0.0
 40
4.000000000000004
100
AcDbArc
 50
0.0
 51
90.0
  0
ARC
  5
211
330
1F9
100
AcDbEntity
  8
REVISEDGEARBOXCA
  6
Continuous
 62
     7
100
AcDbCircle
 10
504.2220358662
 20
267.1020251755
 30
0.0
 40
4.0
100
AcDbArc
 50
270.0
 51
0.0
  0
LINE
  5
212
330
1F9
100
AcDbEntity
  8
REVISEDGEARBOXCA
  6
Continuous
 62
     7
100
AcDbLine
 10
456.4694381604
 20
263.1020251755
 30
0.0
 11
456.4694381604
 21
297.1020251755
 31
0.0
  0
LINE
  5
213
330
1F9
100
AcDbEntity
  8
REVISEDGEARBOXCA
  6
Continuous
 62
     7
100
AcDbLine
 10
498.9694381604
 20
297.1020251755
 30
0.0
 11
498.9694381604
 21
263.1020251755
 31
0.0
  0
LINE
  5
214
330
1F9
100
AcDbEntity
  8
REVISEDGEARBOXCA
  6
Continuous
 62
     7
100
AcDbLine
 10
498.9694381604
 20
263.1020251755
 30
0.0
 11
498.773429845
 21
263.1020251755
 31
0.0
  0
LINE
  5
215
330
1F9
100
AcDbEntity
  8
REVISEDGEARBOXCA
  6
Continuous
 62
     7
100
AcDbLine
 10
498.6863138161
 20
297.1020251755
 30
0.0
 11
498.9694381604
 21
297.1020251755
 31
0.0
  0
LINE
  5
216
330
1F9
100
AcDbEntity
  8
HELIOUTPUTSHAFT
  6
Continuous
 62
     7
100
AcDbLine
 10
473.7494381604
 20
368.8020251755
 30
0.0
 11
481.6894381604
 21
368.8020251755
 31
0.0
  0
LINE
  5
217
330
1F9
100
AcDbEntity
  8
HELIOUTPUTSHAFT
  6
Continuous
 62
     7
100
AcDbLine
 10
481.3894381604
 20
369.1020251755
 30
0.0
 11
474.0494381604
 21
369.1020251755
 31
0.0
  0
LINE
  5
218
330
1F9
100
AcDbEntity
  8
HELIOUTPUTSHAFT
  6
Continuous
 62
     7
100
AcDbLine
 10
472.9694381604
 20
346.9520251755
 30
0.0
 11
482.4694381604
 21
346.9520251755
 31
0.0
  0
LINE
  5
219
330
1F9
100
AcDbEntity
  8
HELIOUTPUTSHAFT
  6
Continuous
 62
     7
100
AcDbLine
 10
482.3194381604
 20
347.1020251755
 30
0.0
 11
473.1194381604
 21
347.1020251755
 31
0.0
  0
LINE
  5
21A
330
1F9
100
AcDbEntity
  8
HELIOUTPUTSHAFT
  6
Continuous
 62
     7
100
AcDbLine
 10
482.4694381604
 20
337.3020251755
 30
0.0
 11
482.4694381604
 21
346.9520251755
 31
0.0
  0
LINE
  5
21B
330
1F9
100
AcDbEntity
  8
HELIOUTPUTSHAFT
  6
Continuous
 62
     7
100
AcDbLine
 10
472.9694381604
 20
346.9520251755
 30
0.0
 11
472.9694381604
 21
337.3020251755
 31
0.0
  0
LINE
  5
21C
330
1F9
100
AcDbEntity
  8
HELIOUTPUTSHAFT
  6
Continuous
 62
     7
100
AcDbLine
 10
481.6894381604
 20
347.1020251755
 30
0.0
 11
481.6894381604
 21
368.8020251755
 31
0.0
  0
LINE
  5
21D
330
1F9
100
AcDbEntity
  8
HELIOUTPUTSHAFT
  6
Continuous
 62
     7
100
AcDbLine
 10
473.7494381604
 20
368.8020251755
 30
0.0
 11
473.7494381604
 21
347.1020251755
 31
0.0
  0
LINE
  5
21E
330
1F9
100
AcDbEntity
  8
HELIOUTPUTSHAFT
  6
Continuous
 62
     7
100
AcDbLine
 10
481.6894381604
 20
368.8020251755
 30
0.0
 11
481.3894381604
 21
369.1020251755
 31
0.0
  0
LINE
  5
21F
330
1F9
100
AcDbEntity
  8
HELIOUTPUTSHAFT
  6
Continuous
 62
     7
100
AcDbLine
 10
474.0494381604
 20
369.1020251755
 30
0.0
 11
473.7494381604
 21
368.8020251755
 31
0.0
  0
LINE
  5
220
330
1F9
100
AcDbEntity
  8
HELIOUTPUTSHAFT
  6
Continuous
 62
     7
100
AcDbLine
 10
482.4694381604
 20
346.9520251755
 30
0.0
 11
482.3194381604
 21
347.1020251755
 31
0.0
  0
LINE
  5
221
330
1F9
100
AcDbEntity
  8
HELIOUTPUTSHAFT
  6
Continuous
 62
     7
100
AcDbLine
 10
473.1194381604
 20
347.1020251755
 30
0.0
 11
472.9694381604
 21
346.9520251755
 31
0.0
  0
LINE
  5
222
330
1F9
100
AcDbEntity
  8
HELI_OUTPUT_TUNN
  6
Continuous
 62
     7
100
AcDbLine
 10
461.46743987
 20
300.6020251755
 30
0.0
 11
456.467910095
 21
300.6020251755
 31
0.0
  0
LINE
  5
223
330
1F9
100
AcDbEntity
  8
HELI_OUTPUT_TUNN
  6
Continuous
 62
     7
100
AcDbLine
 10
493.9674397263
 20
300.6020251755
 30
0.0
 11
461.46743987
 21
300.6020251755
 31
0.0
  0
LINE
  5
224
330
1F9
100
AcDbEntity
  8
HELI_OUTPUT_TUNN
  6
Continuous
 62
     7
100
AcDbLine
 10
498.9679099071
 20
300.6020251755
 30
0.0
 11
493.9674397263
 21
300.6020251755
 31
0.0
  0
LINE
  5
225
330
1F9
100
AcDbEntity
  8
HELI_OUTPUT_TUNN
  6
Continuous
 62
     7
100
AcDbLine
 10
498.9709662258
 20
300.6020251755
 30
0.0
 11
498.9679099071
 21
300.6020251755
 31
0.0
  0
LINE
  5
226
330
1F9
100
AcDbEntity
  8
HELI_OUTPUT_TUNN
  6
Continuous
 62
     7
100
AcDbLine
 10
493.9674397263
 20
297.1020251755
 30
0.0
 11
498.6863138161
 21
297.1020251755
 31
0.0
  0
LINE
  5
227
330
1F9
100
AcDbEntity
  8
HELI_OUTPUT_TUNN
  6
Continuous
 62
     7
100
AcDbLine
 10
461.46743987
 20
297.1020251755
 30
0.0
 11
493.9674397263
 21
297.1020251755
 31
0.0
  0
LINE
  5
228
330
1F9
100
AcDbEntity
  8
HELI_OUTPUT_TUNN
  6
Continuous
 62
     7
100
AcDbLine
 10
456.467910095
 20
297.1020251755
 30
0.0
 11
461.46743987
 21
297.1020251755
 31
0.0
  0
LINE
  5
229
330
1F9
100
AcDbEntity
  8
HELI_OUTPUT_TUNN
  6
Continuous
 62
     7
100
AcDbLine
 10
498.9709662258
 20
300.6020251755
 30
0.0
 11
498.9709662258
 21
297.1020251755
 31
0.0
  0
LINE
  5
22A
330
1F9
100
AcDbEntity
  8
HELI_OUTPUT_TUNN
  6
Continuous
 62
     7
100
AcDbLine
 10
456.467910095
 20
300.6020251755
 30
0.0
 11
456.467910095
 21
297.1020251755
 31
0.0
  0
LINE
  5
22B
330
1F9
100
AcDbEntity
  8
HELI_OUTPUT_TUNN
  6
Continuous
 62
     7
100
AcDbLine
 10
464.2194381604
 20
336.5020251755
 30
0.0
 11
491.2194381604
 21
336.5020251755
 31
0.0
  0
LINE
  5
22C
330
1F9
100
AcDbEntity
  8
HELI_OUTPUT_TUNN
  6
Continuous
 62
     7
100
AcDbLine
 10
491.2194381604
 20
306.1020251755
 30
0.0
 11
491.2194381604
 21
336.5020251755
 31
0.0
  0
LINE
  5
22D
330
1F9
100
AcDbEntity
  8
HELI_OUTPUT_TUNN
  6
Continuous
 62
     7
100
AcDbLine
 10
464.2194381604
 20
336.5020251755
 30
0.0
 11
464.2194381604
 21
306.1020251755
 31
0.0
  0
ARC
  5
22E
330
1F9
100
AcDbEntity
  8
HELI_OUTPUT_TUNN
  6
Continuous
 62
     7
100
AcDbCircle
 10
496.7194381604
 20
306.1020251755
 30
0.0
 40
5.500000000000005
100
AcDbArc
 50
180.0
 51
270.0
  0
ARC
  5
22F
330
1F9
100
AcDbEntity
  8
HELI_OUTPUT_TUNN
  6
Continuous
 62
     7
100
AcDbCircle
 10
458.7194381604
 20
306.1020251755
 30
0.0
 40
5.500000000000002
100
AcDbArc
 50
270.0
 51
0.0
  0
LINE
  5
230
330
1F9
100
AcDbEntity
  8
FESTOCOLM5T4
  6
Continuous
 62
     7
100
AcDbLine
 10
497.8005154937
 20
256.2355521763
 30
0.0
 11
501.5518451969
 21
252.5857320768
 31
0.0
  0
LINE
  5
231
330
1F9
100
AcDbEntity
  8
FESTOCOLM5T4
  6
Continuous
 62
     7
100
AcDbLine
 10
498.665237274
 20
256.2871892941
 30
0.0
 11
501.9981571745
 21
253.0444569818
 31
0.0
  0
LINE
  5
232
330
1F9
100
AcDbEntity
  8
FESTOCOLM5T4
  6
Continuous
 62
     7
100
AcDbLine
 10
501.9981571745
 20
253.0444569818
 30
0.0
 11
503.3221068471
 21
254.4052286356
 31
0.0
  0
LINE
  5
233
330
1F9
100
AcDbEntity
  8
FESTOCOLM5T4
  6
Continuous
 62
     7
100
AcDbLine
 10
501.5518451969
 20
252.5857320768
 30
0.0
 11
501.9981571745
 21
253.0444569818
 31
0.0
  0
ELLIPSE
  5
234
330
1F9
100
AcDbEntity
  8
FESTOCOLM5T4
  6
Continuous
 62
     7
100
AcDbEllipse
 10
507.0460453786
 20
253.2136869605
 30
0.0
 11
-2.86695044504947
 21
2.789371819179142
 31
0.0
210
0.0
220
0.0
230
1.0
 40
0.9903529298
 41
0.8480620789812079
 42
2.74194978549077
  0
SPLINE
  5
235
330
1F9
100
AcDbEntity
  8
FESTOCOLM5T4
  6
Continuous
 62
     7
100
AcDbSpline
210
0.0
220
0.0
230
1.0
 70
     8
 71
     3
 72
    14
 73
    10
 74
     0
 42
0.000000001
 43
0.0000000001
 40
0.104055225388707
 40
0.104055225388707
 40
0.104055225388707
 40
0.104055225388707
 40
0.2500000000000003
 40
0.2500000000000003
 40
0.5000000000000001
 40
0.5000000000000001
 40
0.75
 40
0.75
 40
1.0
 40
1.0
 40
1.0
 40
1.0
 10
503.3523459126365
 20
254.2719095760254
 30
0.0
 10
503.3231391558467
 20
254.163653450001
 30
0.0
 10
503.2981514446371
 20
254.0583252818584
 30
0.0
 10
503.2399589373359
 20
253.7845799215893
 30
0.0
 10
503.2129840454752
 20
253.621621134934
 30
0.0
 10
503.1695479025369
 20
253.3327587844857
 30
0.0
 10
503.1532217010477
 20
253.2083432049889
 30
0.0
 10
503.1185974570834
 20
253.0161337488117
 30
0.0
 10
503.1003934663696
 20
252.9523437947906
 30
0.0
 10
503.0778889887894
 20
252.9292134177034
 30
0.0
  0
ELLIPSE
  5
236
330
1F9
100
AcDbEntity
  8
FESTOCOLM5T4
  6
Continuous
 62
     7
100
AcDbEllipse
 10
508.3186542823
 20
254.5216899444
 30
0.0
 11
-3.479761102675248
 21
3.385600045532355
 31
0.0
210
0.0
220
0.0
230
1.0
 40
0.9903529298
 41
0.3233301846710175
 42
4.486353548561103
  0
ELLIPSE
  5
237
330
1F9
100
AcDbEntity
  8
FESTOCOLM5T4
  6
Continuous
 62
     7
100
AcDbEllipse
 10
508.1543843403
 20
254.3528512905
 30
0.0
 11
-3.479761102675463
 21
3.385600045532139
 31
0.0
210
0.0
220
0.0
230
1.0
 40
0.9903529298
 41
0.2849710101501834
 42
3.141592653589793
  0
ELLIPSE
  5
238
330
1F9
100
AcDbEntity
  8
FESTOCOLM5T4
  6
Continuous
 62
     7
100
AcDbEllipse
 10
507.3523605058
 20
253.5285213917
 30
0.0
 11
1.433475222525078
 21
-1.394685909589183
 31
0.0
210
0.0
220
0.0
230
1.0
 40
0.9903529298
 41
0.3573515704587864
 42
2.784241083129806
  0
ELLIPSE
  5
239
330
1F9
100
AcDbEntity
  8
FESTOCOLM5T4
  6
Continuous
 62
     7
100
AcDbEllipse
 10
508.3186542823
 20
254.5216899444
 30
0.0
 11
-1.433475222524877
 21
1.394685909589404
 31
0.0
210
0.0
220
0.0
230
1.0
 40
0.9903529298
 41
0.0
 42
6.283185307179586
  0
LINE
  5
23A
330
1F9
100
AcDbEntity
  8
FESTOCOLM5T4
  6
Continuous
 62
     7
100
AcDbLine
 10
502.4454348748
 20
253.5041744685
 30
0.0
 11
503.0817245639
 21
252.8851025447
 31
0.0
  0
LINE
  5
23B
330
1F9
100
AcDbEntity
  8
FESTOCOLM5T4
  6
Continuous
 62
     7
100
AcDbLine
 10
511.634145443
 20
250.9672512449
 30
0.0
 11
511.798415385
 21
251.1360898989
 31
0.0
  0
LINE
  5
23C
330
1F9
100
AcDbEntity
  8
OUTWASHER
  6
Continuous
 62
     7
100
AcDbLine
 10
469.7194381604
 20
337.3020251755
 30
0.0
 11
485.7194381604
 21
337.3020251755
 31
0.0
  0
LINE
  5
23D
330
1F9
100
AcDbEntity
  8
OUTWASHER
  6
Continuous
 62
     7
100
AcDbLine
 10
485.7194381604
 20
336.5020251755
 30
0.0
 11
485.7194381604
 21
337.3020251755
 31
0.0
  0
LINE
  5
23E
330
1F9
100
AcDbEntity
  8
OUTWASHER
  6
Continuous
 62
     7
100
AcDbLine
 10
469.7194381604
 20
337.3020251755
 30
0.0
 11
469.7194381604
 21
336.5020251755
 31
0.0
  0
LINE
  5
23F
330
1F9
100
AcDbEntity
  8
EXHAUSTNOU_R1
  6
Continuous
 62
     7
100
AcDbLine
 10
459.7094539046
 20
256.1118761873
 30
0.0
 11
427.2194381604
 21
258.0520267243
 31
0.0
  0
LINE
  5
240
330
1F9
100
AcDbEntity
  8
EXHAUSTNOU_R1
  6
Continuous
 62
     7
100
AcDbLine
 10
427.2194381604
 20
258.0520266318
 30
0.0
 11
427.2194381604
 21
280.0513388377
 31
0.0
  0
LINE
  5
241
330
1F9
100
AcDbEntity
  8
EXHAUSTNOU_R1
  6
Continuous
 62
     7
100
AcDbLine
 10
447.2181936689
 20
280.0517201127
 30
0.0
 11
427.2194381604
 21
280.0513388377
 31
0.0
  0
LINE
  5
242
330
1F9
100
AcDbEntity
  8
EXHAUSTNOU_R1
  6
Continuous
 62
     7
100
AcDbLine
 10
427.2194381604
 20
280.0513388377
 30
0.0
 11
427.2194381604
 21
302.0520231769
 31
0.0
  0
LINE
  5
243
330
1F9
100
AcDbEntity
  8
EXHAUSTNOU_R1
  6
Continuous
 62
     7
100
AcDbLine
 10
459.645775886
 20
303.9883715608
 30
0.0
 11
427.2194381604
 21
302.0520231769
 31
0.0
  0
LINE
  5
244
330
1F9
100
AcDbEntity
  8
EXHAUSTNOU_R1
  6
Continuous
 62
     7
100
AcDbLine
 10
417.2194381604
 20
258.0520251755
 30
0.0
 11
417.2194381604
 21
302.0520251755
 31
0.0
  0
LINE
  5
245
330
1F9
100
AcDbEntity
  8
EXHAUSTNOU_R1
  6
Continuous
 62
     7
100
AcDbLine
 10
508.2220358662
 20
280.052330264
 30
0.0
 11
528.2194381604
 21
280.0527115132
 31
0.0
  0
LINE
  5
246
330
1F9
100
AcDbEntity
  8
EXHAUSTNOU_R1
  6
Continuous
 62
     7
100
AcDbLine
 10
495.7275060986
 20
256.1117618048
 30
0.0
 11
528.2194381604
 21
258.052027174
 31
0.0
  0
LINE
  5
247
330
1F9
100
AcDbEntity
  8
EXHAUSTNOU_R1
  6
Continuous
 62
     7
100
AcDbLine
 10
495.7273761316
 20
303.9922963581
 30
0.0
 11
528.2194381604
 21
302.0520236266
 31
0.0
  0
LINE
  5
248
330
1F9
100
AcDbEntity
  8
EXHAUSTNOU_R1
  6
Continuous
 62
     7
100
AcDbLine
 10
528.2194381604
 20
302.0520237191
 30
0.0
 11
528.2194381604
 21
280.0527115132
 31
0.0
  0
LINE
  5
249
330
1F9
100
AcDbEntity
  8
EXHAUSTNOU_R1
  6
Continuous
 62
     7
100
AcDbLine
 10
528.2194381604
 20
280.0527115132
 30
0.0
 11
528.2194381604
 21
258.052027174
 31
0.0
  0
LINE
  5
24A
330
1F9
100
AcDbEntity
  8
EXHAUSTNOU_R1
  6
Continuous
 62
     7
100
AcDbLine
 10
538.2194381604
 20
302.0520251755
 30
0.0
 11
538.2194381604
 21
258.0520251755
 31
0.0
  0
LINE
  5
24B
330
1F9
100
AcDbEntity
  8
EXHAUSTNOU_R1
  6
Continuous
 62
     7
100
AcDbLine
 10
427.2261550046
 20
302.0520251755
 30
0.0
 11
417.2194381604
 21
302.0520251755
 31
0.0
  0
LINE
  5
24C
330
1F9
100
AcDbEntity
  8
EXHAUSTNOU_R1
  6
Continuous
 62
     7
100
AcDbLine
 10
417.2194381604
 20
258.0520251755
 30
0.0
 11
427.2261550046
 21
258.0520251755
 31
0.0
  0
LINE
  5
24D
330
1F9
100
AcDbEntity
  8
EXHAUSTNOU_R1
  6
Continuous
 62
     7
100
AcDbLine
 10
528.2127213163
 20
258.0520251755
 30
0.0
 11
538.2194381604
 21
258.0520251755
 31
0.0
  0
LINE
  5
24E
330
1F9
100
AcDbEntity
  8
EXHAUSTNOU_R1
  6
Continuous
 62
     7
100
AcDbLine
 10
538.2194381604
 20
302.0520251755
 30
0.0
 11
528.2127213163
 21
302.0520251755
 31
0.0
  0
ARC
  5
24F
330
1F9
100
AcDbEntity
  8
2ONSTAGEMASS
  6
Continuous
 62
     7
100
AcDbCircle
 10
477.7194381604
 20
280.0520251755
 30
0.0
 40
30.00000000000003
100
AcDbArc
 50
331.1344843078
 51
337.6878785047
  0
ARC
  5
250
330
1F9
100
AcDbEntity
  8
2ONSTAGEMASS
  6
Continuous
 62
     7
100
AcDbCircle
 10
477.7194381604
 20
280.0520251755
 30
0.0
 40
30.00000000000003
100
AcDbArc
 50
214.4022913095
 51
325.5977086905
  0
ARC
  5
251
330
1F9
100
AcDbEntity
  8
2ONSTAGEMASS
  6
Continuous
 62
     7
100
AcDbCircle
 10
477.7194381604
 20
280.0520251755
 30
0.0
 40
30.00000000000003
100
AcDbArc
 50
202.3110456584
 51
208.8634558025
  0
ARC
  5
252
330
1F9
100
AcDbEntity
  8
2ONSTAGEMASS
  6
Continuous
 62
     7
100
AcDbCircle
 10
477.7194381604
 20
280.0520251755
 30
0.0
 40
30.00000000000003
100
AcDbArc
 50
150.9027259629
 51
157.5647816129
  0
ARC
  5
253
330
1F9
100
AcDbEntity
  8
2ONSTAGEMASS
  6
Continuous
 62
     7
100
AcDbCircle
 10
477.7194381604
 20
280.0520251755
 30
0.0
 40
30.00000000000003
100
AcDbArc
 50
116.7436839504
 51
145.365914395
  0
ARC
  5
254
330
1F9
100
AcDbEntity
  8
2ONSTAGEMASS
  6
Continuous
 62
     7
100
AcDbCircle
 10
477.7194381604
 20
280.0520251755
 30
0.0
 40
30.00000000000003
100
AcDbArc
 50
34.634085605
 51
63.2563160496
  0
ARC
  5
255
330
1F9
100
AcDbEntity
  8
2ONSTAGEMASS
  6
Continuous
 62
     7
100
AcDbCircle
 10
477.7194381604
 20
280.0520251755
 30
0.0
 40
30.00000000000003
100
AcDbArc
 50
22.4320316153
 51
29.0913695212
  0
ENDBLK
  5
257
330
1F9
100
AcDbEntity
  8
0
100
AcDbBlockEnd
  0
BLOCK
  5
25A
330
259
100
AcDbEntity
  8
0
100
AcDbBlockBegin
  2
_Oblique
 70
     0
 10
0.0
 20
0.0
 30
0.0
  3
_Oblique
  1

  0
LINE
  5
25C
330
259
100
AcDbEntity
  8
0
  6
ByBlock
 62
     0
370
    -2
100
AcDbLine
 10
-0.5
 20
-0.5
 30
0.0
 11
0.5
 21
0.5
 31
0.0
  0
ENDBLK
  5
25B
330
259
100
AcDbEntity
  8
0
100
AcDbBlockEnd
  0
BLOCK
  5
25E
330
25D
100
AcDbEntity
  8
0
100
AcDbBlockBegin
  2
_Dot
 70
     0
 10
0.0
 20
0.0
 30
0.0
  3
_Dot
  1

  0
LWPOLYLINE
  5
260
330
25D
100
AcDbEntity
  8
0
  6
ByBlock
 62
     0
100
AcDbPolyline
 90
        2
 70
     1
 43
0.5
 10
-0.25
 20
0.0
 42
1.0
 10
0.25
 20
0.0
 42
1.0
  0
LINE
  5
261
330
25D
100
AcDbEntity
  8
0
  6
ByBlock
 62
     0
370
    -2
100
AcDbLine
 10
-0.5
 20
0.0
 30
0.0
 11
-1.0
 21
0.0
 31
0.0
  0
ENDBLK
  5
25F
330
25D
100
AcDbEntity
  8
0
100
AcDbBlockEnd
  0
BLOCK
  5
265
330
262
100
AcDbEntity
  8
0
100
AcDbBlockBegin
  2
_SE_FILLED
 70
     0
 10
0.0
 20
0.0
 30
0.0
  3
_SE_FILLED
  1

  0
SOLID
  5
263
330
262
100
AcDbEntity
  8
0
 62
     0
100
AcDbTrace
 10
0.0
 20
0.0
 30
0.0
 11
-1.0
 21
-0.1665
 31
0.0
 12
-1.0
 22
0.1665
 32
0.0
 13
0.0
 23
0.0
 33
0.0
  0
LINE
  5
264
330
262
100
AcDbEntity
  8
0
 62
     0
100
AcDbLine
 10
0.0
 20
0.0
 30
0.0
 11
-1.0
 21
0.0
 31
0.0
  0
ENDBLK
  5
266
330
262
100
AcDbEntity
  8
0
100
AcDbBlockEnd
  0
BLOCK
  5
271
330
26A
100
AcDbEntity
  8
0
100
AcDbBlockBegin
  2
DMBLK45
 70
     0
 10
0.0
 20
0.0
 30
0.0
  3
DMBLK45
  1

  0
HATCH
  5
26B
330
26A
100
AcDbEntity
  8
Default
  6
Continuous
 62
     7
100
AcDbHatch
 10
0.0
 20
0.0
 30
0.0
210
0.0
220
0.0
230
1.0
  2
SOLID
 70
     1
 71
     0
 91
        1
 92
        1
 93
        3
 72
     1
 10
62.18049699712319
 20
224.8849058610564
 11
62.18049699712319
 21
226.0515725637342
 72
     1
 10
62.18049699712319
 20
226.0515725637342
 11
58.68049688908977
 21
225.4682392123953
 72
     1
 10
58.68049688908977
 20
225.4682392123953
 11
62.18049699712319
 21
224.8849058610564
 97
        0
 75
     0
 76
     1
 98
        0
  0
HATCH
  5
26C
330
26A
100
AcDbEntity
  8
Default
  6
Continuous
 62
     7
100
AcDbHatch
 10
0.0
 20
0.0
 30
0.0
210
0.0
220
0.0
230
1.0
  2
SOLID
 70
     1
 71
     0
 91
        1
 92
        1
 93
        3
 72
     1
 10
333.2145281722002
 20
224.8849058610564
 11
336.7145282802336
 21
225.4682392123953
 72
     1
 10
336.7145282802336
 20
225.4682392123953
 11
333.2145281722002
 21
226.0515725637342
 72
     1
 10
333.2145281722002
 20
226.0515725637342
 11
333.2145281722002
 21
224.8849058610564
 97
        0
 75
     0
 76
     1
 98
        0
  0
LINE
  5
26D
330
26A
100
AcDbEntity
  8
Default
  6
Continuous
 62
     7
100
AcDbLine
 10
58.6804968891
 20
263.1020233277
 30
0.0
 11
58.6804968891
 21
223.7182391584
 31
0.0
  0
LINE
  5
26E
330
26A
100
AcDbEntity
  8
Default
  6
Continuous
 62
     7
100
AcDbLine
 10
336.7145403805
 20
280.0520251755
 30
0.0
 11
336.7145403805
 21
223.7182391584
 31
0.0
  0
LINE
  5
26F
330
26A
100
AcDbEntity
  8
Default
  6
Continuous
 62
     7
100
AcDbLine
 10
58.6804968891
 20
225.4682392124
 30
0.0
 11
336.7145282802
 21
225.4682392124
 31
0.0
  0
TEXT
  5
270
330
26A
100
AcDbEntity
  8
Default
  6
Continuous
 62
     7
100
AcDbText
 10
194.396376221
 20
226.3432392124
 30
0.0
 40
3.5
  1
278
  7
SEACAD_Solid_Edge_ISO
 11
194.396376221
 21
229.8432392124
 31
0.0
100
AcDbText
 73
     3
  0
ENDBLK
  5
272
330
26A
100
AcDbEntity
  8
0
100
AcDbBlockEnd
  0
BLOCK
  5
27B
330
274
100
AcDbEntity
  8
0
100
AcDbBlockBegin
  2
DMBLK46
 70
     0
 10
0.0
 20
0.0
 30
0.0
  3
DMBLK46
  1

  0
HATCH
  5
275
330
274
100
AcDbEntity
  8
Default
  6
Continuous
 62
     7
100
AcDbHatch
 10
0.0
 20
0.0
 30
0.0
210
0.0
220
0.0
230
1.0
  2
SOLID
 70
     1
 71
     0
 91
        1
 92
        1
 93
        3
 72
     1
 10
30.65096539282683
 20
365.6020250674204
 11
31.81763209550464
 21
365.6020250674204
 72
     1
 10
31.81763209550464
 20
365.6020250674204
 11
31.23429874416574
 21
369.1020251754538
 72
     1
 10
31.23429874416574
 20
369.1020251754538
 11
30.65096539282683
 21
365.6020250674204
 97
        0
 75
     0
 76
     1
 98
        0
  0
HATCH
  5
276
330
274
100
AcDbEntity
  8
Default
  6
Continuous
 62
     7
100
AcDbHatch
 10
0.0
 20
0.0
 30
0.0
210
0.0
220
0.0
230
1.0
  2
SOLID
 70
     1
 71
     0
 91
        1
 92
        1
 93
        3
 72
     1
 10
30.65096539282683
 20
283.6020237337664
 11
31.23429874416574
 21
280.102023625733
 72
     1
 10
31.23429874416574
 20
280.102023625733
 11
31.81763209550464
 21
283.6020237337664
 72
     1
 10
31.81763209550464
 20
283.6020237337664
 11
30.65096539282683
 21
283.6020237337664
 97
        0
 75
     0
 76
     1
 98
        0
  0
LINE
  5
277
330
274
100
AcDbEntity
  8
Default
  6
Continuous
 62
     7
100
AcDbLine
 10
79.9276725435
 20
369.1020251755
 30
0.0
 11
29.4842986901
 21
369.1020251755
 31
0.0
  0
LINE
  5
278
330
274
100
AcDbEntity
  8
Default
  6
Continuous
 62
     7
100
AcDbLine
 10
58.6804968891
 20
280.1020251755
 30
0.0
 11
29.4842986901
 21
280.1020251755
 31
0.0
  0
LINE
  5
279
330
274
100
AcDbEntity
  8
Default
  6
Continuous
 62
     7
100
AcDbLine
 10
31.2342987442
 20
369.1020251755
 30
0.0
 11
31.2342987442
 21
280.1020236257
 31
0.0
  0
TEXT
  5
27A
330
274
100
AcDbEntity
  8
Default
  6
Continuous
 62
     7
100
AcDbText
 10
30.3592987442
 20
322.4145244006
 30
0.0
 40
3.5
  1
89
 50
90.0
  7
SEACAD_Solid_Edge_ISO
 11
26.8592987442
 21
322.4145244006
 31
0.0
100
AcDbText
 73
     3
  0
ENDBLK
  5
27C
330
274
100
AcDbEntity
  8
0
100
AcDbBlockEnd
  0
BLOCK
  5
285
330
27E
100
AcDbEntity
  8
0
100
AcDbBlockBegin
  2
DMBLK47
 70
     0
 10
0.0
 20
0.0
 30
0.0
  3
DMBLK47
  1

  0
HATCH
  5
27F
330
27E
100
AcDbEntity
  8
Default
  6
Continuous
 62
     7
100
AcDbHatch
 10
0.0
 20
0.0
 30
0.0
210
0.0
220
0.0
230
1.0
  2
SOLID
 70
     1
 71
     0
 91
        1
 92
        1
 93
        3
 72
     1
 10
50.47504742467288
 20
365.6020250674204
 11
51.64171412735068
 21
365.6020250674204
 72
     1
 10
51.64171412735068
 20
365.6020250674204
 11
51.05838077601178
 21
369.1020251754538
 72
     1
 10
51.05838077601178
 20
369.1020251754538
 11
50.47504742467288
 21
365.6020250674204
 97
        0
 75
     0
 76
     1
 98
        0
  0
HATCH
  5
280
330
27E
100
AcDbEntity
  8
Default
  6
Continuous
 62
     7
100
AcDbHatch
 10
0.0
 20
0.0
 30
0.0
210
0.0
220
0.0
230
1.0
  2
SOLID
 70
     1
 71
     0
 91
        1
 92
        1
 93
        3
 72
     1
 10
50.47504742467288
 20
340.0020247828082
 11
51.05838077601178
 21
336.5020246747748
 72
     1
 10
51.05838077601178
 20
336.5020246747748
 11
51.64171412735068
 21
340.0020247828082
 72
     1
 10
51.64171412735068
 20
340.0020247828082
 11
50.47504742467288
 21
340.0020247828082
 97
        0
 75
     0
 76
     1
 98
        0
  0
LINE
  5
281
330
27E
100
AcDbEntity
  8
Default
  6
Continuous
 62
     7
100
AcDbLine
 10
79.9276725435
 20
369.1020251755
 30
0.0
 11
49.308380722
 21
369.1020251755
 31
0.0
  0
LINE
  5
282
330
27E
100
AcDbEntity
  8
Default
  6
Continuous
 62
     7
100
AcDbLine
 10
66.4276725435
 20
336.5020251755
 30
0.0
 11
49.308380722
 21
336.5020251755
 31
0.0
  0
LINE
  5
283
330
27E
100
AcDbEntity
  8
Default
  6
Continuous
 62
     7
100
AcDbLine
 10
51.058380776
 20
369.1020251755
 30
0.0
 11
51.058380776
 21
336.5020246748
 31
0.0
  0
TEXT
  5
284
330
27E
100
AcDbEntity
  8
Default
  6
Continuous
 62
     7
100
AcDbText
 10
50.183380776
 20
349.4213431069
 30
0.0
 40
3.5
  1
32,6
 50
90.0
  7
SEACAD_Solid_Edge_ISO
 11
46.683380776
 21
349.4213431069
 31
0.0
100
AcDbText
 73
     3
  0
ENDBLK
  5
286
330
27E
100
AcDbEntity
  8
0
100
AcDbBlockEnd
  0
BLOCK
  5
28F
330
288
100
AcDbEntity
  8
0
100
AcDbBlockBegin
  2
DMBLK48
 70
     0
 10
0.0
 20
0.0
 30
0.0
  3
DMBLK48
  1

  0
HATCH
  5
289
330
288
100
AcDbEntity
  8
Default
  6
Continuous
 62
     7
100
AcDbHatch
 10
0.0
 20
0.0
 30
0.0
210
0.0
220
0.0
230
1.0
  2
SOLID
 70
     1
 71
     0
 91
        1
 92
        1
 93
        3
 72
     1
 10
19.9280619638554
 20
253.5520252834872
 11
20.5113953151943
 21
250.0520251754538
 72
     1
 10
20.5113953151943
 20
250.0520251754538
 11
21.09472866653321
 21
253.5520252834872
 72
     1
 10
21.09472866653321
 20
253.5520252834872
 11
19.9280619638554
 21
253.5520252834872
 97
        0
 75
     0
 76
     1
 98
        0
  0
HATCH
  5
28A
330
288
100
AcDbEntity
  8
Default
  6
Continuous
 62
     7
100
AcDbHatch
 10
0.0
 20
0.0
 30
0.0
210
0.0
220
0.0
230
1.0
  2
SOLID
 70
     1
 71
     0
 91
        1
 92
        1
 93
        3
 72
     1
 10
19.9280619638554
 20
365.60202865562
 11
21.09472866653321
 21
365.60202865562
 72
     1
 10
21.09472866653321
 20
365.60202865562
 11
20.5113953151943
 21
369.1020287636534
 72
     1
 10
20.5113953151943
 20
369.1020287636534
 11
19.9280619638554
 21
365.60202865562
 97
        0
 75
     0
 76
     1
 98
        0
  0
LINE
  5
28B
330
288
100
AcDbEntity
  8
Default
  6
Continuous
 62
     7
100
AcDbLine
 10
105.8847746053
 20
250.0520251755
 30
0.0
 11
18.7613952612
 21
250.0520251755
 31
0.0
  0
LINE
  5
28C
330
288
100
AcDbEntity
  8
Default
  6
Continuous
 62
     7
100
AcDbLine
 10
79.9276725435
 20
369.1020251755
 30
0.0
 11
18.7613952612
 21
369.1020251755
 31
0.0
  0
LINE
  5
28D
330
288
100
AcDbEntity
  8
Default
  6
Continuous
 62
     7
100
AcDbLine
 10
20.5113953152
 20
250.0520251755
 30
0.0
 11
20.5113953152
 21
369.1020287637
 31
0.0
  0
TEXT
  5
28E
330
288
100
AcDbEntity
  8
Default
  6
Continuous
 62
     7
100
AcDbText
 10
19.6363953152
 20
307.0713451514
 30
0.0
 40
3.5
  1
119
 50
90.0
  7
SEACAD_Solid_Edge_ISO
 11
16.1363953152
 21
307.0713451514
 31
0.0
100
AcDbText
 73
     3
  0
ENDBLK
  5
290
330
288
100
AcDbEntity
  8
0
100
AcDbBlockEnd
  0
BLOCK
  5
299
330
292
100
AcDbEntity
  8
0
100
AcDbBlockBegin
  2
DMBLK49
 70
     0
 10
0.0
 20
0.0
 30
0.0
  3
DMBLK49
  1

  0
HATCH
  5
293
330
292
100
AcDbEntity
  8
Default
  6
Continuous
 62
     7
100
AcDbHatch
 10
0.0
 20
0.0
 30
0.0
210
0.0
220
0.0
230
1.0
  2
SOLID
 70
     1
 71
     0
 91
        1
 92
        1
 93
        3
 72
     1
 10
333.2145402725076
 20
331.2913419152168
 11
333.2145402725076
 21
330.1246752125389
 72
     1
 10
333.2145402725076
 20
330.1246752125389
 11
336.714540380541
 21
330.7080085638779
 72
     1
 10
336.714540380541
 20
330.7080085638779
 11
333.2145402725076
 21
331.2913419152168
 97
        0
 75
     0
 76
     1
 98
        0
  0
HATCH
  5
294
330
292
100
AcDbEntity
  8
Default
  6
Continuous
 62
     7
100
AcDbHatch
 10
0.0
 20
0.0
 30
0.0
210
0.0
220
0.0
230
1.0
  2
SOLID
 70
     1
 71
     0
 91
        1
 92
        1
 93
        3
 72
     1
 10
206.5813441346621
 20
331.2913419152168
 11
203.0813440266286
 21
330.7080085638779
 72
     1
 10
203.0813440266286
 20
330.7080085638779
 11
206.5813441346621
 21
330.1246752125389
 72
     1
 10
206.5813441346621
 20
330.1246752125389
 11
206.5813441346621
 21
331.2913419152168
 97
        0
 75
     0
 76
     1
 98
        0
  0
LINE
  5
295
330
292
100
AcDbEntity
  8
Default
  6
Continuous
 62
     7
100
AcDbLine
 10
336.7145403805
 20
280.0520251755
 30
0.0
 11
336.7145403805
 21
332.4580086179
 31
0.0
  0
LINE
  5
296
330
292
100
AcDbEntity
  8
Default
  6
Continuous
 62
     7
100
AcDbLine
 10
203.0813392305
 20
306.1520251755
 30
0.0
 11
203.0813392305
 21
332.4580086179
 31
0.0
  0
LINE
  5
297
330
292
100
AcDbEntity
  8
Default
  6
Continuous
 62
     7
100
AcDbLine
 10
336.7145403805
 20
330.7080085639
 30
0.0
 11
203.0813440266
 21
330.7080085639
 31
0.0
  0
TEXT
  5
298
330
292
100
AcDbEntity
  8
Default
  6
Continuous
 62
     7
100
AcDbText
 10
265.9604422036
 20
331.5830085639
 30
0.0
 40
3.5
  1
133,6
  7
SEACAD_Solid_Edge_ISO
 11
265.9604422036
 21
335.0830085639
 31
0.0
100
AcDbText
 73
     3
  0
ENDBLK
  5
29A
330
292
100
AcDbEntity
  8
0
100
AcDbBlockEnd
  0
BLOCK
  5
2A3
330
29C
100
AcDbEntity
  8
0
100
AcDbBlockBegin
  2
DMBLK50
 70
     0
 10
0.0
 20
0.0
 30
0.0
  3
DMBLK50
  1

  0
HATCH
  5
29D
330
29C
100
AcDbEntity
  8
Default
  6
Continuous
 62
     7
100
AcDbHatch
 10
0.0
 20
0.0
 30
0.0
210
0.0
220
0.0
230
1.0
  2
SOLID
 70
     1
 71
     0
 91
        1
 92
        1
 93
        3
 72
     1
 10
199.5813391224168
 20
331.2913415486481
 11
199.5813391224168
 21
330.1246748459703
 72
     1
 10
199.5813391224168
 20
330.1246748459703
 11
203.0813392304503
 21
330.7080081973092
 72
     1
 10
203.0813392304503
 20
330.7080081973092
 11
199.5813391224168
 21
331.2913415486481
 97
        0
 75
     0
 76
     1
 98
        0
  0
HATCH
  5
29E
330
29C
100
AcDbEntity
  8
Default
  6
Continuous
 62
     7
100
AcDbHatch
 10
0.0
 20
0.0
 30
0.0
210
0.0
220
0.0
230
1.0
  2
SOLID
 70
     1
 71
     0
 91
        1
 92
        1
 93
        3
 72
     1
 10
109.3847752601527
 20
331.2913415486481
 11
105.8847751521192
 21
330.7080081973092
 72
     1
 10
105.8847751521192
 20
330.7080081973092
 11
109.3847752601527
 21
330.1246748459703
 72
     1
 10
109.3847752601527
 20
330.1246748459703
 11
109.3847752601527
 21
331.2913415486481
 97
        0
 75
     0
 76
     1
 98
        0
  0
LINE
  5
29F
330
29C
100
AcDbEntity
  8
Default
  6
Continuous
 62
     7
100
AcDbLine
 10
203.0813392305
 20
306.1520251755
 30
0.0
 11
203.0813392305
 21
332.4580082513
 31
0.0
  0
LINE
  5
2A0
330
29C
100
AcDbEntity
  8
Default
  6
Continuous
 62
     7
100
AcDbLine
 10
105.8847750748
 20
310.0520251755
 30
0.0
 11
105.8847750748
 21
332.4580082513
 31
0.0
  0
LINE
  5
2A1
330
29C
100
AcDbEntity
  8
Default
  6
Continuous
 62
     7
100
AcDbLine
 10
203.0813392305
 20
330.7080081973
 30
0.0
 11
105.8847751521
 21
330.7080081973
 31
0.0
  0
TEXT
  5
2A2
330
29C
100
AcDbEntity
  8
Default
  6
Continuous
 62
     7
100
AcDbText
 10
150.9035117367
 20
331.5830081973
 30
0.0
 40
3.5
  1
97,2
  7
SEACAD_Solid_Edge_ISO
 11
150.9035117367
 21
335.0830081973
 31
0.0
100
AcDbText
 73
     3
  0
ENDBLK
  5
2A4
330
29C
100
AcDbEntity
  8
0
100
AcDbBlockEnd
  0
BLOCK
  5
2AD
330
2A6
100
AcDbEntity
  8
0
100
AcDbBlockBegin
  2
DMBLK51
 70
     0
 10
0.0
 20
0.0
 30
0.0
  3
DMBLK51
  1

  0
HATCH
  5
2A7
330
2A6
100
AcDbEntity
  8
Default
  6
Continuous
 62
     7
100
AcDbHatch
 10
0.0
 20
0.0
 30
0.0
210
0.0
220
0.0
230
1.0
  2
SOLID
 70
     1
 71
     0
 91
        1
 92
        1
 93
        3
 72
     1
 10
102.3847749667246
 20
331.2913425857689
 11
102.3847749667246
 21
330.1246758830911
 72
     1
 10
102.3847749667246
 20
330.1246758830911
 11
105.884775074758
 21
330.70800923443
 72
     1
 10
105.884775074758
 20
330.70800923443
 11
102.3847749667246
 21
331.2913425857689
 97
        0
 75
     0
 76
     1
 98
        0
  0
HATCH
  5
2A8
330
2A6
100
AcDbEntity
  8
Default
  6
Continuous
 62
     7
100
AcDbHatch
 10
0.0
 20
0.0
 30
0.0
210
0.0
220
0.0
230
1.0
  2
SOLID
 70
     1
 71
     0
 91
        1
 92
        1
 93
        3
 72
     1
 10
62.18049677331035
 20
331.2913425857689
 11
58.68049666527693
 21
330.70800923443
 72
     1
 10
58.68049666527693
 20
330.70800923443
 11
62.18049677331035
 21
330.1246758830911
 72
     1
 10
62.18049677331035
 20
330.1246758830911
 11
62.18049677331035
 21
331.2913425857689
 97
        0
 75
     0
 76
     1
 98
        0
  0
LINE
  5
2A9
330
2A6
100
AcDbEntity
  8
Default
  6
Continuous
 62
     7
100
AcDbLine
 10
105.8847750748
 20
310.0520251755
 30
0.0
 11
105.8847750748
 21
332.4580092884
 31
0.0
  0
LINE
  5
2AA
330
2A6
100
AcDbEntity
  8
Default
  6
Continuous
 62
     7
100
AcDbLine
 10
58.6804968891
 20
297.1020251755
 30
0.0
 11
58.6804968891
 21
332.4580092884
 31
0.0
  0
LINE
  5
2AB
330
2A6
100
AcDbEntity
  8
Default
  6
Continuous
 62
     7
100
AcDbLine
 10
105.8847750748
 20
330.7080092344
 30
0.0
 11
58.6804966653
 21
330.7080092344
 31
0.0
  0
TEXT
  5
2AC
330
2A6
100
AcDbEntity
  8
Default
  6
Continuous
 62
     7
100
AcDbText
 10
78.7428631427
 20
331.5830092344
 30
0.0
 40
3.5
  1
47,2
  7
SEACAD_Solid_Edge_ISO
 11
78.7428631427
 21
335.0830092344
 31
0.0
100
AcDbText
 73
     3
  0
ENDBLK
  5
2AE
330
2A6
100
AcDbEntity
  8
0
100
AcDbBlockEnd
  0
BLOCK
  5
2B5
330
2B0
100
AcDbEntity
  8
0
100
AcDbBlockBegin
  2
DMBLK52
 70
     0
 10
0.0
 20
0.0
 30
0.0
  3
DMBLK52
  1

  0
HATCH
  5
2B1
330
2B0
100
AcDbEntity
  8
Default
  6
Continuous
 62
     7
100
AcDbHatch
 10
0.0
 20
0.0
 30
0.0
210
0.0
220
0.0
230
1.0
  2
SOLID
 70
     1
 71
     0
 91
        1
 92
        1
 93
        3
 72
     1
 10
162.5293126347057
 20
306.5520250674205
 11
163.6959793373834
 21
306.5520250674205
 72
     1
 10
163.6959793373834
 20
306.5520250674205
 11
163.1126459860446
 21
310.0520251754539
 72
     1
 10
163.1126459860446
 20
310.0520251754539
 11
162.5293126347057
 21
306.5520250674205
 97
        0
 75
     0
 76
     1
 98
        0
  0
HATCH
  5
2B2
330
2B0
100
AcDbEntity
  8
Default
  6
Continuous
 62
     7
100
AcDbHatch
 10
0.0
 20
0.0
 30
0.0
210
0.0
220
0.0
230
1.0
  2
SOLID
 70
     1
 71
     0
 91
        1
 92
        1
 93
        3
 72
     1
 10
162.5293126347057
 20
253.5520266245918
 11
163.1126459860446
 21
250.0520265165584
 72
     1
 10
163.1126459860446
 20
250.0520265165584
 11
163.6959793373834
 21
253.5520266245918
 72
     1
 10
163.6959793373834
 20
253.5520266245918
 11
162.5293126347057
 21
253.5520266245918
 97
        0
 75
     0
 76
     1
 98
        0
  0
LINE
  5
2B3
330
2B0
100
AcDbEntity
  8
Default
  6
Continuous
 62
     7
100
AcDbLine
 10
163.112645986
 20
310.0520251755
 30
0.0
 11
163.112645986
 21
250.0520265166
 31
0.0
  0
TEXT
  5
2B4
330
2B0
100
AcDbEntity
  8
Default
  6
Continuous
 62
     7
100
AcDbText
 10
162.237645986
 20
277.9440713006
 30
0.0
 40
3.5
  1
60
 50
90.0
  7
SEACAD_Solid_Edge_ISO
 11
158.737645986
 21
277.9440713006
 31
0.0
100
AcDbText
 73
     3
  0
ENDBLK
  5
2B6
330
2B0
100
AcDbEntity
  8
0
100
AcDbBlockEnd
  0
BLOCK
  5
2BF
330
2B8
100
AcDbEntity
  8
0
100
AcDbBlockBegin
  2
DMBLK53
 70
     0
 10
0.0
 20
0.0
 30
0.0
  3
DMBLK53
  1

  0
HATCH
  5
2B9
330
2B8
100
AcDbEntity
  8
Default
  6
Continuous
 62
     7
100
AcDbHatch
 10
0.0
 20
0.0
 30
0.0
210
0.0
220
0.0
230
1.0
  2
SOLID
 70
     1
 71
     0
 91
        1
 92
        1
 93
        3
 72
     1
 10
179.6367387459816
 20
233.6961604935295
 11
179.6367387459816
 21
234.8628271962073
 72
     1
 10
179.6367387459816
 20
234.8628271962073
 11
176.1367386379482
 21
234.2794938448684
 72
     1
 10
176.1367386379482
 20
234.2794938448684
 11
179.6367387459816
 21
233.6961604935295
 97
        0
 75
     0
 76
     1
 98
        0
  0
HATCH
  5
2BA
330
2B8
100
AcDbEntity
  8
Default
  6
Continuous
 62
     7
100
AcDbHatch
 10
0.0
 20
0.0
 30
0.0
210
0.0
220
0.0
230
1.0
  2
SOLID
 70
     1
 71
     0
 91
        1
 92
        1
 93
        3
 72
     1
 10
199.5813385755958
 20
233.6961604935295
 11
203.0813386836292
 21
234.2794938448684
 72
     1
 10
203.0813386836292
 20
234.2794938448684
 11
199.5813385755958
 21
234.8628271962073
 72
     1
 10
199.5813385755958
 20
234.8628271962073
 11
199.5813385755958
 21
233.6961604935295
 97
        0
 75
     0
 76
     1
 98
        0
  0
LINE
  5
2BB
330
2B8
100
AcDbEntity
  8
Default
  6
Continuous
 62
     7
100
AcDbLine
 10
176.1367386379
 20
310.0520251755
 30
0.0
 11
176.1367386379
 21
232.5294937909
 31
0.0
  0
LINE
  5
2BC
330
2B8
100
AcDbEntity
  8
Default
  6
Continuous
 62
     7
100
AcDbLine
 10
203.0813392305
 20
253.9520244423
 30
0.0
 11
203.0813392305
 21
232.5294937909
 31
0.0
  0
LINE
  5
2BD
330
2B8
100
AcDbEntity
  8
Default
  6
Continuous
 62
     7
100
AcDbLine
 10
176.1367386379
 20
234.2794938449
 30
0.0
 11
203.0813386836
 21
234.2794938449
 31
0.0
  0
TEXT
  5
2BE
330
2B8
100
AcDbEntity
  8
Default
  6
Continuous
 62
     7
100
AcDbText
 10
186.0692659335
 20
235.1544938449
 30
0.0
 40
3.5
  1
26,9
  7
SEACAD_Solid_Edge_ISO
 11
186.0692659335
 21
238.6544938449
 31
0.0
100
AcDbText
 73
     3
  0
ENDBLK
  5
2C0
330
2B8
100
AcDbEntity
  8
0
100
AcDbBlockEnd
  0
BLOCK
  5
2C9
330
2C2
100
AcDbEntity
  8
0
100
AcDbBlockBegin
  2
DMBLK54
 70
     0
 10
0.0
 20
0.0
 30
0.0
  3
DMBLK54
  1

  0
HATCH
  5
2C3
330
2C2
100
AcDbEntity
  8
Default
  6
Continuous
 62
     7
100
AcDbHatch
 10
0.0
 20
0.0
 30
0.0
210
0.0
220
0.0
230
1.0
  2
SOLID
 70
     1
 71
     0
 91
        1
 92
        1
 93
        3
 72
     1
 10
110.5813399412734
 20
198.0198599352649
 11
107.08133983324
 21
197.436526583926
 72
     1
 10
107.08133983324
 20
197.436526583926
 11
110.5813399412734
 21
196.8531932325871
 72
     1
 10
110.5813399412734
 20
196.8531932325871
 11
110.5813399412734
 21
198.0198599352649
 97
        0
 75
     0
 76
     1
 98
        0
  0
HATCH
  5
2C4
330
2C2
100
AcDbEntity
  8
Default
  6
Continuous
 62
     7
100
AcDbHatch
 10
0.0
 20
0.0
 30
0.0
210
0.0
220
0.0
230
1.0
  2
SOLID
 70
     1
 71
     0
 91
        1
 92
        1
 93
        3
 72
     1
 10
147.581339486788
 20
198.0198599352649
 11
147.581339486788
 21
196.8531932325871
 72
     1
 10
147.581339486788
 20
196.8531932325871
 11
151.0813395948214
 21
197.436526583926
 72
     1
 10
151.0813395948214
 20
197.436526583926
 11
147.581339486788
 21
198.0198599352649
 97
        0
 75
     0
 76
     1
 98
        0
  0
LINE
  5
2C5
330
2C2
100
AcDbEntity
  8
Default
  6
Continuous
 62
     7
100
AcDbLine
 10
107.0813398332
 20
180.6375236981
 30
0.0
 11
107.0813398332
 21
199.1865266379
 31
0.0
  0
LINE
  5
2C6
330
2C2
100
AcDbEntity
  8
Default
  6
Continuous
 62
     7
100
AcDbLine
 10
151.0813398332
 20
180.6375236981
 30
0.0
 11
151.0813398332
 21
199.1865266379
 31
0.0
  0
LINE
  5
2C7
330
2C2
100
AcDbEntity
  8
Default
  6
Continuous
 62
     7
100
AcDbLine
 10
107.0813398332
 20
197.4365265839
 30
0.0
 11
151.0813395948
 21
197.4365265839
 31
0.0
  0
TEXT
  5
2C8
330
2C2
100
AcDbEntity
  8
Default
  6
Continuous
 62
     7
100
AcDbText
 10
127.0131578958
 20
198.3115265839
 30
0.0
 40
3.5
  1
44
  7
SEACAD_Solid_Edge_ISO
 11
127.0131578958
 21
201.8115265839
 31
0.0
100
AcDbText
 73
     3
  0
ENDBLK
  5
2CA
330
2C2
100
AcDbEntity
  8
0
100
AcDbBlockEnd
  0
BLOCK
  5
2D3
330
2CC
100
AcDbEntity
  8
0
100
AcDbBlockBegin
  2
DMBLK55
 70
     0
 10
0.0
 20
0.0
 30
0.0
  3
DMBLK55
  1

  0
HATCH
  5
2CD
330
2CC
100
AcDbEntity
  8
Default
  6
Continuous
 62
     7
100
AcDbHatch
 10
0.0
 20
0.0
 30
0.0
210
0.0
220
0.0
230
1.0
  2
SOLID
 70
     1
 71
     0
 91
        1
 92
        1
 93
        3
 72
     1
 10
25.63152821756927
 20
182.1408820121544
 11
26.79819492024708
 21
182.1408820121544
 72
     1
 10
26.79819492024708
 20
182.1408820121544
 11
26.21486156890818
 21
185.6408821201879
 72
     1
 10
26.21486156890818
 20
185.6408821201879
 11
25.63152821756927
 21
182.1408820121544
 97
        0
 75
     0
 76
     1
 98
        0
  0
HATCH
  5
2CE
330
2CC
100
AcDbEntity
  8
Default
  6
Continuous
 62
     7
100
AcDbHatch
 10
0.0
 20
0.0
 30
0.0
210
0.0
220
0.0
230
1.0
  2
SOLID
 70
     1
 71
     0
 91
        1
 92
        1
 93
        3
 72
     1
 10
25.63152821756927
 20
68.14088288387238
 11
26.21486156890818
 21
64.64088277583896
 72
     1
 10
26.21486156890818
 20
64.64088277583896
 11
26.79819492024708
 21
68.14088288387238
 72
     1
 10
26.79819492024708
 20
68.14088288387238
 11
25.63152821756927
 21
68.14088288387238
 97
        0
 75
     0
 76
     1
 98
        0
  0
LINE
  5
2CF
330
2CC
100
AcDbEntity
  8
Default
  6
Continuous
 62
     7
100
AcDbLine
 10
129.0813398332
 20
185.6408821202
 30
0.0
 11
24.4648615149
 21
185.6408821202
 31
0.0
  0
LINE
  5
2D0
330
2CC
100
AcDbEntity
  8
Default
  6
Continuous
 62
     7
100
AcDbLine
 10
129.0813398332
 20
64.6408821202
 30
0.0
 11
24.4648615149
 21
64.6408821202
 31
0.0
  0
LINE
  5
2D1
330
2CC
100
AcDbEntity
  8
Default
  6
Continuous
 62
     7
100
AcDbLine
 10
26.2148615689
 20
185.6408821202
 30
0.0
 11
26.2148615689
 21
64.6408827758
 31
0.0
  0
TEXT
  5
2D2
330
2CC
100
AcDbEntity
  8
Default
  6
Continuous
 62
     7
100
AcDbText
 10
25.3398615689
 20
122.6352006298
 30
0.0
 40
3.5
  1
121
 50
90.0
  7
SEACAD_Solid_Edge_ISO
 11
21.8398615689
 21
122.6352006298
 31
0.0
100
AcDbText
 73
     3
  0
ENDBLK
  5
2D4
330
2CC
100
AcDbEntity
  8
0
100
AcDbBlockEnd
  0
BLOCK
  5
2DD
330
2D6
100
AcDbEntity
  8
0
100
AcDbBlockBegin
  2
DMBLK56
 70
     0
 10
0.0
 20
0.0
 30
0.0
  3
DMBLK56
  1

  0
HATCH
  5
2D7
330
2D6
100
AcDbEntity
  8
Default
  6
Continuous
 62
     7
100
AcDbHatch
 10
0.0
 20
0.0
 30
0.0
210
0.0
220
0.0
230
1.0
  2
SOLID
 70
     1
 71
     0
 91
        1
 92
        1
 93
        3
 72
     1
 10
49.78447468070554
 20
142.8924100775636
 11
50.95114138338334
 21
142.8924100775636
 72
     1
 10
50.95114138338334
 20
142.8924100775636
 11
50.36780803204444
 21
146.392410185597
 72
     1
 10
50.36780803204444
 20
146.392410185597
 11
49.78447468070554
 21
142.8924100775636
 97
        0
 75
     0
 76
     1
 98
        0
  0
HATCH
  5
2D8
330
2D6
100
AcDbEntity
  8
Default
  6
Continuous
 62
     7
100
AcDbHatch
 10
0.0
 20
0.0
 30
0.0
210
0.0
220
0.0
230
1.0
  2
SOLID
 70
     1
 71
     0
 91
        1
 92
        1
 93
        3
 72
     1
 10
49.78447468070554
 20
107.3908824775733
 11
50.36780803204444
 21
103.8908823695398
 72
     1
 10
50.36780803204444
 20
103.8908823695398
 11
50.95114138338334
 21
107.3908824775733
 72
     1
 10
50.95114138338334
 20
107.3908824775733
 11
49.78447468070554
 21
107.3908824775733
 97
        0
 75
     0
 76
     1
 98
        0
  0
LINE
  5
2D9
330
2D6
100
AcDbEntity
  8
Default
  6
Continuous
 62
     7
100
AcDbLine
 10
63.6796709776
 20
146.3924101856
 30
0.0
 11
48.617807978
 21
146.3924101856
 31
0.0
  0
LINE
  5
2DA
330
2D6
100
AcDbEntity
  8
Default
  6
Continuous
 62
     7
100
AcDbLine
 10
63.6804974851
 20
103.8908821202
 30
0.0
 11
48.617807978
 21
103.8908821202
 31
0.0
  0
LINE
  5
2DB
330
2D6
100
AcDbEntity
  8
Default
  6
Continuous
 62
     7
100
AcDbLine
 10
50.367808032
 20
146.3924101856
 30
0.0
 11
50.367808032
 21
103.8908823695
 31
0.0
  0
TEXT
  5
2DC
330
2D6
100
AcDbEntity
  8
Default
  6
Continuous
 62
     7
100
AcDbText
 10
49.492808032
 20
121.7211917321
 30
0.0
 40
3.5
  1
42,5
 50
90.0
  7
SEACAD_Solid_Edge_ISO
 11
45.992808032
 21
121.7211917321
 31
0.0
100
AcDbText
 73
     3
  0
ENDBLK
  5
2DE
330
2D6
100
AcDbEntity
  8
0
100
AcDbBlockEnd
  0
BLOCK
  5
2E7
330
2E0
100
AcDbEntity
  8
0
100
AcDbBlockBegin
  2
DMBLK57
 70
     0
 10
0.0
 20
0.0
 30
0.0
  3
DMBLK57
  1

  0
HATCH
  5
2E1
330
2E0
100
AcDbEntity
  8
Default
  6
Continuous
 62
     7
100
AcDbHatch
 10
0.0
 20
0.0
 30
0.0
210
0.0
220
0.0
230
1.0
  2
SOLID
 70
     1
 71
     0
 91
        1
 92
        1
 93
        3
 72
     1
 10
36.89919955714497
 20
152.1421265036446
 11
38.06586625982277
 21
152.1421265036446
 72
     1
 10
38.06586625982277
 20
152.1421265036446
 11
37.48253290848387
 21
155.642126611678
 72
     1
 10
37.48253290848387
 20
155.642126611678
 11
36.89919955714497
 21
152.1421265036446
 97
        0
 75
     0
 76
     1
 98
        0
  0
HATCH
  5
2E2
330
2E0
100
AcDbEntity
  8
Default
  6
Continuous
 62
     7
100
AcDbHatch
 10
0.0
 20
0.0
 30
0.0
210
0.0
220
0.0
230
1.0
  2
SOLID
 70
     1
 71
     0
 91
        1
 92
        1
 93
        3
 72
     1
 10
36.89919955714497
 20
98.13828525996033
 11
37.48253290848387
 21
94.63828515192691
 72
     1
 10
37.48253290848387
 20
94.63828515192691
 11
38.06586625982277
 21
98.13828525996033
 72
     1
 10
38.06586625982277
 20
98.13828525996033
 11
36.89919955714497
 21
98.13828525996033
 97
        0
 75
     0
 76
     1
 98
        0
  0
LINE
  5
2E3
330
2E0
100
AcDbEntity
  8
Default
  6
Continuous
 62
     7
100
AcDbLine
 10
82.9317264755
 20
155.6421266117
 30
0.0
 11
35.7325328545
 21
155.6421266117
 31
0.0
  0
LINE
  5
2E4
330
2E0
100
AcDbEntity
  8
Default
  6
Continuous
 62
     7
100
AcDbLine
 10
82.9317266554
 20
94.6382844144
 30
0.0
 11
35.7325328545
 21
94.6382844144
 31
0.0
  0
LINE
  5
2E5
330
2E0
100
AcDbEntity
  8
Default
  6
Continuous
 62
     7
100
AcDbLine
 10
37.4825329085
 20
155.6421266117
 30
0.0
 11
37.4825329085
 21
94.6382851519
 31
0.0
  0
TEXT
  5
2E6
330
2E0
100
AcDbEntity
  8
Default
  6
Continuous
 62
     7
100
AcDbText
 10
36.6075329085
 20
123.3504331545
 30
0.0
 40
3.5
  1
61
 50
90.0
  7
SEACAD_Solid_Edge_ISO
 11
33.1075329085
 21
123.3504331545
 31
0.0
100
AcDbText
 73
     3
  0
ENDBLK
  5
2E8
330
2E0
100
AcDbEntity
  8
0
100
AcDbBlockEnd
  0
BLOCK
  5
2F1
330
2EA
100
AcDbEntity
  8
0
100
AcDbBlockBegin
  2
DMBLK58
 70
     0
 10
0.0
 20
0.0
 30
0.0
  3
DMBLK58
  1

  0
HATCH
  5
2EB
330
2EA
100
AcDbEntity
  8
Default
  6
Continuous
 62
     7
100
AcDbHatch
 10
0.0
 20
0.0
 30
0.0
210
0.0
220
0.0
230
1.0
  2
SOLID
 70
     1
 71
     0
 91
        1
 92
        1
 93
        3
 72
     1
 10
439.5469176117016
 20
289.1020250674204
 11
440.7135843143794
 21
289.1020250674204
 72
     1
 10
440.7135843143794
 20
289.1020250674204
 11
440.1302509630405
 21
292.6020251754538
 72
     1
 10
440.1302509630405
 20
292.6020251754538
 11
439.5469176117016
 21
289.1020250674204
 97
        0
 75
     0
 76
     1
 98
        0
  0
HATCH
  5
2EC
330
2EA
100
AcDbEntity
  8
Default
  6
Continuous
 62
     7
100
AcDbHatch
 10
0.0
 20
0.0
 30
0.0
210
0.0
220
0.0
230
1.0
  2
SOLID
 70
     1
 71
     0
 91
        1
 92
        1
 93
        3
 72
     1
 10
439.5469176117016
 20
271.1020249109582
 11
440.1302509630405
 21
267.6020248029247
 72
     1
 10
440.1302509630405
 20
267.6020248029247
 11
440.7135843143794
 21
271.1020249109582
 72
     1
 10
440.7135843143794
 20
271.1020249109582
 11
439.5469176117016
 21
271.1020249109582
 97
        0
 75
     0
 76
     1
 98
        0
  0
LINE
  5
2ED
330
2EA
100
AcDbEntity
  8
Default
  6
Continuous
 62
     7
100
AcDbLine
 10
451.7194381604
 20
292.6020251755
 30
0.0
 11
438.380250909
 21
292.6020251755
 31
0.0
  0
LINE
  5
2EE
330
2EA
100
AcDbEntity
  8
Default
  6
Continuous
 62
     7
100
AcDbLine
 10
451.7194381604
 20
267.6020251755
 30
0.0
 11
438.380250909
 21
267.6020251755
 31
0.0
  0
LINE
  5
2EF
330
2EA
100
AcDbEntity
  8
Default
  6
Continuous
 62
     7
100
AcDbLine
 10
440.130250963
 20
292.6020251755
 30
0.0
 11
440.130250963
 21
267.6020248029
 31
0.0
  0
TEXT
  5
2F0
330
2EA
100
AcDbEntity
  8
Default
  6
Continuous
 62
     7
100
AcDbText
 10
439.255250963
 20
278.033843171
 30
0.0
 40
3.5
  1
25
 50
90.0
  7
SEACAD_Solid_Edge_ISO
 11
435.755250963
 21
278.033843171
 31
0.0
100
AcDbText
 73
     3
  0
ENDBLK
  5
2F2
330
2EA
100
AcDbEntity
  8
0
100
AcDbBlockEnd
  0
BLOCK
  5
2FB
330
2F4
100
AcDbEntity
  8
0
100
AcDbBlockBegin
  2
DMBLK59
 70
     0
 10
0.0
 20
0.0
 30
0.0
  3
DMBLK59
  1

  0
HATCH
  5
2F5
330
2F4
100
AcDbEntity
  8
Default
  6
Continuous
 62
     7
100
AcDbHatch
 10
0.0
 20
0.0
 30
0.0
210
0.0
220
0.0
230
1.0
  2
SOLID
 70
     1
 71
     0
 91
        1
 92
        1
 93
        3
 72
     1
 10
455.2194382684611
 20
224.7098770004874
 11
455.2194382684611
 21
225.8765437031651
 72
     1
 10
455.2194382684611
 20
225.8765437031651
 11
451.7194381604277
 21
225.2932103518262
 72
     1
 10
451.7194381604277
 20
225.2932103518262
 11
455.2194382684611
 21
224.7098770004874
 97
        0
 75
     0
 76
     1
 98
        0
  0
HATCH
  5
2F6
330
2F4
100
AcDbEntity
  8
Default
  6
Continuous
 62
     7
100
AcDbHatch
 10
0.0
 20
0.0
 30
0.0
210
0.0
220
0.0
230
1.0
  2
SOLID
 70
     1
 71
     0
 91
        1
 92
        1
 93
        3
 72
     1
 10
500.2194391252779
 20
224.7098770004874
 11
503.7194392333113
 21
225.2932103518262
 72
     1
 10
503.7194392333113
 20
225.2932103518262
 11
500.2194391252779
 21
225.8765437031651
 72
     1
 10
500.2194391252779
 20
225.8765437031651
 11
500.2194391252779
 21
224.7098770004874
 97
        0
 75
     0
 76
     1
 98
        0
  0
LINE
  5
2F7
330
2F4
100
AcDbEntity
  8
Default
  6
Continuous
 62
     7
100
AcDbLine
 10
451.7194381604
 20
267.6020251755
 30
0.0
 11
451.7194381604
 21
223.5432102978
 31
0.0
  0
LINE
  5
2F8
330
2F4
100
AcDbEntity
  8
Default
  6
Continuous
 62
     7
100
AcDbLine
 10
503.7194381604
 20
267.6011505538
 30
0.0
 11
503.7194381604
 21
223.5432102978
 31
0.0
  0
LINE
  5
2F9
330
2F4
100
AcDbEntity
  8
Default
  6
Continuous
 62
     7
100
AcDbLine
 10
451.7194381604
 20
225.2932103518
 30
0.0
 11
503.7194392333
 21
225.2932103518
 31
0.0
  0
TEXT
  5
2FA
330
2F4
100
AcDbEntity
  8
Default
  6
Continuous
 62
     7
100
AcDbText
 10
475.6512568787
 20
226.1682103518
 30
0.0
 40
3.5
  1
52
  7
SEACAD_Solid_Edge_ISO
 11
475.6512568787
 21
229.6682103518
 31
0.0
100
AcDbText
 73
     3
  0
ENDBLK
  5
2FC
330
2F4
100
AcDbEntity
  8
0
100
AcDbBlockEnd
  0
BLOCK
  5
31B
330
319
100
AcDbEntity
  8
0
100
AcDbBlockBegin
  2
SEANNOT_GROUP
 70
     0
 10
0.0
 20
0.0
 30
0.0
  3
SEANNOT_GROUP
  1

  0
ENDBLK
  5
31C
330
319
100
AcDbEntity
  8
0
100
AcDbBlockEnd
  0
BLOCK
  5
325
330
323
100
AcDbEntity
  8
0
100
AcDbBlockBegin
  2
SEANNOT_GROUP1
 70
     0
 10
0.0
 20
0.0
 30
0.0
  3
SEANNOT_GROUP1
  1

  0
ENDBLK
  5
326
330
323
100
AcDbEntity
  8
0
100
AcDbBlockEnd
  0
BLOCK
  5
32C
330
32A
100
AcDbEntity
  8
0
100
AcDbBlockBegin
  2
SEANNOT_GROUP2
 70
     0
 10
0.0
 20
0.0
 30
0.0
  3
SEANNOT_GROUP2
  1

  0
ENDBLK
  5
32D
330
32A
100
AcDbEntity
  8
0
100
AcDbBlockEnd
  0
ENDSEC
  0
SECTION
  2
ENTITIES
  0
MTEXT
  5
6F
330
1F
100
AcDbEntity
  8
Default
100
AcDbMText
 10
515.7776374429
 20
39.7640459117
 30
0.0
 40
4.0
 41
17.800011
 46
6.5454645455
 71
     1
 72
     1
  1
{\fSolid Edge ISO|b0||i0||c0|p34;\C7;\H4.;\W1.;X45 Heli}
 73
     1
 44
1.0
1001
ACAD
1000
ACAD_MTEXT_DEFINED_HEIGHT_BEGIN
1070
    46
1040
6.5454645455
1000
ACAD_MTEXT_DEFINED_HEIGHT_END
  0
INSERT
  5
71
330
1F
100
AcDbEntity
  8
Default
100
AcDbBlockReference
  2
SE
 10
0.0
 20
0.0
 30
0.0
  0
INSERT
  5
136
330
1F
100
AcDbEntity
  8
Default
100
AcDbBlockReference
  2
SE1
 10
0.0
 20
0.0
 30
0.0
  0
INSERT
  5
1FA
330
1F
100
AcDbEntity
  8
Default
100
AcDbBlockReference
  2
SE2
 10
0.0
 20
0.0
 30
0.0
  0
DIMENSION
  5
269
330
1F
100
AcDbEntity
  8
Default
  6
Continuous
 62
     7
100
AcDbDimension
  2
DMBLK45
 10
336.7145403805
 20
225.4682392124
 30
0.0
 11
197.6975125847
 21
225.4682392124
 31
0.0
 70
   160
  1
\A1;<>
 71
     5
 42
-1.0
 73
     0
 74
     0
 75
     0
  3
DIN_(mm)
100
AcDbAlignedDimension
 13
58.6804968891
 23
297.1020251755
 33
0.0
 14
336.7145403805
 24
280.0520251755
 34
0.0
100
AcDbRotatedDimension
  0
DIMENSION
  5
273
330
1F
100
AcDbEntity
  8
Default
  6
Continuous
 62
     7
100
AcDbDimension
  2
DMBLK46
 10
31.2342987442
 20
280.1020251755
 30
0.0
 11
31.2342987442
 21
324.6020244006
 31
0.0
 70
   160
  1
\A1;<>
 71
     5
 42
-1.0
 73
     0
 74
     0
 75
     0
  3
DIN_(mm)
100
AcDbAlignedDimension
 13
79.9276725435
 23
369.1020251755
 33
0.0
 14
58.6804968891
 24
280.1020251755
 34
0.0
 50
90.0
100
AcDbRotatedDimension
  0
DIMENSION
  5
27D
330
1F
100
AcDbEntity
  8
Default
  6
Continuous
 62
     7
100
AcDbDimension
  2
DMBLK47
 10
51.058380776
 20
336.5020251755
 30
0.0
 11
51.058380776
 21
352.8020249251
 31
0.0
 70
   160
  1
\A1;<>
 71
     5
 42
-1.0
 73
     0
 74
     0
 75
     0
  3
DIN_(mm)
100
AcDbAlignedDimension
 13
79.9276725435
 23
369.1020251755
 33
0.0
 14
66.4276725435
 24
336.5020251755
 34
0.0
 50
90.0
100
AcDbRotatedDimension
1001
ACAD
1000
DSTYLE
1002
{
1070
   271
1070
     2
1070
     0
1002
}
  0
DIMENSION
  5
287
330
1F
100
AcDbEntity
  8
Default
  6
Continuous
 62
     7
100
AcDbDimension
  2
DMBLK48
 10
20.5113953152
 20
369.1020251755
 30
0.0
 11
20.5113953152
 21
309.5770269696
 31
0.0
 70
   160
  1
\A1;<>
 71
     5
 42
-1.0
 73
     0
 74
     0
 75
     0
  3
DIN_(mm)
100
AcDbAlignedDimension
 13
176.1367386379
 23
250.0520251755
 33
0.0
 14
79.9276725435
 24
369.1020251755
 34
0.0
 50
90.0
100
AcDbRotatedDimension
  0
DIMENSION
  5
291
330
1F
100
AcDbEntity
  8
Default
  6
Continuous
 62
     7
100
AcDbDimension
  2
DMBLK49
 10
203.0813392305
 20
330.7080085639
 30
0.0
 11
269.8979422036
 21
330.7080085639
 31
0.0
 70
   160
  1
\A1;<>
 71
     5
 42
-1.0
 73
     0
 74
     0
 75
     0
  3
DIN_(mm)
100
AcDbAlignedDimension
 13
336.7145403805
 23
280.0520251755
 33
0.0
 14
203.0813392305
 24
306.1520251755
 34
0.0
100
AcDbRotatedDimension
  0
DIMENSION
  5
29B
330
1F
100
AcDbEntity
  8
Default
  6
Continuous
 62
     7
100
AcDbDimension
  2
DMBLK50
 10
105.8847750748
 20
330.7080081973
 30
0.0
 11
154.4830571913
 21
330.7080081973
 31
0.0
 70
   160
  1
\A1;<>
 71
     5
 42
-1.0
 73
     0
 74
     0
 75
     0
  3
DIN_(mm)
100
AcDbAlignedDimension
 13
203.0813392305
 23
306.1520251755
 33
0.0
 14
105.8847750748
 24
310.0520251755
 34
0.0
100
AcDbRotatedDimension
  0
DIMENSION
  5
2A5
330
1F
100
AcDbEntity
  8
Default
  6
Continuous
 62
     7
100
AcDbDimension
  2
DMBLK51
 10
58.6804968891
 20
330.7080092344
 30
0.0
 11
82.28263587
 21
330.7080092344
 31
0.0
 70
   160
  1
\A1;<>
 71
     5
 42
-1.0
 73
     0
 74
     0
 75
     0
  3
DIN_(mm)
100
AcDbAlignedDimension
 13
105.8847750748
 23
310.0520251755
 33
0.0
 14
58.6804968891
 24
297.1020251755
 34
0.0
100
AcDbRotatedDimension
  0
DIMENSION
  5
2AF
330
1F
100
AcDbEntity
  8
Default
  6
Continuous
 62
     7
100
AcDbDimension
  2
DMBLK52
 10
163.112645986
 20
310.0520251755
 30
0.0
 11
163.112645986
 21
280.052025846
 31
0.0
 70
   161
  1
\A1;<>
 71
     5
 42
-1.0
 73
     0
 74
     0
 75
     0
  3
DIN_(mm)
100
AcDbAlignedDimension
 13
176.1367386379
 23
310.0520251755
 33
0.0
 14
176.1367386379
 24
250.0520251755
 34
0.0
1001
ACAD
1000
DSTYLE
1002
{
1070
   271
1070
     2
1070
     0
1002
}
  0
DIMENSION
  5
2B7
330
1F
100
AcDbEntity
  8
Default
  6
Continuous
 62
     7
100
AcDbDimension
  2
DMBLK53
 10
203.0813392305
 20
234.2794938449
 30
0.0
 11
189.6090386608
 21
234.2794938449
 31
0.0
 70
   160
  1
\A1;<>
 71
     5
 42
-1.0
 73
     0
 74
     0
 75
     0
  3
DIN_(mm)
100
AcDbAlignedDimension
 13
176.1367386379
 23
310.0520251755
 33
0.0
 14
203.0813392305
 24
306.1520251755
 34
0.0
100
AcDbRotatedDimension
  0
DIMENSION
  5
2C1
330
1F
100
AcDbEntity
  8
Default
  6
Continuous
 62
     7
100
AcDbDimension
  2
DMBLK54
 10
107.0813398332
 20
197.4365265839
 30
0.0
 11
129.081339714
 21
197.4365265839
 31
0.0
 70
   161
  1
\A1;<>
 71
     5
 42
-1.0
 73
     0
 74
     0
 75
     0
  3
DIN_(mm)
100
AcDbAlignedDimension
 13
107.0813398332
 23
180.6375236981
 33
0.0
 14
151.0813398332
 24
180.6375236981
 34
0.0
1001
ACAD
1000
DSTYLE
1002
{
1070
   271
1070
     2
1070
     0
1002
}
  0
DIMENSION
  5
2CB
330
1F
100
AcDbEntity
  8
Default
  6
Continuous
 62
     7
100
AcDbDimension
  2
DMBLK55
 10
26.2148615689
 20
185.6408821202
 30
0.0
 11
26.2148615689
 21
125.140882448
 31
0.0
 70
   161
  1
\A1;<>
 71
     5
 42
-1.0
 73
     0
 74
     0
 75
     0
  3
DIN_(mm)
100
AcDbAlignedDimension
 13
129.0813398332
 23
185.6408821202
 33
0.0
 14
129.0813398332
 24
64.6408821202
 34
0.0
1001
ACAD
1000
DSTYLE
1002
{
1070
   271
1070
     2
1070
     0
1002
}
  0
DIMENSION
  5
2D5
330
1F
100
AcDbEntity
  8
Default
  6
Continuous
 62
     7
100
AcDbDimension
  2
DMBLK56
 10
50.367808032
 20
103.8908821202
 30
0.0
 11
50.367808032
 21
125.1416462776
 31
0.0
 70
   160
  1
\A1;<>
 71
     5
 42
-1.0
 73
     0
 74
     0
 75
     0
  3
DIN_(mm)
100
AcDbAlignedDimension
 13
63.6796709776
 23
146.3924101856
 33
0.0
 14
79.9304968891
 24
103.8908821202
 34
0.0
 50
90.0
100
AcDbRotatedDimension
1001
ACAD
1000
DSTYLE
1002
{
1070
   271
1070
     2
1070
     0
1002
}
  0
DIMENSION
  5
2DF
330
1F
100
AcDbEntity
  8
Default
  6
Continuous
 62
     7
100
AcDbDimension
  2
DMBLK57
 10
37.4825329085
 20
155.6421266117
 30
0.0
 11
37.4825329085
 21
125.1402058818
 31
0.0
 70
   161
  1
\A1;<>
 71
     5
 42
-1.0
 73
     0
 74
     0
 75
     0
  3
DIN_(mm)
100
AcDbAlignedDimension
 13
82.9317264755
 23
155.6421266117
 33
0.0
 14
82.9317266554
 24
94.6382844144
 34
0.0
1001
ACAD
1000
DSTYLE
1002
{
1070
   271
1070
     2
1070
     0
1002
}
  0
DIMENSION
  5
2E9
330
1F
100
AcDbEntity
  8
Default
  6
Continuous
 62
     7
100
AcDbDimension
  2
DMBLK58
 10
440.130250963
 20
292.6020251755
 30
0.0
 11
440.130250963
 21
280.1020249892
 31
0.0
 70
   161
  1
\A1;<>
 71
     5
 42
-1.0
 73
     0
 74
     0
 75
     0
  3
DIN_(mm)
100
AcDbAlignedDimension
 13
451.7194381604
 23
292.6020251755
 33
0.0
 14
451.7194381604
 24
267.6020251755
 34
0.0
1001
ACAD
1000
DSTYLE
1002
{
1070
   271
1070
     2
1070
     0
1002
}
  0
DIMENSION
  5
2F3
330
1F
100
AcDbEntity
  8
Default
  6
Continuous
 62
     7
100
AcDbDimension
  2
DMBLK59
 10
451.7194381604
 20
225.2932103518
 30
0.0
 11
477.7194386969
 21
225.2932103518
 31
0.0
 70
   161
  1
\A1;<>
 71
     5
 42
-1.0
 73
     0
 74
     0
 75
     0
  3
DIN_(mm)
100
AcDbAlignedDimension
 13
451.7194381604
 23
267.6020251755
 33
0.0
 14
503.7194381604
 24
267.6011505538
 34
0.0
1001
ACAD
1000
DSTYLE
1002
{
1070
   271
1070
     2
1070
     0
1002
}
  0
LINE
  5
2FD
330
1F
100
AcDbEntity
  8
Default
  6
Continuous
 62
     7
100
AcDbLine
 10
10.0
 20
10.0
 30
0.0
 11
584.0
 21
10.0
 31
0.0
  0
LINE
  5
2FE
330
1F
100
AcDbEntity
  8
Default
  6
Continuous
 62
     7
100
AcDbLine
 10
584.0
 20
10.0
 30
0.0
 11
584.0
 21
410.0
 31
0.0
  0
LINE
  5
2FF
330
1F
100
AcDbEntity
  8
Default
  6
Continuous
 62
     7
100
AcDbLine
 10
584.0
 20
410.0
 30
0.0
 11
10.0
 21
410.0
 31
0.0
  0
LINE
  5
300
330
1F
100
AcDbEntity
  8
Default
  6
Continuous
 62
     7
100
AcDbLine
 10
10.0
 20
410.0
 30
0.0
 11
10.0
 21
10.0
 31
0.0
  0
LINE
  5
301
330
1F
100
AcDbEntity
  8
Default
  6
Continuous
 62
     7
100
AcDbLine
 10
441.125
 20
10.0
 30
0.0
 11
441.125
 21
60.8
 31
0.0
  0
LINE
  5
302
330
1F
100
AcDbEntity
  8
Default
  6
Continuous
 62
     7
100
AcDbLine
 10
463.35
 20
32.225
 30
0.0
 11
463.35
 21
60.8
 31
0.0
  0
LINE
  5
303
330
1F
100
AcDbEntity
  8
Default
  6
Continuous
 62
     7
100
AcDbLine
 10
482.4
 20
32.225
 30
0.0
 11
482.4
 21
60.8
 31
0.0
  0
LINE
  5
304
330
1F
100
AcDbEntity
  8
Default
  6
Continuous
 62
     7
100
AcDbLine
 10
504.625
 20
10.0
 30
0.0
 11
504.625
 21
60.8
 31
0.0
  0
LINE
  5
305
330
1F
100
AcDbEntity
  8
Default
  6
Continuous
 62
     7
100
AcDbLine
 10
514.15
 20
22.7
 30
0.0
 11
514.15
 21
32.098
 31
0.0
  0
LINE
  5
306
330
1F
100
AcDbEntity
  8
Default
  6
Continuous
 62
     7
100
AcDbLine
 10
526.85
 20
10.0
 30
0.0
 11
526.85
 21
16.35
 31
0.0
  0
LINE
  5
307
330
1F
100
AcDbEntity
  8
Default
  6
Continuous
 62
     7
100
AcDbLine
 10
552.25
 20
10.0
 30
0.0
 11
552.25
 21
16.35
 31
0.0
  0
LINE
  5
308
330
1F
100
AcDbEntity
  8
Default
  6
Continuous
 62
     7
100
AcDbLine
 10
574.348
 20
22.7
 30
0.0
 11
574.348
 21
32.098
 31
0.0
  0
LINE
  5
309
330
1F
100
AcDbEntity
  8
Default
  6
Continuous
 62
     7
100
AcDbLine
 10
441.125
 20
60.8
 30
0.0
 11
584.0
 21
60.8
 31
0.0
  0
LINE
  5
30A
330
1F
100
AcDbEntity
  8
Default
  6
Continuous
 62
     7
100
AcDbLine
 10
441.125
 20
55.085
 30
0.0
 11
504.625
 21
55.085
 31
0.0
  0
LINE
  5
30B
330
1F
100
AcDbEntity
  8
Default
  6
Continuous
 62
     7
100
AcDbLine
 10
441.125
 20
49.37
 30
0.0
 11
504.625
 21
49.37
 31
0.0
  0
LINE
  5
30C
330
1F
100
AcDbEntity
  8
Default
  6
Continuous
 62
     7
100
AcDbLine
 10
504.625
 20
45.052
 30
0.0
 11
584.0
 21
45.052
 31
0.0
  0
LINE
  5
30D
330
1F
100
AcDbEntity
  8
Default
  6
Continuous
 62
     7
100
AcDbLine
 10
441.125
 20
43.655
 30
0.0
 11
504.625
 21
43.655
 31
0.0
  0
LINE
  5
30E
330
1F
100
AcDbEntity
  8
Default
  6
Continuous
 62
     7
100
AcDbLine
 10
441.125
 20
37.94
 30
0.0
 11
504.625
 21
37.94
 31
0.0
  0
LINE
  5
30F
330
1F
100
AcDbEntity
  8
Default
  6
Continuous
 62
     7
100
AcDbLine
 10
441.125
 20
32.225
 30
0.0
 11
584.0
 21
32.225
 31
0.0
  0
LINE
  5
310
330
1F
100
AcDbEntity
  8
Default
  6
Continuous
 62
     7
100
AcDbLine
 10
504.625
 20
22.7
 30
0.0
 11
584.0
 21
22.7
 31
0.0
  0
LINE
  5
311
330
1F
100
AcDbEntity
  8
Default
  6
Continuous
 62
     7
100
AcDbLine
 10
504.625
 20
16.35
 30
0.0
 11
584.0
 21
16.35
 31
0.0
  0
MTEXT
  5
312
330
1F
100
AcDbEntity
  8
Default
100
AcDbMText
 10
442.649
 20
52.2275
 30
0.0
 40
3.048
 41
20.701
 46
5.715
 71
     4
 72
     1
  1
{\fSolid Edge ISO|b0||i0||c0|p34;\C7;\H3.048;\W1.;DRAWN}
 73
     1
 44
1.0
1001
ACAD
1000
ACAD_MTEXT_DEFINED_HEIGHT_BEGIN
1070
    46
1040
5.715
1000
ACAD_MTEXT_DEFINED_HEIGHT_END
  0
MTEXT
  5
313
330
1F
100
AcDbEntity
  8
Default
100
AcDbMText
 10
442.649
 20
46.5125
 30
0.0
 40
3.048
 41
20.701
 46
5.715
 71
     4
 72
     1
  1
{\fSolid Edge ISO|b0||i0||c0|p34;\C7;\H3.048;\W1.;CHECKED}
 73
     1
 44
1.0
1001
ACAD
1000
ACAD_MTEXT_DEFINED_HEIGHT_BEGIN
1070
    46
1040
5.715
1000
ACAD_MTEXT_DEFINED_HEIGHT_END
  0
MTEXT
  5
314
330
1F
100
AcDbEntity
  8
Default
100
AcDbMText
 10
442.649
 20
40.7975
 30
0.0
 40
3.048
 41
20.701
 46
5.715
 71
     4
 72
     1
  1
{\fSolid Edge ISO|b0||i0||c0|p34;\C7;\H3.048;\W1.;ENG APPR}
 73
     1
 44
1.0
1001
ACAD
1000
ACAD_MTEXT_DEFINED_HEIGHT_BEGIN
1070
    46
1040
5.715
1000
ACAD_MTEXT_DEFINED_HEIGHT_END
  0
MTEXT
  5
315
330
1F
100
AcDbEntity
  8
Default
100
AcDbMText
 10
442.649
 20
35.0825
 30
0.0
 40
3.048
 41
20.701
 46
5.715
 71
     4
 72
     1
  1
{\fSolid Edge ISO|b0||i0||c0|p34;\C7;\H3.048;\W1.;MGR APPR}
 73
     1
 44
1.0
1001
ACAD
1000
ACAD_MTEXT_DEFINED_HEIGHT_BEGIN
1070
    46
1040
5.715
1000
ACAD_MTEXT_DEFINED_HEIGHT_END
  0
MTEXT
  5
316
330
1F
100
AcDbEntity
  8
Default
100
AcDbMText
 10
472.875
 20
21.1125
 30
0.0
 40
3.048
 41
63.5
 46
22.225
 71
     5
 72
     1
  3
{\fSolid Edge ISO|b0||i0||c0|p34;\C7;\H3.048;\W1.;UNLESS OTHERWISE SPECIFIED\P}{\fSolid Edge ISO|b0||i0||c0|p34;\C7;\H3.048;\W1.;DIMENSIONS ARE IN MILLIMETERS\P}{\fSolid Edge ISO|b0||i0||c0|p34;\C7;\H3.048;\W1.;ANGLES ±X.X°\P}{\fSolid Edge ISO|b0||i0
  1
||c0|p34;\C7;\H3.048;\W1.;2 PL ±X.XX 3 PL ±X.XXX}
 73
     1
 44
1.0
1001
ACAD
1000
ACAD_MTEXT_DEFINED_HEIGHT_BEGIN
1070
    46
1040
22.225
1000
ACAD_MTEXT_DEFINED_HEIGHT_END
  0
MTEXT
  5
317
330
1F
100
AcDbEntity
  8
Default
100
AcDbMText
 10
472.875
 20
57.9425
 30
0.0
 40
3.048
 41
19.05
 46
5.715
 71
     5
 72
     1
  1
{\fSolid Edge ISO|b0||i0||c0|p34;\C7;\H3.048;\W1.;NAME}
 73
     1
 44
1.0
1001
ACAD
1000
ACAD_MTEXT_DEFINED_HEIGHT_BEGIN
1070
    46
1040
5.715
1000
ACAD_MTEXT_DEFINED_HEIGHT_END
  0
MTEXT
  5
318
330
1F
100
AcDbEntity
  8
Default
100
AcDbMText
 10
493.5125
 20
57.9425
 30
0.0
 40
3.048
 41
22.225
 46
5.715
 71
     5
 72
     1
  1
{\fSolid Edge ISO|b0||i0||c0|p34;\C7;\H3.048;\W1.;DATE}
 73
     1
 44
1.0
1001
ACAD
1000
ACAD_MTEXT_DEFINED_HEIGHT_BEGIN
1070
    46
1040
5.715
1000
ACAD_MTEXT_DEFINED_HEIGHT_END
  0
INSERT
  5
31A
330
1F
100
AcDbEntity
  8
Default
100
AcDbBlockReference
  2
SEANNOT_GROUP
 10
0.0
 20
0.0
 30
0.0
  0
MULTILEADER
  5
31D
330
1F
100
AcDbEntity
  8
Default
  6
Continuous
 62
     7
 92
      236
310
EC000000020000000C00000013000000993A0000D8000000260000008D9C853DED4C7E4005E44BA8E0584940000000000000000000000000000000000000000000000000000000000000F03F000000000000F03F00000000000000000000000000000000300037002F00300037002F00310039000000000008000000010000
310
00FCA9F1D24D620840000000000000F03F0000000000000000000000000000F03F00000000000000000000000000000000000000000000000000000000000000002200000053006F006C0069006400200045006400670065002000490053004F00000000000000000000000000
100
AcDbMLeader
300
CONTEXT_DATA{
 40
1.0
 10
482.9908
 20
52.21226
 30
0.0
 41
3.048
140
3.048
145
1.0668
174
     1
175
     1
176
     0
177
     0
290
     1
304
{\pxsm0.9;\fSolid Edge ISO|b0||i0||c0|p34;\W1.;07/07/19\P}
 11
0.0
 21
0.0
 31
1.0
340
11
 12
484.9908
 22
53.7515
 32
0.0
 13
1.0
 23
0.0
 33
0.0
 42
0.0
 43
0.0
 44
0.0
 45
1.0
170
     1
 90
-1073741824
171
     1
172
     1
 91
-939524096
141
1.5
 92
        0
291
     0
292
     0
173
     0
293
     0
142
0.0
143
0.0
294
     0
295
     0
296
     0
110
0.0
120
0.0
130
0.0
111
1.0
121
0.0
131
0.0
112
0.0
122
1.0
132
0.0
297
     0
301
}
340
6C
 90
 35052449
170
     0
 91
-1056964608
341
14
171
    -2
290
     1
291
     1
 41
0.0
342
25D
 42
4.0
172
     2
343
11
173
     1
 95
        1
174
     1
175
     0
 92
-1073741824
292
     0
 93
-1023410169
 10
1.0
 20
1.0
 30
1.0
 43
0.0
176
     0
293
     0
294
     0
178
     0
179
     1
 45
1.0
1001
ACAD_MLEADERVER
1070
     2
  0
MTEXT
  5
31E
330
1F
100
AcDbEntity
  8
Default
100
AcDbMText
 10
505.895
 20
44.3015454545
 30
0.0
 40
2.54
 41
78.105
 46
4.1563736364
 71
     1
 72
     1
  1
{\fSolid Edge ISO|b0||i0||c0|p34;\C7;\H2.54;\W1.;TITLE}
 73
     1
 44
1.0
1001
ACAD
1000
ACAD_MTEXT_DEFINED_HEIGHT_BEGIN
1070
    46
1040
4.1563736364
1000
ACAD_MTEXT_DEFINED_HEIGHT_END
  0
MTEXT
  5
31F
330
1F
100
AcDbEntity
  8
Default
100
AcDbMText
 10
509.3875
 20
31.4745454545
 30
0.0
 40
2.54
 41
9.525
 46
4.1563736364
 71
     2
 72
     1
  1
{\fSolid Edge ISO|b0||i0||c0|p34;\C7;\H2.54;\W1.;SIZE}
 73
     1
 44
1.0
1001
ACAD
1000
ACAD_MTEXT_DEFINED_HEIGHT_BEGIN
1070
    46
1040
4.1563736364
1000
ACAD_MTEXT_DEFINED_HEIGHT_END
  0
MTEXT
  5
320
330
1F
100
AcDbEntity
  8
Default
100
AcDbMText
 10
509.3875
 20
26.1925
 30
0.0
 40
3.048
 41
9.525
 46
6.985
 71
     5
 72
     1
  1
{\fSolid Edge ISO|b1||i0||c0|p34;\C7;\H3.048;\W1.;A2}
 73
     1
 44
1.0
1001
ACAD
1000
ACAD_MTEXT_DEFINED_HEIGHT_BEGIN
1070
    46
1040
6.985
1000
ACAD_MTEXT_DEFINED_HEIGHT_END
  0
MTEXT
  5
321
330
1F
100
AcDbEntity
  8
Default
100
AcDbMText
 10
515.42
 20
31.4745454545
 30
0.0
 40
2.54
 41
58.928
 46
4.1563736364
 71
     1
 72
     1
  1
{\fSolid Edge ISO|b0||i0||c0|p34;\C7;\H2.54;\W1.;DWG NO}
 73
     1
 44
1.0
1001
ACAD
1000
ACAD_MTEXT_DEFINED_HEIGHT_BEGIN
1070
    46
1040
4.1563736364
1000
ACAD_MTEXT_DEFINED_HEIGHT_END
  0
MTEXT
  5
322
330
1F
100
AcDbEntity
  8
Default
100
AcDbMText
 10
579.174
 20
31.4745454545
 30
0.0
 40
2.54
 41
9.652
 46
4.1563736364
 71
     2
 72
     1
  1
{\fSolid Edge ISO|b0||i0||c0|p34;\C7;\H2.54;\W1.;REV}
 73
     1
 44
1.0
1001
ACAD
1000
ACAD_MTEXT_DEFINED_HEIGHT_BEGIN
1070
    46
1040
4.1563736364
1000
ACAD_MTEXT_DEFINED_HEIGHT_END
  0
INSERT
  5
324
330
1F
100
AcDbEntity
  8
Default
100
AcDbBlockReference
  2
SEANNOT_GROUP1
 10
0.0
 20
0.0
 30
0.0
  0
MULTILEADER
  5
327
330
1F
100
AcDbEntity
  8
Default
  6
Continuous
 62
     7
 92
      276
310
14010000020000000C00000013000000993A00000001000026000000989F1B9AB2AF7F4050FA42C879FF3140000000000000000000000000000000000000000000000000000000000000F03F000000000000F03F00000000000000000000000000000000460049004C00450020004E0041004D0045003A0020003400350048
310
0065006C006900470065006100720062006F0078002E00640066007400000000001C00000001000000FCA9F1D24D620840000000000000F03F0000000000000000000000000000F03F00000000000000000000000000000000000000000000000000000000000000002200000053006F006C00690064002000450064006700
310
65002000490053004F00000000000000000000000000
100
AcDbMLeader
300
CONTEXT_DATA{
 40
1.0
 10
505.2158
 20
19.515856
 30
0.0
 41
3.048
140
3.048
145
1.0668
174
     1
175
     1
176
     0
177
     0
290
     1
304
{\pxsm0.9;\fSolid Edge ISO|b0||i0||c0|p34;\W1.;FILE NAME: 45HeliGearbox.dft\P}
 11
0.0
 21
0.0
 31
1.0
340
11
 12
507.2158
 22
21.049
 32
0.0
 13
1.0
 23
0.0
 33
0.0
 42
0.0
 43
0.0
 44
0.0
 45
1.0
170
     1
 90
-1073741824
171
     1
172
     1
 91
-939524096
141
1.5
 92
        0
291
     0
292
     0
173
     0
293
     0
142
0.0
143
0.0
294
     0
295
     0
296
     0
110
0.0
120
0.0
130
0.0
111
1.0
121
0.0
131
0.0
112
0.0
122
1.0
132
0.0
297
     0
301
}
340
6C
 90
 35052449
170
     0
 91
-1056964608
341
14
171
    -2
290
     1
291
     1
 41
0.0
342
25D
 42
4.0
172
     2
343
11
173
     1
 95
        1
174
     1
175
     0
 92
-1073741824
292
     0
 93
-1023410169
 10
1.0
 20
1.0
 30
1.0
 43
0.0
176
     0
293
     0
294
     0
178
     0
179
     1
 45
1.0
1001
ACAD_MLEADERVER
1070
     2
  0
MTEXT
  5
328
330
1F
100
AcDbEntity
  8
Default
100
AcDbMText
 10
506.149
 20
13.175
 30
0.0
 40
3.048
 41
20.701
 46
6.35
 71
     4
 72
     1
  1
{\fSolid Edge ISO|b0||i0||c0|p34;\C7;\H3.048;\W1.;SCALE:}
 73
     1
 44
1.0
1001
ACAD
1000
ACAD_MTEXT_DEFINED_HEIGHT_BEGIN
1070
    46
1040
6.35
1000
ACAD_MTEXT_DEFINED_HEIGHT_END
  0
MTEXT
  5
329
330
1F
100
AcDbEntity
  8
Default
100
AcDbMText
 10
528.374
 20
13.175
 30
0.0
 40
3.048
 41
23.876
 46
6.35
 71
     4
 72
     1
  1
{\fSolid Edge ISO|b0||i0||c0|p34;\C7;\H3.048;\W1.;WEIGHT:}
 73
     1
 44
1.0
1001
ACAD
1000
ACAD_MTEXT_DEFINED_HEIGHT_BEGIN
1070
    46
1040
6.35
1000
ACAD_MTEXT_DEFINED_HEIGHT_END
  0
INSERT
  5
32B
330
1F
100
AcDbEntity
  8
Default
100
AcDbBlockReference
  2
SEANNOT_GROUP2
 10
0.0
 20
0.0
 30
0.0
  0
MULTILEADER
  5
32E
330
1F
100
AcDbEntity
  8
Default
  6
Continuous
 62
     7
 92
      248
310
F8000000020000000C00000013000000993A0000E400000026000000CEC3094CA7558140D092C7D3F2432740000000000000000000000000000000000000000000000000000000000000F03F000000000000F03F000000000000000000000000000000005300480045004500540020003100350020004F0046002000310035
310
00000000000E00000001000000FCA9F1D24D620840000000000000F03F0000000000000000000000000000F03F00000000000000000000000000000000000000000000000000000000000000002200000053006F006C0069006400200045006400670065002000490053004F00000000000000000000000000
100
AcDbMLeader
300
CONTEXT_DATA{
 40
1.0
 10
552.8408
 20
13.15976
 30
0.0
 41
3.048
140
3.048
145
1.0668
174
     1
175
     1
176
     0
177
     0
290
     1
304
{\pxsm0.9;\fSolid Edge ISO|b0||i0||c0|p34;\W1.;SHEET 15 OF 15\P}
 11
0.0
 21
0.0
 31
1.0
340
11
 12
554.8408
 22
14.699
 32
0.0
 13
1.0
 23
0.0
 33
0.0
 42
0.0
 43
0.0
 44
0.0
 45
1.0
170
     1
 90
-1073741824
171
     1
172
     1
 91
-939524096
141
1.5
 92
        0
291
     0
292
     0
173
     0
293
     0
142
0.0
143
0.0
294
     0
295
     0
296
     0
110
0.0
120
0.0
130
0.0
111
1.0
121
0.0
131
0.0
112
0.0
122
1.0
132
0.0
297
     0
301
}
340
6C
 90
 35052449
170
     0
 91
-1056964608
341
14
171
    -2
290
     1
291
     1
 41
0.0
342
25D
 42
4.0
172
     2
343
11
173
     1
 95
        1
174
     1
175
     0
 92
-1073741824
292
     0
 93
-1023410169
 10
1.0
 20
1.0
 30
1.0
 43
0.0
176
     0
293
     0
294
     0
178
     0
179
     1
 45
1.0
1001
ACAD_MLEADERVER
1070
     2
  0
LINE
  5
32F
330
1F
100
AcDbEntity
  8
Default
  6
Continuous
 62
     7
100
AcDbLine
 10
457.0
 20
410.0
 30
0.0
 11
457.0
 21
390.95
 31
0.0
  0
LINE
  5
330
330
1F
100
AcDbEntity
  8
Default
  6
Continuous
 62
     7
100
AcDbLine
 10
466.652
 20
403.65
 30
0.0
 11
466.652
 21
390.95
 31
0.0
  0
LINE
  5
331
330
1F
100
AcDbEntity
  8
Default
  6
Continuous
 62
     7
100
AcDbLine
 10
536.248
 20
403.65
 30
0.0
 11
536.248
 21
390.95
 31
0.0
  0
LINE
  5
332
330
1F
100
AcDbEntity
  8
Default
  6
Continuous
 62
     7
100
AcDbLine
 10
558.6
 20
403.65
 30
0.0
 11
558.6
 21
390.95
 31
0.0
  0
LINE
  5
333
330
1F
100
AcDbEntity
  8
Default
  6
Continuous
 62
     7
100
AcDbLine
 10
457.0
 20
403.65
 30
0.0
 11
584.0
 21
403.65
 31
0.0
  0
LINE
  5
334
330
1F
100
AcDbEntity
  8
Default
  6
Continuous
 62
     7
100
AcDbLine
 10
457.0
 20
397.3
 30
0.0
 11
584.0
 21
397.3
 31
0.0
  0
MTEXT
  5
335
330
1F
100
AcDbEntity
  8
Default
100
AcDbMText
 10
520.5
 20
406.825
 30
0.0
 40
3.048
 41
127.0
 46
6.35
 71
     5
 72
     1
  1
{\fSolid Edge ISO|b0||i0||c0|p34;\C7;\H3.048;\W1.;REVISION HISTORY}
 73
     1
 44
1.0
1001
ACAD
1000
ACAD_MTEXT_DEFINED_HEIGHT_BEGIN
1070
    46
1040
6.35
1000
ACAD_MTEXT_DEFINED_HEIGHT_END
  0
MTEXT
  5
336
330
1F
100
AcDbEntity
  8
Default
100
AcDbMText
 10
461.826
 20
400.475
 30
0.0
 40
3.048
 41
9.652
 46
6.35
 71
     5
 72
     1
  1
{\fSolid Edge ISO|b0||i0||c0|p34;\C7;\H3.048;\W1.;REV}
 73
     1
 44
1.0
1001
ACAD
1000
ACAD_MTEXT_DEFINED_HEIGHT_BEGIN
1070
    46
1040
6.35
1000
ACAD_MTEXT_DEFINED_HEIGHT_END
  0
MTEXT
  5
337
330
1F
100
AcDbEntity
  8
Default
100
AcDbMText
 10
501.45
 20
400.475
 30
0.0
 40
3.048
 41
69.596
 46
6.35
 71
     5
 72
     1
  1
{\fSolid Edge ISO|b0||i0||c0|p34;\C7;\H3.048;\W1.;DESCRIPTION}
 73
     1
 44
1.0
1001
ACAD
1000
ACAD_MTEXT_DEFINED_HEIGHT_BEGIN
1070
    46
1040
6.35
1000
ACAD_MTEXT_DEFINED_HEIGHT_END
  0
MTEXT
  5
338
330
1F
100
AcDbEntity
  8
Default
100
AcDbMText
 10
547.424
 20
400.475
 30
0.0
 40
3.048
 41
22.352
 46
6.35
 71
     5
 72
     1
  1
{\fSolid Edge ISO|b0||i0||c0|p34;\C7;\H3.048;\W1.;DATE}
 73
     1
 44
1.0
1001
ACAD
1000
ACAD_MTEXT_DEFINED_HEIGHT_BEGIN
1070
    46
1040
6.35
1000
ACAD_MTEXT_DEFINED_HEIGHT_END
  0
MTEXT
  5
339
330
1F
100
AcDbEntity
  8
Default
100
AcDbMText
 10
571.3
 20
400.475
 30
0.0
 40
3.048
 41
25.4
 46
6.35
 71
     5
 72
     1
  1
{\fSolid Edge ISO|b0||i0||c0|p34;\C7;\H3.048;\W1.;APPROVED}
 73
     1
 44
1.0
1001
ACAD
1000
ACAD_MTEXT_DEFINED_HEIGHT_BEGIN
1070
    46
1040
6.35
1000
ACAD_MTEXT_DEFINED_HEIGHT_END
  0
MTEXT
  5
33A
330
1F
100
AcDbEntity
  8
Default
100
AcDbMText
 10
546.70381027
 20
53.5834441231
 30
0.0
 40
5.0
 41
79.375
 46
21.1666666667
 71
     5
 72
     1
  1
{\fSolid Edge ANSI|b1||i0||c0|p34;\C7;\H5.;\W1.;xicoy\P}{\fSolid Edge ANSI|b1||i0||c0|p34;\C7;\H5.;\W1.;turbines}
 73
     1
 44
1.0
1001
ACAD
1000
ACAD_MTEXT_DEFINED_HEIGHT_BEGIN
1070
    46
1040
21.1666666667
1000
ACAD_MTEXT_DEFINED_HEIGHT_END
  0
MTEXT
  5
33B
330
1F
100
AcDbEntity
  8
Default
100
AcDbMText
 10
465.7890016536
 20
54.2850238344
 30
0.0
 40
4.0
 41
14.600011
 46
6.5454645455
 71
     1
 72
     1
  1
{\fSolid Edge ISO|b0||i0||c0|p34;\C7;\H4.;\W1.;Gaspar}
 73
     1
 44
1.0
1001
ACAD
1000
ACAD_MTEXT_DEFINED_HEIGHT_BEGIN
1070
    46
1040
6.5454645455
1000
ACAD_MTEXT_DEFINED_HEIGHT_END
  0
ENDSEC
  0
SECTION
  2
OBJECTS
  0
DICTIONARY
  5
C
330
0
100
AcDbDictionary
281
     1
  3
ACAD_DETAILVIEWSTYLE
350
377
  3
ACAD_GROUP
350
D
  3
ACAD_LAYOUT
350
1A
  3
ACAD_MATERIAL
350
43
  3
ACAD_MLEADERSTYLE
350
6B
  3
ACAD_MLINESTYLE
350
17
  3
ACAD_PLOTSETTINGS
350
19
  3
ACAD_PLOTSTYLENAME
350
E
  3
ACAD_SCALELIST
350
47
  3
ACAD_SECTIONVIEWSTYLE
350
378
  3
ACAD_TABLESTYLE
350
69
  3
ACAD_VISUALSTYLE
350
2A
  3
ACDB_RECOMPOSE_DATA
350
374
  3
AcDbVariableDictionary
350
33D
  0
SUN
  5
6D
330
29
100
AcDbSun
 90
        1
290
     0
 63
     7
421
 16777215
 40
1.0
291
     1
 91
  2455826
 92
 54000000
292
     0
 70
     2
 71
   256
280
     1
  0
DICTIONARY
  5
377
102
{ACAD_REACTORS
330
C
102
}
330
C
100
AcDbDictionary
281
     1
  0
DICTIONARY
  5
D
102
{ACAD_REACTORS
330
C
102
}
330
C
100
AcDbDictionary
281
     1
  0
DICTIONARY
  5
1A
102
{ACAD_REACTORS
330
C
102
}
330
C
100
AcDbDictionary
281
     1
  3
Layout1
350
1E
  3
Model
350
22
  0
DICTIONARY
  5
43
102
{ACAD_REACTORS
330
C
102
}
330
C
100
AcDbDictionary
281
     1
  3
ByBlock
350
45
  3
ByLayer
350
44
  3
Global
350
46
  0
DICTIONARY
  5
6B
102
{ACAD_REACTORS
330
C
102
}
330
C
100
AcDbDictionary
281
     1
  3
Standard
350
6C
  0
DICTIONARY
  5
17
102
{ACAD_REACTORS
330
C
102
}
330
C
100
AcDbDictionary
281
     1
  3
Standard
350
18
  0
DICTIONARY
  5
19
102
{ACAD_REACTORS
330
C
102
}
330
C
100
AcDbDictionary
281
     1
  0
ACDBDICTIONARYWDFLT
  5
E
102
{ACAD_REACTORS
330
C
102
}
330
C
100
AcDbDictionary
281
     1
  3
Normal
350
F
100
AcDbDictionaryWithDefault
340
F
  0
DICTIONARY
  5
47
102
{ACAD_REACTORS
330
C
102
}
330
C
100
AcDbDictionary
281
     1
  3
A0
350
48
  3
A1
350
49
  3
A2
350
4A
  3
A3
350
4B
  3
A4
350
4C
  3
A5
350
4D
  3
A6
350
4E
  3
A7
350
4F
  3
A8
350
50
  3
A9
350
51
  3
B0
350
52
  3
B1
350
53
  3
B2
350
54
  3
B3
350
55
  3
B4
350
56
  3
B5
350
57
  3
B6
350
58
  3
B7
350
59
  3
B8
350
5A
  3
B9
350
5B
  3
C0
350
5C
  3
C1
350
5D
  3
C2
350
5E
  3
C3
350
5F
  3
C4
350
60
  3
C5
350
61
  3
C6
350
62
  3
C7
350
63
  3
C8
350
64
  3
C9
350
65
  3
D0
350
66
  3
D1
350
67
  3
D2
350
68
  0
DICTIONARY
  5
378
102
{ACAD_REACTORS
330
C
102
}
330
C
100
AcDbDictionary
281
     1
  0
DICTIONARY
  5
69
102
{ACAD_REACTORS
330
C
102
}
330
C
100
AcDbDictionary
281
     1
  3
Standard
350
6A
  0
DICTIONARY
  5
2A
102
{ACAD_REACTORS
330
C
102
}
330
C
100
AcDbDictionary
281
     1
  3
2dWireframe
350
2F
  3
Basic
350
32
  3
Brighten
350
36
  3
ColorChange
350
3A
  3
Conceptual
350
34
  3
Dim
350
35
  3
EdgeColorOff
350
3D
  3
Facepattern
350
39
  3
Flat
350
2B
  3
FlatWithEdges
350
2C
  3
Gouraud
350
2D
  3
GouraudWithEdges
350
2E
  3
Hidden
350
31
  3
JitterOff
350
3B
  3
Linepattern
350
38
  3
OverhangOff
350
3C
  3
Realistic
350
33
  3
Shaded
350
42
  3
Shaded with edges
350
41
  3
Shades of Gray
350
3E
  3
Sketchy
350
3F
  3
Thicken
350
37
  3
Wireframe
350
30
  3
X-Ray
350
40
  0
XRECORD
  5
374
102
{ACAD_REACTORS
330
C
102
}
330
C
100
AcDbXrecord
280
     1
 90
        1
330
6A
  0
DICTIONARY
  5
33D
102
{ACAD_REACTORS
330
C
102
}
330
C
100
AcDbDictionary
281
     1
  3
CANNOSCALE
350
33E
  3
CENTEREXE
350
379
  3
CENTERLTYPEFILE
350
37A
  3
CMLEADERSTYLE
350
376
  3
CTABLESTYLE
350
375
  3
XCLIPFRAME
350
33F
  0
LAYOUT
  5
1E
102
{ACAD_REACTORS
330
1A
102
}
330
1A
100
AcDbPlotSettings
  1

  2
none_device
  4

  6

 40
0.0
 41
0.0
 42
0.0
 43
0.0
 44
0.0
 45
0.0
 46
0.0
 47
0.0
 48
0.0
 49
0.0
140
0.0
141
0.0
142
1.0
143
1.0
 70
   688
 72
     1
 73
     0
 74
     5
  7

 75
    16
 76
     0
 77
     2
 78
   300
147
1.0
148
0.0
149
0.0
100
AcDbLayout
  1
Layout1
 70
     1
 71
     1
 10
0.0
 20
0.0
 11
594.0
 21
420.0
 12
0.0
 22
0.0
 32
0.0
 14
0.0
 24
0.0
 34
0.0
 15
594.0
 25
420.0
 35
0.0
146
0.0
 13
0.0
 23
0.0
 33
0.0
 16
1.0
 26
0.0
 36
0.0
 17
0.0
 27
1.0
 37
0.0
 76
     0
330
1B
  0
LAYOUT
  5
22
102
{ACAD_REACTORS
330
1A
102
}
330
1A
100
AcDbPlotSettings
  1

  2
none_device
  4
Letter_(8.50_x_11.00_Inches)
  6

 40
6.35
 41
6.35
 42
6.35000508
 43
6.35000508
 44
215.9
 45
279.4
 46
0.0
 47
0.0
 48
0.0
 49
0.0
140
0.0
141
0.0
142
1.0
143
1.0
 70
  1712
 72
     1
 73
     0
 74
     0
  7

 75
     0
 76
     0
 77
     2
 78
   300
147
1.0
148
0.0
149
0.0
100
AcDbLayout
  1
Model
 70
     1
 71
     0
 10
0.0
 20
0.0
 11
594.0
 21
420.0
 12
0.0
 22
0.0
 32
0.0
 14
0.0
 24
0.0
 34
0.0
 15
594.0
 25
420.0
 35
0.0
146
0.0
 13
0.0
 23
0.0
 33
0.0
 16
1.0
 26
0.0
 36
0.0
 17
0.0
 27
1.0
 37
0.0
 76
     0
330
1F
331
29
  0
MATERIAL
  5
45
102
{ACAD_REACTORS
330
43
102
}
330
43
100
AcDbMaterial
  1
ByBlock
 72
     1
 94
      127
  0
MATERIAL
  5
44
102
{ACAD_REACTORS
330
43
102
}
330
43
100
AcDbMaterial
  1
ByLayer
 72
     1
 94
      127
  0
MATERIAL
  5
46
102
{ACAD_REACTORS
330
43
102
}
330
43
100
AcDbMaterial
  1
Global
 72
     1
 94
      127
  0
MLEADERSTYLE
  5
6C
102
{ACAD_REACTORS
330
6B
102
}
102
{ACAD_XDICTIONARY
360
372
102
}
330
6B
100
AcDbMLeaderStyle
170
     2
171
     1
172
     0
 90
        2
 40
0.0
 41
0.0
173
     1
 91
-1056964608
340
14
 92
       -2
290
     1
 42
2.0
291
     1
 43
8.0
  3
Standard
341
0
 44
4.0
300

342
11
174
     1
178
     6
175
     1
176
     0
 93
-1056964608
 45
4.0
292
     0
297
     0
 46
4.0
343
0
 94
-1056964608
 47
1.0
 49
1.0
140
1.0
293
     1
141
0.0
294
     1
177
     0
142
1.0
295
     0
296
     0
143
3.75
1001
ACAD_MLEADERVER
1070
     2
  0
MLINESTYLE
  5
18
102
{ACAD_REACTORS
330
17
102
}
330
17
100
AcDbMlineStyle
  2
Standard
 70
     0
  3

 62
   256
 51
90.0
 52
90.0
 71
     2
 49
0.5
 62
   256
  6
BYLAYER
 49
-0.5
 62
   256
  6
BYLAYER
  0
ACDBPLACEHOLDER
  5
F
102
{ACAD_REACTORS
330
E
102
}
330
E
  0
SCALE
  5
48
102
{ACAD_REACTORS
330
47
102
}
330
47
100
AcDbScale
 70
     0
300
1:1
140
1.0
141
1.0
290
     1
  0
SCALE
  5
49
102
{ACAD_REACTORS
330
47
102
}
330
47
100
AcDbScale
 70
     0
300
1:2
140
1.0
141
2.0
290
     0
  0
SCALE
  5
4A
102
{ACAD_REACTORS
330
47
102
}
330
47
100
AcDbScale
 70
     0
300
1:4
140
1.0
141
4.0
290
     0
  0
SCALE
  5
4B
102
{ACAD_REACTORS
330
47
102
}
330
47
100
AcDbScale
 70
     0
300
1:5
140
1.0
141
5.0
290
     0
  0
SCALE
  5
4C
102
{ACAD_REACTORS
330
47
102
}
330
47
100
AcDbScale
 70
     0
300
1:8
140
1.0
141
8.0
290
     0
  0
SCALE
  5
4D
102
{ACAD_REACTORS
330
47
102
}
330
47
100
AcDbScale
 70
     0
300
1:10
140
1.0
141
10.0
290
     0
  0
SCALE
  5
4E
102
{ACAD_REACTORS
330
47
102
}
330
47
100
AcDbScale
 70
     0
300
1:16
140
1.0
141
16.0
290
     0
  0
SCALE
  5
4F
102
{ACAD_REACTORS
330
47
102
}
330
47
100
AcDbScale
 70
     0
300
1:20
140
1.0
141
20.0
290
     0
  0
SCALE
  5
50
102
{ACAD_REACTORS
330
47
102
}
330
47
100
AcDbScale
 70
     0
300
1:30
140
1.0
141
30.0
290
     0
  0
SCALE
  5
51
102
{ACAD_REACTORS
330
47
102
}
330
47
100
AcDbScale
 70
     0
300
1:40
140
1.0
141
40.0
290
     0
  0
SCALE
  5
52
102
{ACAD_REACTORS
330
47
102
}
330
47
100
AcDbScale
 70
     0
300
1:50
140
1.0
141
50.0
290
     0
  0
SCALE
  5
53
102
{ACAD_REACTORS
330
47
102
}
330
47
100
AcDbScale
 70
     0
300
1:100
140
1.0
141
100.0
290
     0
  0
SCALE
  5
54
102
{ACAD_REACTORS
330
47
102
}
330
47
100
AcDbScale
 70
     0
300
2:1
140
2.0
141
1.0
290
     0
  0
SCALE
  5
55
102
{ACAD_REACTORS
330
47
102
}
330
47
100
AcDbScale
 70
     0
300
4:1
140
4.0
141
1.0
290
     0
  0
SCALE
  5
56
102
{ACAD_REACTORS
330
47
102
}
330
47
100
AcDbScale
 70
     0
300
8:1
140
8.0
141
1.0
290
     0
  0
SCALE
  5
57
102
{ACAD_REACTORS
330
47
102
}
330
47
100
AcDbScale
 70
     0
300
10:1
140
10.0
141
1.0
290
     0
  0
SCALE
  5
58
102
{ACAD_REACTORS
330
47
102
}
330
47
100
AcDbScale
 70
     0
300
100:1
140
100.0
141
1.0
290
     0
  0
SCALE
  5
59
102
{ACAD_REACTORS
330
47
102
}
330
47
100
AcDbScale
 70
     0
300
1/128" = 1'-0"
140
0.0078125
141
12.0
290
     0
  0
SCALE
  5
5A
102
{ACAD_REACTORS
330
47
102
}
330
47
100
AcDbScale
 70
     0
300
1/64" = 1'-0"
140
0.015625
141
12.0
290
     0
  0
SCALE
  5
5B
102
{ACAD_REACTORS
330
47
102
}
330
47
100
AcDbScale
 70
     0
300
1/32" = 1'-0"
140
0.03125
141
12.0
290
     0
  0
SCALE
  5
5C
102
{ACAD_REACTORS
330
47
102
}
330
47
100
AcDbScale
 70
     0
300
1/16" = 1'-0"
140
0.0625
141
12.0
290
     0
  0
SCALE
  5
5D
102
{ACAD_REACTORS
330
47
102
}
330
47
100
AcDbScale
 70
     0
300
3/32" = 1'-0"
140
0.09375
141
12.0
290
     0
  0
SCALE
  5
5E
102
{ACAD_REACTORS
330
47
102
}
330
47
100
AcDbScale
 70
     0
300
1/8" = 1'-0"
140
0.125
141
12.0
290
     0
  0
SCALE
  5
5F
102
{ACAD_REACTORS
330
47
102
}
330
47
100
AcDbScale
 70
     0
300
3/16" = 1'-0"
140
0.1875
141
12.0
290
     0
  0
SCALE
  5
60
102
{ACAD_REACTORS
330
47
102
}
330
47
100
AcDbScale
 70
     0
300
1/4" = 1'-0"
140
0.25
141
12.0
290
     0
  0
SCALE
  5
61
102
{ACAD_REACTORS
330
47
102
}
330
47
100
AcDbScale
 70
     0
300
3/8" = 1'-0"
140
0.375
141
12.0
290
     0
  0
SCALE
  5
62
102
{ACAD_REACTORS
330
47
102
}
330
47
100
AcDbScale
 70
     0
300
1/2" = 1'-0"
140
0.5
141
12.0
290
     0
  0
SCALE
  5
63
102
{ACAD_REACTORS
330
47
102
}
330
47
100
AcDbScale
 70
     0
300
3/4" = 1'-0"
140
0.75
141
12.0
290
     0
  0
SCALE
  5
64
102
{ACAD_REACTORS
330
47
102
}
330
47
100
AcDbScale
 70
     0
300
1" = 1'-0"
140
1.0
141
12.0
290
     0
  0
SCALE
  5
65
102
{ACAD_REACTORS
330
47
102
}
330
47
100
AcDbScale
 70
     0
300
1-1/2" = 1'-0"
140
1.5
141
12.0
290
     0
  0
SCALE
  5
66
102
{ACAD_REACTORS
330
47
102
}
330
47
100
AcDbScale
 70
     0
300
3" = 1'-0"
140
3.0
141
12.0
290
     0
  0
SCALE
  5
67
102
{ACAD_REACTORS
330
47
102
}
330
47
100
AcDbScale
 70
     0
300
6" = 1'-0"
140
6.0
141
12.0
290
     0
  0
SCALE
  5
68
102
{ACAD_REACTORS
330
47
102
}
330
47
100
AcDbScale
 70
     0
300
1'-0" = 1'-0"
140
12.0
141
12.0
290
     0
  0
TABLESTYLE
  5
6A
102
{ACAD_REACTORS
330
69
102
}
102
{ACAD_XDICTIONARY
360
370
102
}
330
69
100
AcDbTableStyle
  3
Standard
 70
     0
 71
     0
 40
0.06
 41
0.06
280
     0
281
     0
  7
Standard
140
4.5
170
     2
 62
     0
 63
   257
283
     0
 90
        4
 91
        0
  1

274
    -2
284
     1
 64
     0
275
    -2
285
     1
 65
     0
276
    -2
286
     1
 66
     0
277
    -2
287
     1
 67
     0
278
    -2
288
     1
 68
     0
279
    -2
289
     1
 69
     0
  7
Standard
140
6.0
170
     5
 62
     0
 63
   257
283
     0
 90
        4
 91
        0
  1

274
    -2
284
     1
 64
     0
275
    -2
285
     1
 65
     0
276
    -2
286
     1
 66
     0
277
    -2
287
     1
 67
     0
278
    -2
288
     1
 68
     0
279
    -2
289
     1
 69
     0
  7
Standard
140
4.5
170
     5
 62
     0
 63
   257
283
     0
 90
        4
 91
        0
  1

274
    -2
284
     1
 64
     0
275
    -2
285
     1
 65
     0
276
    -2
286
     1
 66
     0
277
    -2
287
     1
 67
     0
278
    -2
288
     1
 68
     0
279
    -2
289
     1
 69
     0
  0
VISUALSTYLE
  5
2F
102
{ACAD_REACTORS
330
2A
102
}
102
{ACAD_XDICTIONARY
360
348
102
}
330
2A
100
AcDbVisualStyle
  2
2dWireframe
 70
     4
 71
     0
 72
     2
 73
     0
 90
        0
 40
0.6
 41
30.0
 62
     5
 63
     7
421
 16777215
 74
     1
 91
        4
 64
     7
 65
   257
 75
     1
175
     1
 42
1.0
 92
        0
 66
   257
 43
1.0
 76
     1
 77
     6
 78
     2
 67
     7
 79
     5
170
     0
171
     0
290
     0
174
     0
 93
        1
 44
0.0
173
     0
291
     0
 45
0.0
  0
VISUALSTYLE
  5
32
102
{ACAD_REACTORS
330
2A
102
}
102
{ACAD_XDICTIONARY
360
34E
102
}
330
2A
100
AcDbVisualStyle
  2
Basic
 70
     7
 71
     1
 72
     0
 73
     1
 90
        0
 40
0.6
 41
30.0
 62
     5
 63
     7
421
 16777215
 74
     0
 91
        4
 64
     7
 65
   257
 75
     1
175
     1
 42
1.0
 92
        8
 66
     7
 43
1.0
 76
     1
 77
     6
 78
     2
 67
     7
 79
     5
170
     0
171
     0
290
     0
174
     0
 93
        1
 44
0.0
173
     0
291
     1
 45
0.0
  0
VISUALSTYLE
  5
36
102
{ACAD_REACTORS
330
2A
102
}
102
{ACAD_XDICTIONARY
360
356
102
}
330
2A
100
AcDbVisualStyle
  2
Brighten
 70
    12
 71
     2
 72
     2
 73
     0
 90
        0
 40
0.6
 41
30.0
 62
     5
 63
     7
421
 16777215
 74
     1
 91
        4
 64
     7
 65
   257
 75
     1
175
     1
 42
1.0
 92
        8
 66
     7
 43
1.0
 76
     1
 77
     6
 78
     2
 67
     7
 79
     5
170
     0
171
     0
290
     0
174
     0
 93
        1
 44
50.0
173
     0
291
     1
 45
0.0
  0
VISUALSTYLE
  5
3A
102
{ACAD_REACTORS
330
2A
102
}
102
{ACAD_XDICTIONARY
360
35E
102
}
330
2A
100
AcDbVisualStyle
  2
ColorChange
 70
    16
 71
     2
 72
     2
 73
     3
 90
        0
 40
0.6
 41
30.0
 62
     5
 63
     8
421
  8421504
 74
     1
 91
        4
 64
     7
 65
   257
 75
     1
175
     1
 42
1.0
 92
        8
 66
     8
424
  8421504
 43
1.0
 76
     1
 77
     6
 78
     2
 67
     7
 79
     5
170
     0
171
     0
290
     0
174
     0
 93
        1
 44
0.0
173
     0
291
     1
 45
0.0
  0
VISUALSTYLE
  5
34
102
{ACAD_REACTORS
330
2A
102
}
102
{ACAD_XDICTIONARY
360
352
102
}
330
2A
100
AcDbVisualStyle
  2
Conceptual
 70
     9
 71
     3
 72
     2
 73
     0
 90
        0
 40
0.6
 41
30.0
 62
     5
 63
     7
421
 16777215
 74
     2
 91
        2
 64
     7
 65
   257
 75
     1
175
     1
 42
179.0
 92
        8
 66
     7
 43
1.0
 76
     1
 77
     6
 78
     2
 67
     7
 79
     3
170
     0
171
     0
290
     0
174
     0
 93
        1
 44
0.0
173
     0
291
     0
 45
0.0
  0
VISUALSTYLE
  5
35
102
{ACAD_REACTORS
330
2A
102
}
102
{ACAD_XDICTIONARY
360
354
102
}
330
2A
100
AcDbVisualStyle
  2
Dim
 70
    11
 71
     2
 72
     2
 73
     0
 90
        0
 40
0.6
 41
30.0
 62
     5
 63
     7
421
 16777215
 74
     1
 91
        4
 64
     7
 65
   257
 75
     1
175
     1
 42
1.0
 92
        8
 66
     7
 43
1.0
 76
     1
 77
     6
 78
     2
 67
     7
 79
     5
170
     0
171
     0
290
     0
174
     0
 93
        1
 44
-50.0
173
     0
291
     1
 45
0.0
  0
VISUALSTYLE
  5
3D
102
{ACAD_REACTORS
330
2A
102
}
102
{ACAD_XDICTIONARY
360
364
102
}
330
2A
100
AcDbVisualStyle
  2
EdgeColorOff
 70
    22
 71
     2
 72
     2
 73
     0
 90
        0
 40
0.6
 41
30.0
 62
     5
 63
     7
421
 16777215
 74
     1
 91
        4
 64
     7
 65
   257
 75
     1
175
     1
 42
1.0
 92
        8
 66
     7
 43
1.0
 76
     1
 77
     6
 78
     2
 67
     7
 79
     5
170
     0
171
     0
290
     0
174
     0
 93
        1
 44
0.0
173
     0
291
     1
 45
0.0
  0
VISUALSTYLE
  5
39
102
{ACAD_REACTORS
330
2A
102
}
102
{ACAD_XDICTIONARY
360
35C
102
}
330
2A
100
AcDbVisualStyle
  2
Facepattern
 70
    15
 71
     2
 72
     2
 73
     0
 90
        0
 40
0.6
 41
30.0
 62
     5
 63
     7
421
 16777215
 74
     1
 91
        4
 64
     7
 65
   257
 75
     1
175
     1
 42
1.0
 92
        8
 66
     7
 43
1.0
 76
     1
 77
     6
 78
     2
 67
     7
 79
     5
170
     0
171
     0
290
     0
174
     0
 93
        1
 44
0.0
173
     0
291
     1
 45
0.0
  0
VISUALSTYLE
  5
2B
102
{ACAD_REACTORS
330
2A
102
}
102
{ACAD_XDICTIONARY
360
340
102
}
330
2A
100
AcDbVisualStyle
  2
Flat
 70
     0
 71
     2
 72
     1
 73
     1
 90
        2
 40
0.6
 41
30.0
 62
     5
 63
     7
421
 16777215
 74
     0
 91
        0
 64
     7
 65
   257
 75
     1
175
     1
 42
1.0
 92
        8
 66
     7
 43
1.0
 76
     1
 77
     6
 78
     2
 67
     7
 79
     5
170
     0
171
     0
290
     0
174
     0
 93
       13
 44
0.0
173
     0
291
     1
 45
0.0
  0
VISUALSTYLE
  5
2C
102
{ACAD_REACTORS
330
2A
102
}
102
{ACAD_XDICTIONARY
360
342
102
}
330
2A
100
AcDbVisualStyle
  2
FlatWithEdges
 70
     1
 71
     2
 72
     1
 73
     1
 90
        2
 40
0.6
 41
30.0
 62
     5
 63
     7
421
 16777215
 74
     1
 91
        0
 64
     7
 65
   257
 75
     1
175
     1
 42
1.0
 92
        0
 66
   257
 43
1.0
 76
     1
 77
     6
 78
     2
 67
     7
 79
     5
170
     0
171
     0
290
     0
174
     0
 93
       13
 44
0.0
173
     0
291
     1
 45
0.0
  0
VISUALSTYLE
  5
2D
102
{ACAD_REACTORS
330
2A
102
}
102
{ACAD_XDICTIONARY
360
344
102
}
330
2A
100
AcDbVisualStyle
  2
Gouraud
 70
     2
 71
     2
 72
     2
 73
     1
 90
        2
 40
0.6
 41
30.0
 62
     5
 63
     7
421
 16777215
 74
     0
 91
        0
 64
     7
 65
   257
 75
     1
175
     1
 42
1.0
 92
        0
 66
     7
 43
1.0
 76
     1
 77
     6
 78
     2
 67
     7
 79
     5
170
     0
171
     0
290
     0
174
     0
 93
       13
 44
0.0
173
     0
291
     1
 45
0.0
  0
VISUALSTYLE
  5
2E
102
{ACAD_REACTORS
330
2A
102
}
102
{ACAD_XDICTIONARY
360
346
102
}
330
2A
100
AcDbVisualStyle
  2
GouraudWithEdges
 70
     3
 71
     2
 72
     2
 73
     1
 90
        2
 40
0.6
 41
30.0
 62
     5
 63
     7
421
 16777215
 74
     1
 91
        0
 64
     7
 65
   257
 75
     1
175
     1
 42
1.0
 92
        0
 66
   257
 43
1.0
 76
     1
 77
     6
 78
     2
 67
     7
 79
     5
170
     0
171
     0
290
     0
174
     0
 93
       13
 44
0.0
173
     0
291
     1
 45
0.0
  0
VISUALSTYLE
  5
31
102
{ACAD_REACTORS
330
2A
102
}
102
{ACAD_XDICTIONARY
360
34C
102
}
330
2A
100
AcDbVisualStyle
  2
Hidden
 70
     6
 71
     1
 72
     2
 73
     2
 90
        0
 40
0.6
 41
30.0
 62
     5
 63
     7
421
 16777215
 74
     2
 91
        2
 64
     7
 65
   257
 75
     2
175
     1
 42
40.0
 92
        0
 66
   257
 43
1.0
 76
     1
 77
     6
 78
     2
 67
     7
 79
     3
170
     0
171
     0
290
     0
174
     0
 93
        1
 44
0.0
173
     0
291
     0
 45
0.0
  0
VISUALSTYLE
  5
3B
102
{ACAD_REACTORS
330
2A
102
}
102
{ACAD_XDICTIONARY
360
360
102
}
330
2A
100
AcDbVisualStyle
  2
JitterOff
 70
    20
 71
     2
 72
     2
 73
     0
 90
        0
 40
0.6
 41
30.0
 62
     5
 63
     7
421
 16777215
 74
     1
 91
        4
 64
     7
 65
   257
 75
     1
175
     1
 42
1.0
 92
       10
 66
     7
 43
1.0
 76
     1
 77
     6
 78
     2
 67
     7
 79
     5
170
     0
171
     0
290
     0
174
     0
 93
        1
 44
0.0
173
     0
291
     1
 45
0.0
  0
VISUALSTYLE
  5
38
102
{ACAD_REACTORS
330
2A
102
}
102
{ACAD_XDICTIONARY
360
35A
102
}
330
2A
100
AcDbVisualStyle
  2
Linepattern
 70
    14
 71
     2
 72
     2
 73
     0
 90
        0
 40
0.6
 41
30.0
 62
     5
 63
     7
421
 16777215
 74
     1
 91
        4
 64
     7
 65
   257
 75
     7
175
     7
 42
1.0
 92
        8
 66
     7
 43
1.0
 76
     1
 77
     6
 78
     2
 67
     7
 79
     5
170
     0
171
     0
290
     0
174
     0
 93
        1
 44
0.0
173
     0
291
     1
 45
0.0
  0
VISUALSTYLE
  5
3C
102
{ACAD_REACTORS
330
2A
102
}
102
{ACAD_XDICTIONARY
360
362
102
}
330
2A
100
AcDbVisualStyle
  2
OverhangOff
 70
    21
 71
     2
 72
     2
 73
     0
 90
        0
 40
0.6
 41
30.0
 62
     5
 63
     7
421
 16777215
 74
     1
 91
        4
 64
     7
 65
   257
 75
     1
175
     1
 42
1.0
 92
        9
 66
     7
 43
1.0
 76
     1
 77
     6
 78
     2
 67
     7
 79
     5
170
     0
171
     0
290
     0
174
     0
 93
        1
 44
0.0
173
     0
291
     1
 45
0.0
  0
VISUALSTYLE
  5
33
102
{ACAD_REACTORS
330
2A
102
}
102
{ACAD_XDICTIONARY
360
350
102
}
330
2A
100
AcDbVisualStyle
  2
Realistic
 70
     8
 71
     2
 72
     3
 73
     0
 90
        2
 40
0.6
 41
30.0
 62
     5
 63
     7
421
 16777215
 74
     0
 91
        0
 64
     7
 65
   257
 75
     1
175
     1
 42
1.0
 92
        8
 66
   257
 43
1.0
 76
     1
 77
     6
 78
     2
 67
     7
 79
     3
170
     0
171
     0
290
     0
174
     0
 93
       13
 44
0.0
173
     0
291
     0
 45
0.0
  0
VISUALSTYLE
  5
42
102
{ACAD_REACTORS
330
2A
102
}
102
{ACAD_XDICTIONARY
360
36E
102
}
330
2A
100
AcDbVisualStyle
  2
Shaded
 70
    27
 71
     2
 72
     2
 73
     1
 90
        2
 40
0.6
 41
30.0
 62
     5
 63
     7
421
 16777215
 74
     0
 91
        4
 64
     7
 65
   257
 75
     1
175
     1
 42
1.0
 92
        8
 66
   257
 43
1.0
 76
     1
 77
     6
 78
     2
 67
     8
425
  7895160
 79
     3
170
     0
171
     0
290
     0
174
     0
 93
        5
 44
0.0
173
     0
291
     0
 45
0.0
  0
VISUALSTYLE
  5
41
102
{ACAD_REACTORS
330
2A
102
}
102
{ACAD_XDICTIONARY
360
36C
102
}
330
2A
100
AcDbVisualStyle
  2
Shaded with edges
 70
    26
 71
     2
 72
     2
 73
     1
 90
        2
 40
0.6
 41
30.0
 62
     5
 63
     7
421
 16777215
 74
     1
 91
       10
 64
     7
 65
   257
 75
     2
175
     1
 42
1.0
 92
        8
 66
   257
 43
1.0
 76
     1
 77
     6
 78
     2
 67
     7
 79
     3
170
     0
171
     0
290
     0
174
     0
 93
        5
 44
0.0
173
     0
291
     0
 45
0.0
  0
VISUALSTYLE
  5
3E
102
{ACAD_REACTORS
330
2A
102
}
102
{ACAD_XDICTIONARY
360
366
102
}
330
2A
100
AcDbVisualStyle
  2
Shades of Gray
 70
    23
 71
     2
 72
     2
 73
     3
 90
        0
 40
0.6
 41
30.0
 62
     5
 63
     7
421
 16777215
 74
     2
 91
        2
 64
     7
 65
     7
 75
     1
175
     1
 42
40.0
 92
        8
 66
     7
 43
1.0
 76
     1
 77
     6
 78
     2
 67
     7
 79
     3
170
     0
171
     0
290
     0
174
     0
 93
        1
 44
0.0
173
     0
291
     0
 45
0.0
  0
VISUALSTYLE
  5
3F
102
{ACAD_REACTORS
330
2A
102
}
102
{ACAD_XDICTIONARY
360
368
102
}
330
2A
100
AcDbVisualStyle
  2
Sketchy
 70
    24
 71
     1
 72
     2
 73
     2
 90
        0
 40
0.6
 41
30.0
 62
     5
 63
     7
421
 16777215
 74
     2
 91
        2
 64
     7
 65
     7
 75
     1
175
     1
 42
40.0
 92
       11
 66
     7
 43
1.0
 76
     1
 77
     6
 78
     2
 67
     7
 79
     6
170
     0
171
     0
290
     0
174
     0
 93
        1
 44
0.0
173
     0
291
     0
 45
0.0
  0
VISUALSTYLE
  5
37
102
{ACAD_REACTORS
330
2A
102
}
102
{ACAD_XDICTIONARY
360
358
102
}
330
2A
100
AcDbVisualStyle
  2
Thicken
 70
    13
 71
     2
 72
     2
 73
     0
 90
        0
 40
0.6
 41
30.0
 62
     5
 63
     7
421
 16777215
 74
     1
 91
        4
 64
     7
 65
   257
 75
     1
175
     1
 42
1.0
 92
       12
 66
     7
 43
1.0
 76
     1
 77
     6
 78
     2
 67
     7
 79
     5
170
     0
171
     0
290
     0
174
     0
 93
        1
 44
0.0
173
     0
291
     1
 45
0.0
  0
VISUALSTYLE
  5
30
102
{ACAD_REACTORS
330
2A
102
}
102
{ACAD_XDICTIONARY
360
34A
102
}
330
2A
100
AcDbVisualStyle
  2
Wireframe
 70
     5
 71
     0
 72
     2
 73
     0
 90
        0
 40
0.6
 41
30.0
 62
     5
 63
     7
421
 16777215
 74
     1
 91
        4
 64
     7
 65
   257
 75
     1
175
     1
 42
1.0
 92
        0
 66
   257
 43
1.0
 76
     1
 77
     6
 78
     2
 67
     7
 79
     3
170
     0
171
     0
290
     0
174
     0
 93
        1
 44
0.0
173
     0
291
     0
 45
0.0
  0
VISUALSTYLE
  5
40
102
{ACAD_REACTORS
330
2A
102
}
102
{ACAD_XDICTIONARY
360
36A
102
}
330
2A
100
AcDbVisualStyle
  2
X-Ray
 70
    25
 71
     2
 72
     2
 73
     1
 90
        1
 40
0.5
 41
30.0
 62
     5
 63
     7
421
 16777215
 74
     1
 91
        0
 64
     7
 65
   257
 75
     1
175
     1
 42
1.0
 92
        8
 66
     7
 43
1.0
 76
     1
 77
     6
 78
     2
 67
     7
 79
     3
170
     0
171
     0
290
     0
174
     0
 93
       13
 44
0.0
173
     0
291
     0
 45
0.0
  0
DICTIONARYVAR
  5
33E
102
{ACAD_REACTORS
330
33D
102
}
330
33D
100
DictionaryVariables
280
     0
  1
1:1
  0
DICTIONARYVAR
  5
379
102
{ACAD_REACTORS
330
33D
102
}
330
33D
100
DictionaryVariables
280
     0
  1
3.500000
  0
DICTIONARYVAR
  5
37A
102
{ACAD_REACTORS
330
33D
102
}
330
33D
100
DictionaryVariables
280
     0
  1
acadiso.lin
  0
DICTIONARYVAR
  5
376
102
{ACAD_REACTORS
330
33D
102
}
330
33D
100
DictionaryVariables
280
     0
  1
Standard
  0
DICTIONARYVAR
  5
375
102
{ACAD_REACTORS
330
33D
102
}
330
33D
100
DictionaryVariables
280
     0
  1
Standard
  0
DICTIONARYVAR
  5
33F
102
{ACAD_REACTORS
330
33D
102
}
330
33D
100
DictionaryVariables
280
     0
  1
2
  0
DICTIONARY
  5
372
330
6C
100
AcDbDictionary
280
     1
281
     1
  3
ACAD_XREC_ROUNDTRIP
360
373
  0
DICTIONARY
  5
370
330
6A
100
AcDbDictionary
280
     1
281
     1
  3
ACAD_ROUNDTRIP_2008_TABLESTYLE_CELLSTYLEMAP
360
371
  0
DICTIONARY
  5
348
330
2F
100
AcDbDictionary
280
     1
281
     1
  3
ACAD_XREC_ROUNDTRIP
360
349
  0
DICTIONARY
  5
34E
330
32
100
AcDbDictionary
280
     1
281
     1
  3
ACAD_XREC_ROUNDTRIP
360
34F
  0
DICTIONARY
  5
356
330
36
100
AcDbDictionary
280
     1
281
     1
  3
ACAD_XREC_ROUNDTRIP
360
357
  0
DICTIONARY
  5
35E
330
3A
100
AcDbDictionary
280
     1
281
     1
  3
ACAD_XREC_ROUNDTRIP
360
35F
  0
DICTIONARY
  5
352
330
34
100
AcDbDictionary
280
     1
281
     1
  3
ACAD_XREC_ROUNDTRIP
360
353
  0
DICTIONARY
  5
354
330
35
100
AcDbDictionary
280
     1
281
     1
  3
ACAD_XREC_ROUNDTRIP
360
355
  0
DICTIONARY
  5
364
330
3D
100
AcDbDictionary
280
     1
281
     1
  3
ACAD_XREC_ROUNDTRIP
360
365
  0
DICTIONARY
  5
35C
330
39
100
AcDbDictionary
280
     1
281
     1
  3
ACAD_XREC_ROUNDTRIP
360
35D
  0
DICTIONARY
  5
340
330
2B
100
AcDbDictionary
280
     1
281
     1
  3
ACAD_XREC_ROUNDTRIP
360
341
  0
DICTIONARY
  5
342
330
2C
100
AcDbDictionary
280
     1
281
     1
  3
ACAD_XREC_ROUNDTRIP
360
343
  0
DICTIONARY
  5
344
330
2D
100
AcDbDictionary
280
     1
281
     1
  3
ACAD_XREC_ROUNDTRIP
360
345
  0
DICTIONARY
  5
346
330
2E
100
AcDbDictionary
280
     1
281
     1
  3
ACAD_XREC_ROUNDTRIP
360
347
  0
DICTIONARY
  5
34C
330
31
100
AcDbDictionary
280
     1
281
     1
  3
ACAD_XREC_ROUNDTRIP
360
34D
  0
DICTIONARY
  5
360
330
3B
100
AcDbDictionary
280
     1
281
     1
  3
ACAD_XREC_ROUNDTRIP
360
361
  0
DICTIONARY
  5
35A
330
38
100
AcDbDictionary
280
     1
281
     1
  3
ACAD_XREC_ROUNDTRIP
360
35B
  0
DICTIONARY
  5
362
330
3C
100
AcDbDictionary
280
     1
281
     1
  3
ACAD_XREC_ROUNDTRIP
360
363
  0
DICTIONARY
  5
350
330
33
100
AcDbDictionary
280
     1
281
     1
  3
ACAD_XREC_ROUNDTRIP
360
351
  0
DICTIONARY
  5
36E
330
42
100
AcDbDictionary
280
     1
281
     1
  3
ACAD_XREC_ROUNDTRIP
360
36F
  0
DICTIONARY
  5
36C
330
41
100
AcDbDictionary
280
     1
281
     1
  3
ACAD_XREC_ROUNDTRIP
360
36D
  0
DICTIONARY
  5
366
330
3E
100
AcDbDictionary
280
     1
281
     1
  3
ACAD_XREC_ROUNDTRIP
360
367
  0
DICTIONARY
  5
368
330
3F
100
AcDbDictionary
280
     1
281
     1
  3
ACAD_XREC_ROUNDTRIP
360
369
  0
DICTIONARY
  5
358
330
37
100
AcDbDictionary
280
     1
281
     1
  3
ACAD_XREC_ROUNDTRIP
360
359
  0
DICTIONARY
  5
34A
330
30
100
AcDbDictionary
280
     1
281
     1
  3
ACAD_XREC_ROUNDTRIP
360
34B
  0
DICTIONARY
  5
36A
330
40
100
AcDbDictionary
280
     1
281
     1
  3
ACAD_XREC_ROUNDTRIP
360
36B
  0
XRECORD
  5
373
102
{ACAD_REACTORS
330
372
102
}
330
372
100
AcDbXrecord
280
     1
102
ACAD_ROUNDTRIP_2010_MLEADER_STYLE
  0
CELLSTYLEMAP
  5
371
102
{ACAD_REACTORS
330
370
102
}
330
370
100
AcDbCellStyleMap
 90
        3
300
CELLSTYLE
  1
TABLEFORMAT_BEGIN
 90
        5
170
     1
 91
        0
 92
    32768
 62
   257
 93
        1
300
CONTENTFORMAT
  1
CONTENTFORMAT_BEGIN
 90
        0
 91
        0
 92
        4
 93
        0
300

 40
0.0
140
1.0
 94
        5
 62
     0
340
11
144
6.0
309
CONTENTFORMAT_END
171
     1
301
MARGIN
  1
CELLMARGIN_BEGIN
 40
1.5
 40
1.5
 40
1.5
 40
1.5
 40
1.5
 40
1.5
309
CELLMARGIN_END
 94
        6
 95
        1
302
GRIDFORMAT
  1
GRIDFORMAT_BEGIN
 90
        0
 91
        1
 62
     0
 92
       -2
340
14
 93
        0
 40
0.045
309
GRIDFORMAT_END
 95
        2
302
GRIDFORMAT
  1
GRIDFORMAT_BEGIN
 90
        0
 91
        1
 62
     0
 92
       -2
340
14
 93
        0
 40
0.045
309
GRIDFORMAT_END
 95
        4
302
GRIDFORMAT
  1
GRIDFORMAT_BEGIN
 90
        0
 91
        1
 62
     0
 92
       -2
340
14
 93
        0
 40
0.045
309
GRIDFORMAT_END
 95
        8
302
GRIDFORMAT
  1
GRIDFORMAT_BEGIN
 90
        0
 91
        1
 62
     0
 92
       -2
340
14
 93
        0
 40
0.045
309
GRIDFORMAT_END
 95
       16
302
GRIDFORMAT
  1
GRIDFORMAT_BEGIN
 90
        0
 91
        1
 62
     0
 92
       -2
340
14
 93
        0
 40
0.045
309
GRIDFORMAT_END
 95
       32
302
GRIDFORMAT
  1
GRIDFORMAT_BEGIN
 90
        0
 91
        1
 62
     0
 92
       -2
340
14
 93
        0
 40
0.045
309
GRIDFORMAT_END
309
TABLEFORMAT_END
  1
CELLSTYLE_BEGIN
 90
        1
 91
        1
300
_TITLE
309
CELLSTYLE_END
300
CELLSTYLE
  1
TABLEFORMAT_BEGIN
 90
        5
170
     1
 91
        0
 92
        0
 62
   257
 93
        1
300
CONTENTFORMAT
  1
CONTENTFORMAT_BEGIN
 90
        0
 91
        0
 92
        4
 93
        0
300

 40
0.0
140
1.0
 94
        5
 62
     0
340
11
144
4.5
309
CONTENTFORMAT_END
171
     1
301
MARGIN
  1
CELLMARGIN_BEGIN
 40
1.5
 40
1.5
 40
1.5
 40
1.5
 40
1.5
 40
1.5
309
CELLMARGIN_END
 94
        6
 95
        1
302
GRIDFORMAT
  1
GRIDFORMAT_BEGIN
 90
        0
 91
        1
 62
     0
 92
       -2
340
14
 93
        0
 40
0.045
309
GRIDFORMAT_END
 95
        2
302
GRIDFORMAT
  1
GRIDFORMAT_BEGIN
 90
        0
 91
        1
 62
     0
 92
       -2
340
14
 93
        0
 40
0.045
309
GRIDFORMAT_END
 95
        4
302
GRIDFORMAT
  1
GRIDFORMAT_BEGIN
 90
        0
 91
        1
 62
     0
 92
       -2
340
14
 93
        0
 40
0.045
309
GRIDFORMAT_END
 95
        8
302
GRIDFORMAT
  1
GRIDFORMAT_BEGIN
 90
        0
 91
        1
 62
     0
 92
       -2
340
14
 93
        0
 40
0.045
309
GRIDFORMAT_END
 95
       16
302
GRIDFORMAT
  1
GRIDFORMAT_BEGIN
 90
        0
 91
        1
 62
     0
 92
       -2
340
14
 93
        0
 40
0.045
309
GRIDFORMAT_END
 95
       32
302
GRIDFORMAT
  1
GRIDFORMAT_BEGIN
 90
        0
 91
        1
 62
     0
 92
       -2
340
14
 93
        0
 40
0.045
309
GRIDFORMAT_END
309
TABLEFORMAT_END
  1
CELLSTYLE_BEGIN
 90
        2
 91
        1
300
_HEADER
309
CELLSTYLE_END
300
CELLSTYLE
  1
TABLEFORMAT_BEGIN
 90
        5
170
     1
 91
        0
 92
        0
 62
   257
 93
        1
300
CONTENTFORMAT
  1
CONTENTFORMAT_BEGIN
 90
        0
 91
        0
 92
        4
 93
        0
300

 40
0.0
140
1.0
 94
        2
 62
     0
340
11
144
4.5
309
CONTENTFORMAT_END
171
     1
301
MARGIN
  1
CELLMARGIN_BEGIN
 40
1.5
 40
1.5
 40
1.5
 40
1.5
 40
1.5
 40
1.5
309
CELLMARGIN_END
 94
        6
 95
        1
302
GRIDFORMAT
  1
GRIDFORMAT_BEGIN
 90
        0
 91
        1
 62
     0
 92
       -2
340
14
 93
        0
 40
0.045
309
GRIDFORMAT_END
 95
        2
302
GRIDFORMAT
  1
GRIDFORMAT_BEGIN
 90
        0
 91
        1
 62
     0
 92
       -2
340
14
 93
        0
 40
0.045
309
GRIDFORMAT_END
 95
        4
302
GRIDFORMAT
  1
GRIDFORMAT_BEGIN
 90
        0
 91
        1
 62
     0
 92
       -2
340
14
 93
        0
 40
0.045
309
GRIDFORMAT_END
 95
        8
302
GRIDFORMAT
  1
GRIDFORMAT_BEGIN
 90
        0
 91
        1
 62
     0
 92
       -2
340
14
 93
        0
 40
0.045
309
GRIDFORMAT_END
 95
       16
302
GRIDFORMAT
  1
GRIDFORMAT_BEGIN
 90
        0
 91
        1
 62
     0
 92
       -2
340
14
 93
        0
 40
0.045
309
GRIDFORMAT_END
 95
       32
302
GRIDFORMAT
  1
GRIDFORMAT_BEGIN
 90
        0
 91
        1
 62
     0
 92
       -2
340
14
 93
        0
 40
0.045
309
GRIDFORMAT_END
309
TABLEFORMAT_END
  1
CELLSTYLE_BEGIN
 90
        3
 91
        2
300
_DATA
309
CELLSTYLE_END
  0
XRECORD
  5
349
102
{ACAD_REACTORS
330
348
102
}
330
348
100
AcDbXrecord
280
     1
102
RTVSPropertyOp0
 70
     1
102
RTVSPropertyOp1
 70
     1
102
RTVSPropertyOp2
 70
     1
102
RTVSPropertyOp3
 70
     1
102
RTVSPropertyOp4
 70
     1
102
RTVSPropertyOp5
 70
     1
102
RTVSPropertyOp6
 70
     1
102
RTVSPropertyOp7
 70
     1
102
RTVSPropertyOp8
 70
     1
102
RTVSPropertyOp9
 70
     1
102
RTVSPropertyOp10
 70
     1
102
RTVSPropertyOp11
 70
     1
102
RTVSPropertyOp12
 70
     1
102
RTVSPropertyOp13
 70
     1
102
RTVSPropertyOp14
 70
     1
102
RTVSPropertyOp15
 70
     1
102
RTVSPropertyOp16
 70
     1
102
RTVSPropertyOp17
 70
     1
102
RTVSPropertyOp18
 70
     1
102
RTVSPropertyOp19
 70
     1
102
RTVSPropertyOp20
 70
     1
102
RTVSPropertyOp21
 70
     1
102
RTVSPropertyOp22
 70
     1
102
RTVSPropertyOp23
 70
     1
102
RTVSPropertyOp24
 70
     1
102
RTVSPropertyOp25
 70
     1
102
RTVSPropertyOp26
 70
     1
102
RTVSPropertyOp27
 70
     1
102
RTVSPropertyOp28
 70
     1
102
RTVSPropertyOp29
 70
     1
102
RTVSPropertyOp30
 70
     1
102
RTVSPropertyOp31
 70
     1
102
RTVSPropertyOp32
 70
     1
102
RTVSPropertyOp33
 70
     1
102
RTVSPropertyOp34
 70
     1
102
RTVSPropertyOp35
 70
     1
102
RTVSPropertyOp36
 70
     1
102
RTVSPropertyOp37
 70
     1
102
RTVSPropertyOp38
 70
     1
102
RTVSPropertyOp39
 70
     1
102
RTVSPropertyOp40
 70
     1
102
RTVSPropertyOp41
 70
     1
102
RTVSPropertyOp42
 70
     1
102
RTVSPropertyOp43
 70
     1
102
RTVSPropertyOp44
 70
     1
102
RTVSPropertyOp45
 70
     1
102
RTVSPropertyOp46
 70
     1
102
RTVSPropertyOp47
 70
     1
102
RTVSPropertyOp48
 70
     1
102
RTVSPropertyOp49
 70
     1
102
RTVSPropertyOp50
 70
     1
102
RTVSPropertyOp51
 70
     0
102
RTVSPropertyOp52
 70
     0
102
RTVSPropertyOp53
 70
     1
102
RTVSPropertyOp54
 70
     1
102
RTVSPropertyOp55
 70
     1
102
RTVSPropertyOp56
 70
     1
102
RTVSPropertyOp57
 70
     1
102
RTVSPost2010Prop28
280
     1
102
RTVSPost2010PropOp28
 70
     1
102
RTVSPost2010Prop29
280
     1
102
RTVSPost2010PropOp29
 70
     1
102
RTVSPost2010Prop30
280
     0
102
RTVSPost2010PropOp30
 70
     1
102
RTVSPost2010Prop31
280
     0
102
RTVSPost2010PropOp31
 70
     1
102
RTVSPost2010Prop32
280
     0
102
RTVSPost2010PropOp32
 70
     1
102
RTVSPost2010Prop33
280
     0
102
RTVSPost2010PropOp33
 70
     1
102
RTVSPost2010Prop34
280
     0
102
RTVSPost2010PropOp34
 70
     1
102
RTVSPost2010Prop35
280
     0
102
RTVSPost2010PropOp35
 70
     1
102
RTVSPost2010Prop36
280
     0
102
RTVSPost2010PropOp36
 70
     1
102
RTVSPost2010Prop37
 90
       50
102
RTVSPost2010PropOp37
 70
     1
102
RTVSPost2010Prop38
140
0.0
102
RTVSPost2010PropOp38
 70
     1
102
RTVSPost2010Prop39
140
1.0
102
RTVSPost2010PropOp39
 70
     1
102
RTVSPost2010Prop40
 90
        0
102
RTVSPost2010PropOp40
 70
     1
102
RTVSPost2010Prop41ColorIndex
 90
       18
102
RTVSPost2010Prop41ColorRGB
 90
        0
102
RTVSPost2010PropOp41
 70
     1
102
RTVSPost2010Prop42
 90
       50
102
RTVSPost2010PropOp42
 70
     1
102
RTVSPost2010Prop43
 90
        3
102
RTVSPost2010PropOp43
 70
     1
102
RTVSPost2010Prop44ColorIndex
 90
        5
102
RTVSPost2010Prop44ColorRGB
 90
      255
102
RTVSPost2010PropOp44
 70
     1
102
RTVSPost2010Prop45
280
     0
102
RTVSPost2010PropOp45
 70
     1
102
RTVSPost2010Prop46
 90
       50
102
RTVSPost2010PropOp46
 70
     1
102
RTVSPost2010Prop47
 90
       50
102
RTVSPost2010PropOp47
 70
     1
102
RTVSPost2010Prop48
 90
       50
102
RTVSPost2010PropOp48
 70
     1
102
RTVSPost2010Prop49
280
     0
102
RTVSPost2010PropOp49
 70
     1
102
RTVSPost2010Prop50
 90
       50
102
RTVSPost2010PropOp50
 70
     1
102
RTVSPost2010Prop51ColorIndex
 90
      256
102
RTVSPost2010Prop51ColorRGB
 90
-16777216
102
RTVSPost2010PropOp51
 70
     0
102
RTVSPost2010Prop52
140
1.0
102
RTVSPost2010PropOp52
 70
     0
102
RTVSPost2010Prop53
 90
        2
102
RTVSPost2010PropOp53
 70
     1
102
RTVSPost2010Prop54
  1
strokes_ogs.tif
102
RTVSPost2010PropOp54
 70
     1
102
RTVSPost2010Prop55
280
     0
102
RTVSPost2010PropOp55
 70
     1
102
RTVSPost2010Prop56
140
1.0
102
RTVSPost2010PropOp56
 70
     1
102
RTVSPost2010Prop57
140
1.0
102
RTVSPost2010PropOp57
 70
     1
  0
XRECORD
  5
34F
102
{ACAD_REACTORS
330
34E
102
}
330
34E
100
AcDbXrecord
280
     1
102
RTVSPropertyOp0
 70
     1
102
RTVSPropertyOp1
 70
     1
102
RTVSPropertyOp2
 70
     1
102
RTVSPropertyOp3
 70
     1
102
RTVSPropertyOp4
 70
     1
102
RTVSPropertyOp5
 70
     1
102
RTVSPropertyOp6
 70
     1
102
RTVSPropertyOp7
 70
     1
102
RTVSPropertyOp8
 70
     1
102
RTVSPropertyOp9
 70
     1
102
RTVSPropertyOp10
 70
     1
102
RTVSPropertyOp11
 70
     1
102
RTVSPropertyOp12
 70
     1
102
RTVSPropertyOp13
 70
     1
102
RTVSPropertyOp14
 70
     1
102
RTVSPropertyOp15
 70
     1
102
RTVSPropertyOp16
 70
     1
102
RTVSPropertyOp17
 70
     1
102
RTVSPropertyOp18
 70
     1
102
RTVSPropertyOp19
 70
     1
102
RTVSPropertyOp20
 70
     1
102
RTVSPropertyOp21
 70
     1
102
RTVSPropertyOp22
 70
     1
102
RTVSPropertyOp23
 70
     1
102
RTVSPropertyOp24
 70
     1
102
RTVSPropertyOp25
 70
     1
102
RTVSPropertyOp26
 70
     1
102
RTVSPropertyOp27
 70
     1
102
RTVSPropertyOp28
 70
     1
102
RTVSPropertyOp29
 70
     1
102
RTVSPropertyOp30
 70
     1
102
RTVSPropertyOp31
 70
     1
102
RTVSPropertyOp32
 70
     1
102
RTVSPropertyOp33
 70
     1
102
RTVSPropertyOp34
 70
     1
102
RTVSPropertyOp35
 70
     1
102
RTVSPropertyOp36
 70
     1
102
RTVSPropertyOp37
 70
     1
102
RTVSPropertyOp38
 70
     1
102
RTVSPropertyOp39
 70
     1
102
RTVSPropertyOp40
 70
     1
102
RTVSPropertyOp41
 70
     1
102
RTVSPropertyOp42
 70
     1
102
RTVSPropertyOp43
 70
     1
102
RTVSPropertyOp44
 70
     1
102
RTVSPropertyOp45
 70
     1
102
RTVSPropertyOp46
 70
     1
102
RTVSPropertyOp47
 70
     1
102
RTVSPropertyOp48
 70
     1
102
RTVSPropertyOp49
 70
     1
102
RTVSPropertyOp50
 70
     1
102
RTVSPropertyOp51
 70
     0
102
RTVSPropertyOp52
 70
     0
102
RTVSPropertyOp53
 70
     1
102
RTVSPropertyOp54
 70
     1
102
RTVSPropertyOp55
 70
     1
102
RTVSPropertyOp56
 70
     1
102
RTVSPropertyOp57
 70
     1
102
RTVSPost2010Prop28
280
     0
102
RTVSPost2010PropOp28
 70
     1
102
RTVSPost2010Prop29
280
     1
102
RTVSPost2010PropOp29
 70
     1
102
RTVSPost2010Prop30
280
     1
102
RTVSPost2010PropOp30
 70
     1
102
RTVSPost2010Prop31
280
     0
102
RTVSPost2010PropOp31
 70
     1
102
RTVSPost2010Prop32
280
     0
102
RTVSPost2010PropOp32
 70
     1
102
RTVSPost2010Prop33
280
     0
102
RTVSPost2010PropOp33
 70
     1
102
RTVSPost2010Prop34
280
     0
102
RTVSPost2010PropOp34
 70
     1
102
RTVSPost2010Prop35
280
     0
102
RTVSPost2010PropOp35
 70
     1
102
RTVSPost2010Prop36
280
     0
102
RTVSPost2010PropOp36
 70
     1
102
RTVSPost2010Prop37
 90
       50
102
RTVSPost2010PropOp37
 70
     1
102
RTVSPost2010Prop38
140
0.0
102
RTVSPost2010PropOp38
 70
     1
102
RTVSPost2010Prop39
140
1.0
102
RTVSPost2010PropOp39
 70
     1
102
RTVSPost2010Prop40
 90
        0
102
RTVSPost2010PropOp40
 70
     1
102
RTVSPost2010Prop41ColorIndex
 90
       18
102
RTVSPost2010Prop41ColorRGB
 90
        0
102
RTVSPost2010PropOp41
 70
     1
102
RTVSPost2010Prop42
 90
       50
102
RTVSPost2010PropOp42
 70
     1
102
RTVSPost2010Prop43
 90
        3
102
RTVSPost2010PropOp43
 70
     1
102
RTVSPost2010Prop44ColorIndex
 90
        5
102
RTVSPost2010Prop44ColorRGB
 90
      255
102
RTVSPost2010PropOp44
 70
     1
102
RTVSPost2010Prop45
280
     0
102
RTVSPost2010PropOp45
 70
     1
102
RTVSPost2010Prop46
 90
       50
102
RTVSPost2010PropOp46
 70
     1
102
RTVSPost2010Prop47
 90
       50
102
RTVSPost2010PropOp47
 70
     1
102
RTVSPost2010Prop48
 90
       50
102
RTVSPost2010PropOp48
 70
     1
102
RTVSPost2010Prop49
280
     0
102
RTVSPost2010PropOp49
 70
     1
102
RTVSPost2010Prop50
 90
       50
102
RTVSPost2010PropOp50
 70
     1
102
RTVSPost2010Prop51ColorIndex
 90
      256
102
RTVSPost2010Prop51ColorRGB
 90
-16777216
102
RTVSPost2010PropOp51
 70
     0
102
RTVSPost2010Prop52
140
1.0
102
RTVSPost2010PropOp52
 70
     0
102
RTVSPost2010Prop53
 90
        2
102
RTVSPost2010PropOp53
 70
     1
102
RTVSPost2010Prop54
  1
strokes_ogs.tif
102
RTVSPost2010PropOp54
 70
     1
102
RTVSPost2010Prop55
280
     0
102
RTVSPost2010PropOp55
 70
     1
102
RTVSPost2010Prop56
140
1.0
102
RTVSPost2010PropOp56
 70
     1
102
RTVSPost2010Prop57
140
1.0
102
RTVSPost2010PropOp57
 70
     1
  0
XRECORD
  5
357
102
{ACAD_REACTORS
330
356
102
}
330
356
100
AcDbXrecord
280
     1
102
RTVSPropertyOp0
 70
     1
102
RTVSPropertyOp1
 70
     1
102
RTVSPropertyOp2
 70
     1
102
RTVSPropertyOp3
 70
     1
102
RTVSPropertyOp4
 70
     1
102
RTVSPropertyOp5
 70
     1
102
RTVSPropertyOp6
 70
     1
102
RTVSPropertyOp7
 70
     1
102
RTVSPropertyOp8
 70
     1
102
RTVSPropertyOp9
 70
     1
102
RTVSPropertyOp10
 70
     1
102
RTVSPropertyOp11
 70
     1
102
RTVSPropertyOp12
 70
     1
102
RTVSPropertyOp13
 70
     1
102
RTVSPropertyOp14
 70
     1
102
RTVSPropertyOp15
 70
     1
102
RTVSPropertyOp16
 70
     1
102
RTVSPropertyOp17
 70
     1
102
RTVSPropertyOp18
 70
     1
102
RTVSPropertyOp19
 70
     1
102
RTVSPropertyOp20
 70
     1
102
RTVSPropertyOp21
 70
     1
102
RTVSPropertyOp22
 70
     1
102
RTVSPropertyOp23
 70
     1
102
RTVSPropertyOp24
 70
     1
102
RTVSPropertyOp25
 70
     1
102
RTVSPropertyOp26
 70
     1
102
RTVSPropertyOp27
 70
     1
102
RTVSPropertyOp28
 70
     1
102
RTVSPropertyOp29
 70
     1
102
RTVSPropertyOp30
 70
     1
102
RTVSPropertyOp31
 70
     1
102
RTVSPropertyOp32
 70
     1
102
RTVSPropertyOp33
 70
     1
102
RTVSPropertyOp34
 70
     1
102
RTVSPropertyOp35
 70
     1
102
RTVSPropertyOp36
 70
     1
102
RTVSPropertyOp37
 70
     1
102
RTVSPropertyOp38
 70
     1
102
RTVSPropertyOp39
 70
     1
102
RTVSPropertyOp40
 70
     1
102
RTVSPropertyOp41
 70
     1
102
RTVSPropertyOp42
 70
     1
102
RTVSPropertyOp43
 70
     1
102
RTVSPropertyOp44
 70
     1
102
RTVSPropertyOp45
 70
     1
102
RTVSPropertyOp46
 70
     1
102
RTVSPropertyOp47
 70
     1
102
RTVSPropertyOp48
 70
     1
102
RTVSPropertyOp49
 70
     1
102
RTVSPropertyOp50
 70
     1
102
RTVSPropertyOp51
 70
     0
102
RTVSPropertyOp52
 70
     0
102
RTVSPropertyOp53
 70
     1
102
RTVSPropertyOp54
 70
     1
102
RTVSPropertyOp55
 70
     1
102
RTVSPropertyOp56
 70
     1
102
RTVSPropertyOp57
 70
     1
102
RTVSPost2010Prop28
280
     0
102
RTVSPost2010PropOp28
 70
     1
102
RTVSPost2010Prop29
280
     1
102
RTVSPost2010PropOp29
 70
     1
102
RTVSPost2010Prop30
280
     1
102
RTVSPost2010PropOp30
 70
     1
102
RTVSPost2010Prop31
280
     0
102
RTVSPost2010PropOp31
 70
     1
102
RTVSPost2010Prop32
280
     0
102
RTVSPost2010PropOp32
 70
     1
102
RTVSPost2010Prop33
280
     0
102
RTVSPost2010PropOp33
 70
     1
102
RTVSPost2010Prop34
280
     0
102
RTVSPost2010PropOp34
 70
     1
102
RTVSPost2010Prop35
280
     0
102
RTVSPost2010PropOp35
 70
     1
102
RTVSPost2010Prop36
280
     0
102
RTVSPost2010PropOp36
 70
     1
102
RTVSPost2010Prop37
 90
       50
102
RTVSPost2010PropOp37
 70
     1
102
RTVSPost2010Prop38
140
0.0
102
RTVSPost2010PropOp38
 70
     1
102
RTVSPost2010Prop39
140
1.0
102
RTVSPost2010PropOp39
 70
     1
102
RTVSPost2010Prop40
 90
        0
102
RTVSPost2010PropOp40
 70
     1
102
RTVSPost2010Prop41ColorIndex
 90
       18
102
RTVSPost2010Prop41ColorRGB
 90
        0
102
RTVSPost2010PropOp41
 70
     1
102
RTVSPost2010Prop42
 90
       50
102
RTVSPost2010PropOp42
 70
     1
102
RTVSPost2010Prop43
 90
        3
102
RTVSPost2010PropOp43
 70
     1
102
RTVSPost2010Prop44ColorIndex
 90
        5
102
RTVSPost2010Prop44ColorRGB
 90
      255
102
RTVSPost2010PropOp44
 70
     1
102
RTVSPost2010Prop45
280
     0
102
RTVSPost2010PropOp45
 70
     1
102
RTVSPost2010Prop46
 90
       50
102
RTVSPost2010PropOp46
 70
     1
102
RTVSPost2010Prop47
 90
       50
102
RTVSPost2010PropOp47
 70
     1
102
RTVSPost2010Prop48
 90
       50
102
RTVSPost2010PropOp48
 70
     1
102
RTVSPost2010Prop49
280
     0
102
RTVSPost2010PropOp49
 70
     1
102
RTVSPost2010Prop50
 90
       50
102
RTVSPost2010PropOp50
 70
     1
102
RTVSPost2010Prop51ColorIndex
 90
      256
102
RTVSPost2010Prop51ColorRGB
 90
-16777216
102
RTVSPost2010PropOp51
 70
     0
102
RTVSPost2010Prop52
140
1.0
102
RTVSPost2010PropOp52
 70
     0
102
RTVSPost2010Prop53
 90
        2
102
RTVSPost2010PropOp53
 70
     1
102
RTVSPost2010Prop54
  1
strokes_ogs.tif
102
RTVSPost2010PropOp54
 70
     1
102
RTVSPost2010Prop55
280
     0
102
RTVSPost2010PropOp55
 70
     1
102
RTVSPost2010Prop56
140
1.0
102
RTVSPost2010PropOp56
 70
     1
102
RTVSPost2010Prop57
140
1.0
102
RTVSPost2010PropOp57
 70
     1
  0
XRECORD
  5
35F
102
{ACAD_REACTORS
330
35E
102
}
330
35E
100
AcDbXrecord
280
     1
102
RTVSPropertyOp0
 70
     1
102
RTVSPropertyOp1
 70
     1
102
RTVSPropertyOp2
 70
     1
102
RTVSPropertyOp3
 70
     1
102
RTVSPropertyOp4
 70
     1
102
RTVSPropertyOp5
 70
     1
102
RTVSPropertyOp6
 70
     1
102
RTVSPropertyOp7
 70
     1
102
RTVSPropertyOp8
 70
     1
102
RTVSPropertyOp9
 70
     1
102
RTVSPropertyOp10
 70
     1
102
RTVSPropertyOp11
 70
     1
102
RTVSPropertyOp12
 70
     1
102
RTVSPropertyOp13
 70
     1
102
RTVSPropertyOp14
 70
     1
102
RTVSPropertyOp15
 70
     1
102
RTVSPropertyOp16
 70
     1
102
RTVSPropertyOp17
 70
     1
102
RTVSPropertyOp18
 70
     1
102
RTVSPropertyOp19
 70
     1
102
RTVSPropertyOp20
 70
     1
102
RTVSPropertyOp21
 70
     1
102
RTVSPropertyOp22
 70
     1
102
RTVSPropertyOp23
 70
     1
102
RTVSPropertyOp24
 70
     1
102
RTVSPropertyOp25
 70
     1
102
RTVSPropertyOp26
 70
     1
102
RTVSPropertyOp27
 70
     1
102
RTVSPropertyOp28
 70
     1
102
RTVSPropertyOp29
 70
     1
102
RTVSPropertyOp30
 70
     1
102
RTVSPropertyOp31
 70
     1
102
RTVSPropertyOp32
 70
     1
102
RTVSPropertyOp33
 70
     1
102
RTVSPropertyOp34
 70
     1
102
RTVSPropertyOp35
 70
     1
102
RTVSPropertyOp36
 70
     1
102
RTVSPropertyOp37
 70
     1
102
RTVSPropertyOp38
 70
     1
102
RTVSPropertyOp39
 70
     1
102
RTVSPropertyOp40
 70
     1
102
RTVSPropertyOp41
 70
     1
102
RTVSPropertyOp42
 70
     1
102
RTVSPropertyOp43
 70
     1
102
RTVSPropertyOp44
 70
     1
102
RTVSPropertyOp45
 70
     1
102
RTVSPropertyOp46
 70
     1
102
RTVSPropertyOp47
 70
     1
102
RTVSPropertyOp48
 70
     1
102
RTVSPropertyOp49
 70
     1
102
RTVSPropertyOp50
 70
     1
102
RTVSPropertyOp51
 70
     0
102
RTVSPropertyOp52
 70
     0
102
RTVSPropertyOp53
 70
     1
102
RTVSPropertyOp54
 70
     1
102
RTVSPropertyOp55
 70
     1
102
RTVSPropertyOp56
 70
     1
102
RTVSPropertyOp57
 70
     1
102
RTVSPost2010Prop28
280
     0
102
RTVSPost2010PropOp28
 70
     1
102
RTVSPost2010Prop29
280
     1
102
RTVSPost2010PropOp29
 70
     1
102
RTVSPost2010Prop30
280
     1
102
RTVSPost2010PropOp30
 70
     1
102
RTVSPost2010Prop31
280
     0
102
RTVSPost2010PropOp31
 70
     1
102
RTVSPost2010Prop32
280
     0
102
RTVSPost2010PropOp32
 70
     1
102
RTVSPost2010Prop33
280
     0
102
RTVSPost2010PropOp33
 70
     1
102
RTVSPost2010Prop34
280
     0
102
RTVSPost2010PropOp34
 70
     1
102
RTVSPost2010Prop35
280
     0
102
RTVSPost2010PropOp35
 70
     1
102
RTVSPost2010Prop36
280
     0
102
RTVSPost2010PropOp36
 70
     1
102
RTVSPost2010Prop37
 90
       50
102
RTVSPost2010PropOp37
 70
     1
102
RTVSPost2010Prop38
140
0.0
102
RTVSPost2010PropOp38
 70
     1
102
RTVSPost2010Prop39
140
1.0
102
RTVSPost2010PropOp39
 70
     1
102
RTVSPost2010Prop40
 90
        0
102
RTVSPost2010PropOp40
 70
     1
102
RTVSPost2010Prop41ColorIndex
 90
       18
102
RTVSPost2010Prop41ColorRGB
 90
        0
102
RTVSPost2010PropOp41
 70
     1
102
RTVSPost2010Prop42
 90
       50
102
RTVSPost2010PropOp42
 70
     1
102
RTVSPost2010Prop43
 90
        3
102
RTVSPost2010PropOp43
 70
     1
102
RTVSPost2010Prop44ColorIndex
 90
        5
102
RTVSPost2010Prop44ColorRGB
 90
      255
102
RTVSPost2010PropOp44
 70
     1
102
RTVSPost2010Prop45
280
     0
102
RTVSPost2010PropOp45
 70
     1
102
RTVSPost2010Prop46
 90
       50
102
RTVSPost2010PropOp46
 70
     1
102
RTVSPost2010Prop47
 90
       50
102
RTVSPost2010PropOp47
 70
     1
102
RTVSPost2010Prop48
 90
       50
102
RTVSPost2010PropOp48
 70
     1
102
RTVSPost2010Prop49
280
     0
102
RTVSPost2010PropOp49
 70
     1
102
RTVSPost2010Prop50
 90
       50
102
RTVSPost2010PropOp50
 70
     1
102
RTVSPost2010Prop51ColorIndex
 90
      256
102
RTVSPost2010Prop51ColorRGB
 90
-16777216
102
RTVSPost2010PropOp51
 70
     0
102
RTVSPost2010Prop52
140
1.0
102
RTVSPost2010PropOp52
 70
     0
102
RTVSPost2010Prop53
 90
        2
102
RTVSPost2010PropOp53
 70
     1
102
RTVSPost2010Prop54
  1
strokes_ogs.tif
102
RTVSPost2010PropOp54
 70
     1
102
RTVSPost2010Prop55
280
     0
102
RTVSPost2010PropOp55
 70
     1
102
RTVSPost2010Prop56
140
1.0
102
RTVSPost2010PropOp56
 70
     1
102
RTVSPost2010Prop57
140
1.0
102
RTVSPost2010PropOp57
 70
     1
  0
XRECORD
  5
353
102
{ACAD_REACTORS
330
352
102
}
330
352
100
AcDbXrecord
280
     1
102
RTVSPropertyOp0
 70
     1
102
RTVSPropertyOp1
 70
     1
102
RTVSPropertyOp2
 70
     1
102
RTVSPropertyOp3
 70
     1
102
RTVSPropertyOp4
 70
     1
102
RTVSPropertyOp5
 70
     1
102
RTVSPropertyOp6
 70
     1
102
RTVSPropertyOp7
 70
     1
102
RTVSPropertyOp8
 70
     1
102
RTVSPropertyOp9
 70
     1
102
RTVSPropertyOp10
 70
     1
102
RTVSPropertyOp11
 70
     1
102
RTVSPropertyOp12
 70
     1
102
RTVSPropertyOp13
 70
     1
102
RTVSPropertyOp14
 70
     1
102
RTVSPropertyOp15
 70
     1
102
RTVSPropertyOp16
 70
     1
102
RTVSPropertyOp17
 70
     1
102
RTVSPropertyOp18
 70
     1
102
RTVSPropertyOp19
 70
     1
102
RTVSPropertyOp20
 70
     1
102
RTVSPropertyOp21
 70
     1
102
RTVSPropertyOp22
 70
     1
102
RTVSPropertyOp23
 70
     1
102
RTVSPropertyOp24
 70
     1
102
RTVSPropertyOp25
 70
     1
102
RTVSPropertyOp26
 70
     1
102
RTVSPropertyOp27
 70
     1
102
RTVSPropertyOp28
 70
     1
102
RTVSPropertyOp29
 70
     1
102
RTVSPropertyOp30
 70
     1
102
RTVSPropertyOp31
 70
     1
102
RTVSPropertyOp32
 70
     1
102
RTVSPropertyOp33
 70
     1
102
RTVSPropertyOp34
 70
     1
102
RTVSPropertyOp35
 70
     1
102
RTVSPropertyOp36
 70
     1
102
RTVSPropertyOp37
 70
     1
102
RTVSPropertyOp38
 70
     1
102
RTVSPropertyOp39
 70
     1
102
RTVSPropertyOp40
 70
     1
102
RTVSPropertyOp41
 70
     1
102
RTVSPropertyOp42
 70
     1
102
RTVSPropertyOp43
 70
     1
102
RTVSPropertyOp44
 70
     1
102
RTVSPropertyOp45
 70
     1
102
RTVSPropertyOp46
 70
     1
102
RTVSPropertyOp47
 70
     1
102
RTVSPropertyOp48
 70
     1
102
RTVSPropertyOp49
 70
     1
102
RTVSPropertyOp50
 70
     1
102
RTVSPropertyOp51
 70
     0
102
RTVSPropertyOp52
 70
     0
102
RTVSPropertyOp53
 70
     1
102
RTVSPropertyOp54
 70
     1
102
RTVSPropertyOp55
 70
     1
102
RTVSPropertyOp56
 70
     1
102
RTVSPropertyOp57
 70
     1
102
RTVSPost2010Prop28
280
     0
102
RTVSPost2010PropOp28
 70
     1
102
RTVSPost2010Prop29
280
     1
102
RTVSPost2010PropOp29
 70
     1
102
RTVSPost2010Prop30
280
     1
102
RTVSPost2010PropOp30
 70
     1
102
RTVSPost2010Prop31
280
     0
102
RTVSPost2010PropOp31
 70
     1
102
RTVSPost2010Prop32
280
     0
102
RTVSPost2010PropOp32
 70
     1
102
RTVSPost2010Prop33
280
     0
102
RTVSPost2010PropOp33
 70
     1
102
RTVSPost2010Prop34
280
     0
102
RTVSPost2010PropOp34
 70
     1
102
RTVSPost2010Prop35
280
     0
102
RTVSPost2010PropOp35
 70
     1
102
RTVSPost2010Prop36
280
     0
102
RTVSPost2010PropOp36
 70
     1
102
RTVSPost2010Prop37
 90
       50
102
RTVSPost2010PropOp37
 70
     1
102
RTVSPost2010Prop38
140
0.0
102
RTVSPost2010PropOp38
 70
     1
102
RTVSPost2010Prop39
140
1.0
102
RTVSPost2010PropOp39
 70
     1
102
RTVSPost2010Prop40
 90
        0
102
RTVSPost2010PropOp40
 70
     1
102
RTVSPost2010Prop41ColorIndex
 90
       18
102
RTVSPost2010Prop41ColorRGB
 90
        0
102
RTVSPost2010PropOp41
 70
     1
102
RTVSPost2010Prop42
 90
       50
102
RTVSPost2010PropOp42
 70
     1
102
RTVSPost2010Prop43
 90
        3
102
RTVSPost2010PropOp43
 70
     1
102
RTVSPost2010Prop44ColorIndex
 90
        5
102
RTVSPost2010Prop44ColorRGB
 90
      255
102
RTVSPost2010PropOp44
 70
     1
102
RTVSPost2010Prop45
280
     0
102
RTVSPost2010PropOp45
 70
     1
102
RTVSPost2010Prop46
 90
       50
102
RTVSPost2010PropOp46
 70
     1
102
RTVSPost2010Prop47
 90
       50
102
RTVSPost2010PropOp47
 70
     1
102
RTVSPost2010Prop48
 90
       50
102
RTVSPost2010PropOp48
 70
     1
102
RTVSPost2010Prop49
280
     0
102
RTVSPost2010PropOp49
 70
     1
102
RTVSPost2010Prop50
 90
       50
102
RTVSPost2010PropOp50
 70
     1
102
RTVSPost2010Prop51ColorIndex
 90
      256
102
RTVSPost2010Prop51ColorRGB
 90
-16777216
102
RTVSPost2010PropOp51
 70
     0
102
RTVSPost2010Prop52
140
1.0
102
RTVSPost2010PropOp52
 70
     0
102
RTVSPost2010Prop53
 90
        2
102
RTVSPost2010PropOp53
 70
     1
102
RTVSPost2010Prop54
  1
strokes_ogs.tif
102
RTVSPost2010PropOp54
 70
     1
102
RTVSPost2010Prop55
280
     0
102
RTVSPost2010PropOp55
 70
     1
102
RTVSPost2010Prop56
140
1.0
102
RTVSPost2010PropOp56
 70
     1
102
RTVSPost2010Prop57
140
1.0
102
RTVSPost2010PropOp57
 70
     1
  0
XRECORD
  5
355
102
{ACAD_REACTORS
330
354
102
}
330
354
100
AcDbXrecord
280
     1
102
RTVSPropertyOp0
 70
     1
102
RTVSPropertyOp1
 70
     1
102
RTVSPropertyOp2
 70
     1
102
RTVSPropertyOp3
 70
     1
102
RTVSPropertyOp4
 70
     1
102
RTVSPropertyOp5
 70
     1
102
RTVSPropertyOp6
 70
     1
102
RTVSPropertyOp7
 70
     1
102
RTVSPropertyOp8
 70
     1
102
RTVSPropertyOp9
 70
     1
102
RTVSPropertyOp10
 70
     1
102
RTVSPropertyOp11
 70
     1
102
RTVSPropertyOp12
 70
     1
102
RTVSPropertyOp13
 70
     1
102
RTVSPropertyOp14
 70
     1
102
RTVSPropertyOp15
 70
     1
102
RTVSPropertyOp16
 70
     1
102
RTVSPropertyOp17
 70
     1
102
RTVSPropertyOp18
 70
     1
102
RTVSPropertyOp19
 70
     1
102
RTVSPropertyOp20
 70
     1
102
RTVSPropertyOp21
 70
     1
102
RTVSPropertyOp22
 70
     1
102
RTVSPropertyOp23
 70
     1
102
RTVSPropertyOp24
 70
     1
102
RTVSPropertyOp25
 70
     1
102
RTVSPropertyOp26
 70
     1
102
RTVSPropertyOp27
 70
     1
102
RTVSPropertyOp28
 70
     1
102
RTVSPropertyOp29
 70
     1
102
RTVSPropertyOp30
 70
     1
102
RTVSPropertyOp31
 70
     1
102
RTVSPropertyOp32
 70
     1
102
RTVSPropertyOp33
 70
     1
102
RTVSPropertyOp34
 70
     1
102
RTVSPropertyOp35
 70
     1
102
RTVSPropertyOp36
 70
     1
102
RTVSPropertyOp37
 70
     1
102
RTVSPropertyOp38
 70
     1
102
RTVSPropertyOp39
 70
     1
102
RTVSPropertyOp40
 70
     1
102
RTVSPropertyOp41
 70
     1
102
RTVSPropertyOp42
 70
     1
102
RTVSPropertyOp43
 70
     1
102
RTVSPropertyOp44
 70
     1
102
RTVSPropertyOp45
 70
     1
102
RTVSPropertyOp46
 70
     1
102
RTVSPropertyOp47
 70
     1
102
RTVSPropertyOp48
 70
     1
102
RTVSPropertyOp49
 70
     1
102
RTVSPropertyOp50
 70
     1
102
RTVSPropertyOp51
 70
     0
102
RTVSPropertyOp52
 70
     0
102
RTVSPropertyOp53
 70
     1
102
RTVSPropertyOp54
 70
     1
102
RTVSPropertyOp55
 70
     1
102
RTVSPropertyOp56
 70
     1
102
RTVSPropertyOp57
 70
     1
102
RTVSPost2010Prop28
280
     0
102
RTVSPost2010PropOp28
 70
     1
102
RTVSPost2010Prop29
280
     1
102
RTVSPost2010PropOp29
 70
     1
102
RTVSPost2010Prop30
280
     1
102
RTVSPost2010PropOp30
 70
     1
102
RTVSPost2010Prop31
280
     0
102
RTVSPost2010PropOp31
 70
     1
102
RTVSPost2010Prop32
280
     0
102
RTVSPost2010PropOp32
 70
     1
102
RTVSPost2010Prop33
280
     0
102
RTVSPost2010PropOp33
 70
     1
102
RTVSPost2010Prop34
280
     0
102
RTVSPost2010PropOp34
 70
     1
102
RTVSPost2010Prop35
280
     0
102
RTVSPost2010PropOp35
 70
     1
102
RTVSPost2010Prop36
280
     0
102
RTVSPost2010PropOp36
 70
     1
102
RTVSPost2010Prop37
 90
       50
102
RTVSPost2010PropOp37
 70
     1
102
RTVSPost2010Prop38
140
0.0
102
RTVSPost2010PropOp38
 70
     1
102
RTVSPost2010Prop39
140
1.0
102
RTVSPost2010PropOp39
 70
     1
102
RTVSPost2010Prop40
 90
        0
102
RTVSPost2010PropOp40
 70
     1
102
RTVSPost2010Prop41ColorIndex
 90
       18
102
RTVSPost2010Prop41ColorRGB
 90
        0
102
RTVSPost2010PropOp41
 70
     1
102
RTVSPost2010Prop42
 90
       50
102
RTVSPost2010PropOp42
 70
     1
102
RTVSPost2010Prop43
 90
        3
102
RTVSPost2010PropOp43
 70
     1
102
RTVSPost2010Prop44ColorIndex
 90
        5
102
RTVSPost2010Prop44ColorRGB
 90
      255
102
RTVSPost2010PropOp44
 70
     1
102
RTVSPost2010Prop45
280
     0
102
RTVSPost2010PropOp45
 70
     1
102
RTVSPost2010Prop46
 90
       50
102
RTVSPost2010PropOp46
 70
     1
102
RTVSPost2010Prop47
 90
       50
102
RTVSPost2010PropOp47
 70
     1
102
RTVSPost2010Prop48
 90
       50
102
RTVSPost2010PropOp48
 70
     1
102
RTVSPost2010Prop49
280
     0
102
RTVSPost2010PropOp49
 70
     1
102
RTVSPost2010Prop50
 90
       50
102
RTVSPost2010PropOp50
 70
     1
102
RTVSPost2010Prop51ColorIndex
 90
      256
102
RTVSPost2010Prop51ColorRGB
 90
-16777216
102
RTVSPost2010PropOp51
 70
     0
102
RTVSPost2010Prop52
140
1.0
102
RTVSPost2010PropOp52
 70
     0
102
RTVSPost2010Prop53
 90
        2
102
RTVSPost2010PropOp53
 70
     1
102
RTVSPost2010Prop54
  1
strokes_ogs.tif
102
RTVSPost2010PropOp54
 70
     1
102
RTVSPost2010Prop55
280
     0
102
RTVSPost2010PropOp55
 70
     1
102
RTVSPost2010Prop56
140
1.0
102
RTVSPost2010PropOp56
 70
     1
102
RTVSPost2010Prop57
140
1.0
102
RTVSPost2010PropOp57
 70
     1
  0
XRECORD
  5
365
102
{ACAD_REACTORS
330
364
102
}
330
364
100
AcDbXrecord
280
     1
102
RTVSPropertyOp0
 70
     0
102
RTVSPropertyOp1
 70
     0
102
RTVSPropertyOp2
 70
     0
102
RTVSPropertyOp3
 70
     0
102
RTVSPropertyOp4
 70
     0
102
RTVSPropertyOp5
 70
     0
102
RTVSPropertyOp6
 70
     0
102
RTVSPropertyOp7
 70
     0
102
RTVSPropertyOp8
 70
     0
102
RTVSPropertyOp9
 70
     0
102
RTVSPropertyOp10
 70
     0
102
RTVSPropertyOp11
 70
     0
102
RTVSPropertyOp12
 70
     0
102
RTVSPropertyOp13
 70
     0
102
RTVSPropertyOp14
 70
     2
102
RTVSPropertyOp15
 70
     0
102
RTVSPropertyOp16
 70
     0
102
RTVSPropertyOp17
 70
     0
102
RTVSPropertyOp18
 70
     0
102
RTVSPropertyOp19
 70
     0
102
RTVSPropertyOp20
 70
     0
102
RTVSPropertyOp21
 70
     0
102
RTVSPropertyOp22
 70
     0
102
RTVSPropertyOp23
 70
     0
102
RTVSPropertyOp24
 70
     0
102
RTVSPropertyOp25
 70
     0
102
RTVSPropertyOp26
 70
     0
102
RTVSPropertyOp27
 70
     0
102
RTVSPropertyOp28
 70
     0
102
RTVSPropertyOp29
 70
     0
102
RTVSPropertyOp30
 70
     0
102
RTVSPropertyOp31
 70
     0
102
RTVSPropertyOp32
 70
     0
102
RTVSPropertyOp33
 70
     0
102
RTVSPropertyOp34
 70
     0
102
RTVSPropertyOp35
 70
     0
102
RTVSPropertyOp36
 70
     0
102
RTVSPropertyOp37
 70
     0
102
RTVSPropertyOp38
 70
     0
102
RTVSPropertyOp39
 70
     0
102
RTVSPropertyOp40
 70
     0
102
RTVSPropertyOp41
 70
     0
102
RTVSPropertyOp42
 70
     0
102
RTVSPropertyOp43
 70
     0
102
RTVSPropertyOp44
 70
     0
102
RTVSPropertyOp45
 70
     0
102
RTVSPropertyOp46
 70
     0
102
RTVSPropertyOp47
 70
     0
102
RTVSPropertyOp48
 70
     0
102
RTVSPropertyOp49
 70
     0
102
RTVSPropertyOp50
 70
     0
102
RTVSPropertyOp51
 70
     0
102
RTVSPropertyOp52
 70
     0
102
RTVSPropertyOp53
 70
     0
102
RTVSPropertyOp54
 70
     0
102
RTVSPropertyOp55
 70
     0
102
RTVSPropertyOp56
 70
     0
102
RTVSPropertyOp57
 70
     0
102
RTVSPost2010Prop28
280
     0
102
RTVSPost2010PropOp28
 70
     0
102
RTVSPost2010Prop29
280
     1
102
RTVSPost2010PropOp29
 70
     0
102
RTVSPost2010Prop30
280
     1
102
RTVSPost2010PropOp30
 70
     0
102
RTVSPost2010Prop31
280
     0
102
RTVSPost2010PropOp31
 70
     0
102
RTVSPost2010Prop32
280
     0
102
RTVSPost2010PropOp32
 70
     0
102
RTVSPost2010Prop33
280
     0
102
RTVSPost2010PropOp33
 70
     0
102
RTVSPost2010Prop34
280
     0
102
RTVSPost2010PropOp34
 70
     0
102
RTVSPost2010Prop35
280
     0
102
RTVSPost2010PropOp35
 70
     0
102
RTVSPost2010Prop36
280
     0
102
RTVSPost2010PropOp36
 70
     0
102
RTVSPost2010Prop37
 90
       50
102
RTVSPost2010PropOp37
 70
     0
102
RTVSPost2010Prop38
140
0.0
102
RTVSPost2010PropOp38
 70
     0
102
RTVSPost2010Prop39
140
1.0
102
RTVSPost2010PropOp39
 70
     0
102
RTVSPost2010Prop40
 90
        0
102
RTVSPost2010PropOp40
 70
     0
102
RTVSPost2010Prop41ColorIndex
 90
       18
102
RTVSPost2010Prop41ColorRGB
 90
        0
102
RTVSPost2010PropOp41
 70
     0
102
RTVSPost2010Prop42
 90
       50
102
RTVSPost2010PropOp42
 70
     0
102
RTVSPost2010Prop43
 90
        3
102
RTVSPost2010PropOp43
 70
     0
102
RTVSPost2010Prop44ColorIndex
 90
        5
102
RTVSPost2010Prop44ColorRGB
 90
      255
102
RTVSPost2010PropOp44
 70
     0
102
RTVSPost2010Prop45
280
     0
102
RTVSPost2010PropOp45
 70
     0
102
RTVSPost2010Prop46
 90
       50
102
RTVSPost2010PropOp46
 70
     0
102
RTVSPost2010Prop47
 90
       50
102
RTVSPost2010PropOp47
 70
     0
102
RTVSPost2010Prop48
 90
       50
102
RTVSPost2010PropOp48
 70
     0
102
RTVSPost2010Prop49
280
     0
102
RTVSPost2010PropOp49
 70
     0
102
RTVSPost2010Prop50
 90
       50
102
RTVSPost2010PropOp50
 70
     0
102
RTVSPost2010Prop51ColorIndex
 90
      256
102
RTVSPost2010Prop51ColorRGB
 90
-16777216
102
RTVSPost2010PropOp51
 70
     0
102
RTVSPost2010Prop52
140
1.0
102
RTVSPost2010PropOp52
 70
     0
102
RTVSPost2010Prop53
 90
        2
102
RTVSPost2010PropOp53
 70
     0
102
RTVSPost2010Prop54
  1
strokes_ogs.tif
102
RTVSPost2010PropOp54
 70
     0
102
RTVSPost2010Prop55
280
     0
102
RTVSPost2010PropOp55
 70
     0
102
RTVSPost2010Prop56
140
1.0
102
RTVSPost2010PropOp56
 70
     0
102
RTVSPost2010Prop57
140
1.0
102
RTVSPost2010PropOp57
 70
     0
  0
XRECORD
  5
35D
102
{ACAD_REACTORS
330
35C
102
}
330
35C
100
AcDbXrecord
280
     1
102
RTVSPropertyOp0
 70
     1
102
RTVSPropertyOp1
 70
     1
102
RTVSPropertyOp2
 70
     1
102
RTVSPropertyOp3
 70
     1
102
RTVSPropertyOp4
 70
     1
102
RTVSPropertyOp5
 70
     1
102
RTVSPropertyOp6
 70
     1
102
RTVSPropertyOp7
 70
     1
102
RTVSPropertyOp8
 70
     1
102
RTVSPropertyOp9
 70
     1
102
RTVSPropertyOp10
 70
     1
102
RTVSPropertyOp11
 70
     1
102
RTVSPropertyOp12
 70
     1
102
RTVSPropertyOp13
 70
     1
102
RTVSPropertyOp14
 70
     1
102
RTVSPropertyOp15
 70
     1
102
RTVSPropertyOp16
 70
     1
102
RTVSPropertyOp17
 70
     1
102
RTVSPropertyOp18
 70
     1
102
RTVSPropertyOp19
 70
     1
102
RTVSPropertyOp20
 70
     1
102
RTVSPropertyOp21
 70
     1
102
RTVSPropertyOp22
 70
     1
102
RTVSPropertyOp23
 70
     1
102
RTVSPropertyOp24
 70
     1
102
RTVSPropertyOp25
 70
     1
102
RTVSPropertyOp26
 70
     1
102
RTVSPropertyOp27
 70
     1
102
RTVSPropertyOp28
 70
     1
102
RTVSPropertyOp29
 70
     1
102
RTVSPropertyOp30
 70
     1
102
RTVSPropertyOp31
 70
     1
102
RTVSPropertyOp32
 70
     1
102
RTVSPropertyOp33
 70
     1
102
RTVSPropertyOp34
 70
     1
102
RTVSPropertyOp35
 70
     1
102
RTVSPropertyOp36
 70
     1
102
RTVSPropertyOp37
 70
     1
102
RTVSPropertyOp38
 70
     1
102
RTVSPropertyOp39
 70
     1
102
RTVSPropertyOp40
 70
     1
102
RTVSPropertyOp41
 70
     1
102
RTVSPropertyOp42
 70
     1
102
RTVSPropertyOp43
 70
     1
102
RTVSPropertyOp44
 70
     1
102
RTVSPropertyOp45
 70
     1
102
RTVSPropertyOp46
 70
     1
102
RTVSPropertyOp47
 70
     1
102
RTVSPropertyOp48
 70
     1
102
RTVSPropertyOp49
 70
     1
102
RTVSPropertyOp50
 70
     1
102
RTVSPropertyOp51
 70
     0
102
RTVSPropertyOp52
 70
     0
102
RTVSPropertyOp53
 70
     1
102
RTVSPropertyOp54
 70
     1
102
RTVSPropertyOp55
 70
     1
102
RTVSPropertyOp56
 70
     1
102
RTVSPropertyOp57
 70
     1
102
RTVSPost2010Prop28
280
     0
102
RTVSPost2010PropOp28
 70
     1
102
RTVSPost2010Prop29
280
     1
102
RTVSPost2010PropOp29
 70
     1
102
RTVSPost2010Prop30
280
     1
102
RTVSPost2010PropOp30
 70
     1
102
RTVSPost2010Prop31
280
     0
102
RTVSPost2010PropOp31
 70
     1
102
RTVSPost2010Prop32
280
     0
102
RTVSPost2010PropOp32
 70
     1
102
RTVSPost2010Prop33
280
     0
102
RTVSPost2010PropOp33
 70
     1
102
RTVSPost2010Prop34
280
     0
102
RTVSPost2010PropOp34
 70
     1
102
RTVSPost2010Prop35
280
     0
102
RTVSPost2010PropOp35
 70
     1
102
RTVSPost2010Prop36
280
     0
102
RTVSPost2010PropOp36
 70
     1
102
RTVSPost2010Prop37
 90
       50
102
RTVSPost2010PropOp37
 70
     1
102
RTVSPost2010Prop38
140
0.0
102
RTVSPost2010PropOp38
 70
     1
102
RTVSPost2010Prop39
140
1.0
102
RTVSPost2010PropOp39
 70
     1
102
RTVSPost2010Prop40
 90
        0
102
RTVSPost2010PropOp40
 70
     1
102
RTVSPost2010Prop41ColorIndex
 90
       18
102
RTVSPost2010Prop41ColorRGB
 90
        0
102
RTVSPost2010PropOp41
 70
     1
102
RTVSPost2010Prop42
 90
       50
102
RTVSPost2010PropOp42
 70
     1
102
RTVSPost2010Prop43
 90
        3
102
RTVSPost2010PropOp43
 70
     1
102
RTVSPost2010Prop44ColorIndex
 90
        5
102
RTVSPost2010Prop44ColorRGB
 90
      255
102
RTVSPost2010PropOp44
 70
     1
102
RTVSPost2010Prop45
280
     0
102
RTVSPost2010PropOp45
 70
     1
102
RTVSPost2010Prop46
 90
       50
102
RTVSPost2010PropOp46
 70
     1
102
RTVSPost2010Prop47
 90
       50
102
RTVSPost2010PropOp47
 70
     1
102
RTVSPost2010Prop48
 90
       50
102
RTVSPost2010PropOp48
 70
     1
102
RTVSPost2010Prop49
280
     0
102
RTVSPost2010PropOp49
 70
     1
102
RTVSPost2010Prop50
 90
       50
102
RTVSPost2010PropOp50
 70
     1
102
RTVSPost2010Prop51ColorIndex
 90
      256
102
RTVSPost2010Prop51ColorRGB
 90
-16777216
102
RTVSPost2010PropOp51
 70
     0
102
RTVSPost2010Prop52
140
1.0
102
RTVSPost2010PropOp52
 70
     0
102
RTVSPost2010Prop53
 90
        2
102
RTVSPost2010PropOp53
 70
     1
102
RTVSPost2010Prop54
  1
strokes_ogs.tif
102
RTVSPost2010PropOp54
 70
     1
102
RTVSPost2010Prop55
280
     0
102
RTVSPost2010PropOp55
 70
     1
102
RTVSPost2010Prop56
140
1.0
102
RTVSPost2010PropOp56
 70
     1
102
RTVSPost2010Prop57
140
1.0
102
RTVSPost2010PropOp57
 70
     1
  0
XRECORD
  5
341
102
{ACAD_REACTORS
330
340
102
}
330
340
100
AcDbXrecord
280
     1
102
RTVSPropertyOp0
 70
     1
102
RTVSPropertyOp1
 70
     1
102
RTVSPropertyOp2
 70
     1
102
RTVSPropertyOp3
 70
     1
102
RTVSPropertyOp4
 70
     1
102
RTVSPropertyOp5
 70
     1
102
RTVSPropertyOp6
 70
     1
102
RTVSPropertyOp7
 70
     1
102
RTVSPropertyOp8
 70
     1
102
RTVSPropertyOp9
 70
     1
102
RTVSPropertyOp10
 70
     1
102
RTVSPropertyOp11
 70
     1
102
RTVSPropertyOp12
 70
     1
102
RTVSPropertyOp13
 70
     1
102
RTVSPropertyOp14
 70
     1
102
RTVSPropertyOp15
 70
     1
102
RTVSPropertyOp16
 70
     1
102
RTVSPropertyOp17
 70
     1
102
RTVSPropertyOp18
 70
     1
102
RTVSPropertyOp19
 70
     1
102
RTVSPropertyOp20
 70
     1
102
RTVSPropertyOp21
 70
     1
102
RTVSPropertyOp22
 70
     1
102
RTVSPropertyOp23
 70
     1
102
RTVSPropertyOp24
 70
     1
102
RTVSPropertyOp25
 70
     1
102
RTVSPropertyOp26
 70
     1
102
RTVSPropertyOp27
 70
     1
102
RTVSPropertyOp28
 70
     1
102
RTVSPropertyOp29
 70
     1
102
RTVSPropertyOp30
 70
     1
102
RTVSPropertyOp31
 70
     1
102
RTVSPropertyOp32
 70
     1
102
RTVSPropertyOp33
 70
     1
102
RTVSPropertyOp34
 70
     1
102
RTVSPropertyOp35
 70
     1
102
RTVSPropertyOp36
 70
     1
102
RTVSPropertyOp37
 70
     1
102
RTVSPropertyOp38
 70
     1
102
RTVSPropertyOp39
 70
     1
102
RTVSPropertyOp40
 70
     1
102
RTVSPropertyOp41
 70
     1
102
RTVSPropertyOp42
 70
     1
102
RTVSPropertyOp43
 70
     1
102
RTVSPropertyOp44
 70
     1
102
RTVSPropertyOp45
 70
     1
102
RTVSPropertyOp46
 70
     1
102
RTVSPropertyOp47
 70
     1
102
RTVSPropertyOp48
 70
     1
102
RTVSPropertyOp49
 70
     1
102
RTVSPropertyOp50
 70
     1
102
RTVSPropertyOp51
 70
     0
102
RTVSPropertyOp52
 70
     0
102
RTVSPropertyOp53
 70
     1
102
RTVSPropertyOp54
 70
     1
102
RTVSPropertyOp55
 70
     1
102
RTVSPropertyOp56
 70
     1
102
RTVSPropertyOp57
 70
     1
102
RTVSPost2010Prop28
280
     0
102
RTVSPost2010PropOp28
 70
     1
102
RTVSPost2010Prop29
280
     1
102
RTVSPost2010PropOp29
 70
     1
102
RTVSPost2010Prop30
280
     1
102
RTVSPost2010PropOp30
 70
     1
102
RTVSPost2010Prop31
280
     0
102
RTVSPost2010PropOp31
 70
     1
102
RTVSPost2010Prop32
280
     0
102
RTVSPost2010PropOp32
 70
     1
102
RTVSPost2010Prop33
280
     0
102
RTVSPost2010PropOp33
 70
     1
102
RTVSPost2010Prop34
280
     0
102
RTVSPost2010PropOp34
 70
     1
102
RTVSPost2010Prop35
280
     0
102
RTVSPost2010PropOp35
 70
     1
102
RTVSPost2010Prop36
280
     0
102
RTVSPost2010PropOp36
 70
     1
102
RTVSPost2010Prop37
 90
       50
102
RTVSPost2010PropOp37
 70
     1
102
RTVSPost2010Prop38
140
0.0
102
RTVSPost2010PropOp38
 70
     1
102
RTVSPost2010Prop39
140
1.0
102
RTVSPost2010PropOp39
 70
     1
102
RTVSPost2010Prop40
 90
        0
102
RTVSPost2010PropOp40
 70
     1
102
RTVSPost2010Prop41ColorIndex
 90
       18
102
RTVSPost2010Prop41ColorRGB
 90
        0
102
RTVSPost2010PropOp41
 70
     1
102
RTVSPost2010Prop42
 90
       50
102
RTVSPost2010PropOp42
 70
     1
102
RTVSPost2010Prop43
 90
        3
102
RTVSPost2010PropOp43
 70
     1
102
RTVSPost2010Prop44ColorIndex
 90
        5
102
RTVSPost2010Prop44ColorRGB
 90
      255
102
RTVSPost2010PropOp44
 70
     1
102
RTVSPost2010Prop45
280
     0
102
RTVSPost2010PropOp45
 70
     1
102
RTVSPost2010Prop46
 90
       50
102
RTVSPost2010PropOp46
 70
     1
102
RTVSPost2010Prop47
 90
       50
102
RTVSPost2010PropOp47
 70
     1
102
RTVSPost2010Prop48
 90
       50
102
RTVSPost2010PropOp48
 70
     1
102
RTVSPost2010Prop49
280
     0
102
RTVSPost2010PropOp49
 70
     1
102
RTVSPost2010Prop50
 90
       50
102
RTVSPost2010PropOp50
 70
     1
102
RTVSPost2010Prop51ColorIndex
 90
      256
102
RTVSPost2010Prop51ColorRGB
 90
-16777216
102
RTVSPost2010PropOp51
 70
     0
102
RTVSPost2010Prop52
140
1.0
102
RTVSPost2010PropOp52
 70
     0
102
RTVSPost2010Prop53
 90
        2
102
RTVSPost2010PropOp53
 70
     1
102
RTVSPost2010Prop54
  1
strokes_ogs.tif
102
RTVSPost2010PropOp54
 70
     1
102
RTVSPost2010Prop55
280
     0
102
RTVSPost2010PropOp55
 70
     1
102
RTVSPost2010Prop56
140
1.0
102
RTVSPost2010PropOp56
 70
     1
102
RTVSPost2010Prop57
140
1.0
102
RTVSPost2010PropOp57
 70
     1
  0
XRECORD
  5
343
102
{ACAD_REACTORS
330
342
102
}
330
342
100
AcDbXrecord
280
     1
102
RTVSPropertyOp0
 70
     1
102
RTVSPropertyOp1
 70
     1
102
RTVSPropertyOp2
 70
     1
102
RTVSPropertyOp3
 70
     1
102
RTVSPropertyOp4
 70
     1
102
RTVSPropertyOp5
 70
     1
102
RTVSPropertyOp6
 70
     1
102
RTVSPropertyOp7
 70
     1
102
RTVSPropertyOp8
 70
     1
102
RTVSPropertyOp9
 70
     1
102
RTVSPropertyOp10
 70
     1
102
RTVSPropertyOp11
 70
     1
102
RTVSPropertyOp12
 70
     1
102
RTVSPropertyOp13
 70
     1
102
RTVSPropertyOp14
 70
     1
102
RTVSPropertyOp15
 70
     1
102
RTVSPropertyOp16
 70
     1
102
RTVSPropertyOp17
 70
     1
102
RTVSPropertyOp18
 70
     1
102
RTVSPropertyOp19
 70
     1
102
RTVSPropertyOp20
 70
     1
102
RTVSPropertyOp21
 70
     1
102
RTVSPropertyOp22
 70
     1
102
RTVSPropertyOp23
 70
     1
102
RTVSPropertyOp24
 70
     1
102
RTVSPropertyOp25
 70
     1
102
RTVSPropertyOp26
 70
     1
102
RTVSPropertyOp27
 70
     1
102
RTVSPropertyOp28
 70
     1
102
RTVSPropertyOp29
 70
     1
102
RTVSPropertyOp30
 70
     1
102
RTVSPropertyOp31
 70
     1
102
RTVSPropertyOp32
 70
     1
102
RTVSPropertyOp33
 70
     1
102
RTVSPropertyOp34
 70
     1
102
RTVSPropertyOp35
 70
     1
102
RTVSPropertyOp36
 70
     1
102
RTVSPropertyOp37
 70
     1
102
RTVSPropertyOp38
 70
     1
102
RTVSPropertyOp39
 70
     1
102
RTVSPropertyOp40
 70
     1
102
RTVSPropertyOp41
 70
     1
102
RTVSPropertyOp42
 70
     1
102
RTVSPropertyOp43
 70
     1
102
RTVSPropertyOp44
 70
     1
102
RTVSPropertyOp45
 70
     1
102
RTVSPropertyOp46
 70
     1
102
RTVSPropertyOp47
 70
     1
102
RTVSPropertyOp48
 70
     1
102
RTVSPropertyOp49
 70
     1
102
RTVSPropertyOp50
 70
     1
102
RTVSPropertyOp51
 70
     0
102
RTVSPropertyOp52
 70
     0
102
RTVSPropertyOp53
 70
     1
102
RTVSPropertyOp54
 70
     1
102
RTVSPropertyOp55
 70
     1
102
RTVSPropertyOp56
 70
     1
102
RTVSPropertyOp57
 70
     1
102
RTVSPost2010Prop28
280
     0
102
RTVSPost2010PropOp28
 70
     1
102
RTVSPost2010Prop29
280
     1
102
RTVSPost2010PropOp29
 70
     1
102
RTVSPost2010Prop30
280
     1
102
RTVSPost2010PropOp30
 70
     1
102
RTVSPost2010Prop31
280
     0
102
RTVSPost2010PropOp31
 70
     1
102
RTVSPost2010Prop32
280
     0
102
RTVSPost2010PropOp32
 70
     1
102
RTVSPost2010Prop33
280
     0
102
RTVSPost2010PropOp33
 70
     1
102
RTVSPost2010Prop34
280
     0
102
RTVSPost2010PropOp34
 70
     1
102
RTVSPost2010Prop35
280
     0
102
RTVSPost2010PropOp35
 70
     1
102
RTVSPost2010Prop36
280
     0
102
RTVSPost2010PropOp36
 70
     1
102
RTVSPost2010Prop37
 90
       50
102
RTVSPost2010PropOp37
 70
     1
102
RTVSPost2010Prop38
140
0.0
102
RTVSPost2010PropOp38
 70
     1
102
RTVSPost2010Prop39
140
1.0
102
RTVSPost2010PropOp39
 70
     1
102
RTVSPost2010Prop40
 90
        0
102
RTVSPost2010PropOp40
 70
     1
102
RTVSPost2010Prop41ColorIndex
 90
       18
102
RTVSPost2010Prop41ColorRGB
 90
        0
102
RTVSPost2010PropOp41
 70
     1
102
RTVSPost2010Prop42
 90
       50
102
RTVSPost2010PropOp42
 70
     1
102
RTVSPost2010Prop43
 90
        3
102
RTVSPost2010PropOp43
 70
     1
102
RTVSPost2010Prop44ColorIndex
 90
        5
102
RTVSPost2010Prop44ColorRGB
 90
      255
102
RTVSPost2010PropOp44
 70
     1
102
RTVSPost2010Prop45
280
     0
102
RTVSPost2010PropOp45
 70
     1
102
RTVSPost2010Prop46
 90
       50
102
RTVSPost2010PropOp46
 70
     1
102
RTVSPost2010Prop47
 90
       50
102
RTVSPost2010PropOp47
 70
     1
102
RTVSPost2010Prop48
 90
       50
102
RTVSPost2010PropOp48
 70
     1
102
RTVSPost2010Prop49
280
     0
102
RTVSPost2010PropOp49
 70
     1
102
RTVSPost2010Prop50
 90
       50
102
RTVSPost2010PropOp50
 70
     1
102
RTVSPost2010Prop51ColorIndex
 90
      256
102
RTVSPost2010Prop51ColorRGB
 90
-16777216
102
RTVSPost2010PropOp51
 70
     0
102
RTVSPost2010Prop52
140
1.0
102
RTVSPost2010PropOp52
 70
     0
102
RTVSPost2010Prop53
 90
        2
102
RTVSPost2010PropOp53
 70
     1
102
RTVSPost2010Prop54
  1
strokes_ogs.tif
102
RTVSPost2010PropOp54
 70
     1
102
RTVSPost2010Prop55
280
     0
102
RTVSPost2010PropOp55
 70
     1
102
RTVSPost2010Prop56
140
1.0
102
RTVSPost2010PropOp56
 70
     1
102
RTVSPost2010Prop57
140
1.0
102
RTVSPost2010PropOp57
 70
     1
  0
XRECORD
  5
345
102
{ACAD_REACTORS
330
344
102
}
330
344
100
AcDbXrecord
280
     1
102
RTVSPropertyOp0
 70
     1
102
RTVSPropertyOp1
 70
     1
102
RTVSPropertyOp2
 70
     1
102
RTVSPropertyOp3
 70
     1
102
RTVSPropertyOp4
 70
     1
102
RTVSPropertyOp5
 70
     1
102
RTVSPropertyOp6
 70
     1
102
RTVSPropertyOp7
 70
     1
102
RTVSPropertyOp8
 70
     1
102
RTVSPropertyOp9
 70
     1
102
RTVSPropertyOp10
 70
     1
102
RTVSPropertyOp11
 70
     1
102
RTVSPropertyOp12
 70
     1
102
RTVSPropertyOp13
 70
     1
102
RTVSPropertyOp14
 70
     1
102
RTVSPropertyOp15
 70
     1
102
RTVSPropertyOp16
 70
     1
102
RTVSPropertyOp17
 70
     1
102
RTVSPropertyOp18
 70
     1
102
RTVSPropertyOp19
 70
     1
102
RTVSPropertyOp20
 70
     1
102
RTVSPropertyOp21
 70
     1
102
RTVSPropertyOp22
 70
     1
102
RTVSPropertyOp23
 70
     1
102
RTVSPropertyOp24
 70
     1
102
RTVSPropertyOp25
 70
     1
102
RTVSPropertyOp26
 70
     1
102
RTVSPropertyOp27
 70
     1
102
RTVSPropertyOp28
 70
     1
102
RTVSPropertyOp29
 70
     1
102
RTVSPropertyOp30
 70
     1
102
RTVSPropertyOp31
 70
     1
102
RTVSPropertyOp32
 70
     1
102
RTVSPropertyOp33
 70
     1
102
RTVSPropertyOp34
 70
     1
102
RTVSPropertyOp35
 70
     1
102
RTVSPropertyOp36
 70
     1
102
RTVSPropertyOp37
 70
     1
102
RTVSPropertyOp38
 70
     1
102
RTVSPropertyOp39
 70
     1
102
RTVSPropertyOp40
 70
     1
102
RTVSPropertyOp41
 70
     1
102
RTVSPropertyOp42
 70
     1
102
RTVSPropertyOp43
 70
     1
102
RTVSPropertyOp44
 70
     1
102
RTVSPropertyOp45
 70
     1
102
RTVSPropertyOp46
 70
     1
102
RTVSPropertyOp47
 70
     1
102
RTVSPropertyOp48
 70
     1
102
RTVSPropertyOp49
 70
     1
102
RTVSPropertyOp50
 70
     1
102
RTVSPropertyOp51
 70
     0
102
RTVSPropertyOp52
 70
     0
102
RTVSPropertyOp53
 70
     1
102
RTVSPropertyOp54
 70
     1
102
RTVSPropertyOp55
 70
     1
102
RTVSPropertyOp56
 70
     1
102
RTVSPropertyOp57
 70
     1
102
RTVSPost2010Prop28
280
     0
102
RTVSPost2010PropOp28
 70
     1
102
RTVSPost2010Prop29
280
     1
102
RTVSPost2010PropOp29
 70
     1
102
RTVSPost2010Prop30
280
     1
102
RTVSPost2010PropOp30
 70
     1
102
RTVSPost2010Prop31
280
     0
102
RTVSPost2010PropOp31
 70
     1
102
RTVSPost2010Prop32
280
     0
102
RTVSPost2010PropOp32
 70
     1
102
RTVSPost2010Prop33
280
     0
102
RTVSPost2010PropOp33
 70
     1
102
RTVSPost2010Prop34
280
     0
102
RTVSPost2010PropOp34
 70
     1
102
RTVSPost2010Prop35
280
     0
102
RTVSPost2010PropOp35
 70
     1
102
RTVSPost2010Prop36
280
     0
102
RTVSPost2010PropOp36
 70
     1
102
RTVSPost2010Prop37
 90
       50
102
RTVSPost2010PropOp37
 70
     1
102
RTVSPost2010Prop38
140
0.0
102
RTVSPost2010PropOp38
 70
     1
102
RTVSPost2010Prop39
140
1.0
102
RTVSPost2010PropOp39
 70
     1
102
RTVSPost2010Prop40
 90
        0
102
RTVSPost2010PropOp40
 70
     1
102
RTVSPost2010Prop41ColorIndex
 90
       18
102
RTVSPost2010Prop41ColorRGB
 90
        0
102
RTVSPost2010PropOp41
 70
     1
102
RTVSPost2010Prop42
 90
       50
102
RTVSPost2010PropOp42
 70
     1
102
RTVSPost2010Prop43
 90
        3
102
RTVSPost2010PropOp43
 70
     1
102
RTVSPost2010Prop44ColorIndex
 90
        5
102
RTVSPost2010Prop44ColorRGB
 90
      255
102
RTVSPost2010PropOp44
 70
     1
102
RTVSPost2010Prop45
280
     0
102
RTVSPost2010PropOp45
 70
     1
102
RTVSPost2010Prop46
 90
       50
102
RTVSPost2010PropOp46
 70
     1
102
RTVSPost2010Prop47
 90
       50
102
RTVSPost2010PropOp47
 70
     1
102
RTVSPost2010Prop48
 90
       50
102
RTVSPost2010PropOp48
 70
     1
102
RTVSPost2010Prop49
280
     0
102
RTVSPost2010PropOp49
 70
     1
102
RTVSPost2010Prop50
 90
       50
102
RTVSPost2010PropOp50
 70
     1
102
RTVSPost2010Prop51ColorIndex
 90
      256
102
RTVSPost2010Prop51ColorRGB
 90
-16777216
102
RTVSPost2010PropOp51
 70
     0
102
RTVSPost2010Prop52
140
1.0
102
RTVSPost2010PropOp52
 70
     0
102
RTVSPost2010Prop53
 90
        2
102
RTVSPost2010PropOp53
 70
     1
102
RTVSPost2010Prop54
  1
strokes_ogs.tif
102
RTVSPost2010PropOp54
 70
     1
102
RTVSPost2010Prop55
280
     0
102
RTVSPost2010PropOp55
 70
     1
102
RTVSPost2010Prop56
140
1.0
102
RTVSPost2010PropOp56
 70
     1
102
RTVSPost2010Prop57
140
1.0
102
RTVSPost2010PropOp57
 70
     1
  0
XRECORD
  5
347
102
{ACAD_REACTORS
330
346
102
}
330
346
100
AcDbXrecord
280
     1
102
RTVSPropertyOp0
 70
     1
102
RTVSPropertyOp1
 70
     1
102
RTVSPropertyOp2
 70
     1
102
RTVSPropertyOp3
 70
     1
102
RTVSPropertyOp4
 70
     1
102
RTVSPropertyOp5
 70
     1
102
RTVSPropertyOp6
 70
     1
102
RTVSPropertyOp7
 70
     1
102
RTVSPropertyOp8
 70
     1
102
RTVSPropertyOp9
 70
     1
102
RTVSPropertyOp10
 70
     1
102
RTVSPropertyOp11
 70
     1
102
RTVSPropertyOp12
 70
     1
102
RTVSPropertyOp13
 70
     1
102
RTVSPropertyOp14
 70
     1
102
RTVSPropertyOp15
 70
     1
102
RTVSPropertyOp16
 70
     1
102
RTVSPropertyOp17
 70
     1
102
RTVSPropertyOp18
 70
     1
102
RTVSPropertyOp19
 70
     1
102
RTVSPropertyOp20
 70
     1
102
RTVSPropertyOp21
 70
     1
102
RTVSPropertyOp22
 70
     1
102
RTVSPropertyOp23
 70
     1
102
RTVSPropertyOp24
 70
     1
102
RTVSPropertyOp25
 70
     1
102
RTVSPropertyOp26
 70
     1
102
RTVSPropertyOp27
 70
     1
102
RTVSPropertyOp28
 70
     1
102
RTVSPropertyOp29
 70
     1
102
RTVSPropertyOp30
 70
     1
102
RTVSPropertyOp31
 70
     1
102
RTVSPropertyOp32
 70
     1
102
RTVSPropertyOp33
 70
     1
102
RTVSPropertyOp34
 70
     1
102
RTVSPropertyOp35
 70
     1
102
RTVSPropertyOp36
 70
     1
102
RTVSPropertyOp37
 70
     1
102
RTVSPropertyOp38
 70
     1
102
RTVSPropertyOp39
 70
     1
102
RTVSPropertyOp40
 70
     1
102
RTVSPropertyOp41
 70
     1
102
RTVSPropertyOp42
 70
     1
102
RTVSPropertyOp43
 70
     1
102
RTVSPropertyOp44
 70
     1
102
RTVSPropertyOp45
 70
     1
102
RTVSPropertyOp46
 70
     1
102
RTVSPropertyOp47
 70
     1
102
RTVSPropertyOp48
 70
     1
102
RTVSPropertyOp49
 70
     1
102
RTVSPropertyOp50
 70
     1
102
RTVSPropertyOp51
 70
     0
102
RTVSPropertyOp52
 70
     0
102
RTVSPropertyOp53
 70
     1
102
RTVSPropertyOp54
 70
     1
102
RTVSPropertyOp55
 70
     1
102
RTVSPropertyOp56
 70
     1
102
RTVSPropertyOp57
 70
     1
102
RTVSPost2010Prop28
280
     0
102
RTVSPost2010PropOp28
 70
     1
102
RTVSPost2010Prop29
280
     1
102
RTVSPost2010PropOp29
 70
     1
102
RTVSPost2010Prop30
280
     1
102
RTVSPost2010PropOp30
 70
     1
102
RTVSPost2010Prop31
280
     0
102
RTVSPost2010PropOp31
 70
     1
102
RTVSPost2010Prop32
280
     0
102
RTVSPost2010PropOp32
 70
     1
102
RTVSPost2010Prop33
280
     0
102
RTVSPost2010PropOp33
 70
     1
102
RTVSPost2010Prop34
280
     0
102
RTVSPost2010PropOp34
 70
     1
102
RTVSPost2010Prop35
280
     0
102
RTVSPost2010PropOp35
 70
     1
102
RTVSPost2010Prop36
280
     0
102
RTVSPost2010PropOp36
 70
     1
102
RTVSPost2010Prop37
 90
       50
102
RTVSPost2010PropOp37
 70
     1
102
RTVSPost2010Prop38
140
0.0
102
RTVSPost2010PropOp38
 70
     1
102
RTVSPost2010Prop39
140
1.0
102
RTVSPost2010PropOp39
 70
     1
102
RTVSPost2010Prop40
 90
        0
102
RTVSPost2010PropOp40
 70
     1
102
RTVSPost2010Prop41ColorIndex
 90
       18
102
RTVSPost2010Prop41ColorRGB
 90
        0
102
RTVSPost2010PropOp41
 70
     1
102
RTVSPost2010Prop42
 90
       50
102
RTVSPost2010PropOp42
 70
     1
102
RTVSPost2010Prop43
 90
        3
102
RTVSPost2010PropOp43
 70
     1
102
RTVSPost2010Prop44ColorIndex
 90
        5
102
RTVSPost2010Prop44ColorRGB
 90
      255
102
RTVSPost2010PropOp44
 70
     1
102
RTVSPost2010Prop45
280
     0
102
RTVSPost2010PropOp45
 70
     1
102
RTVSPost2010Prop46
 90
       50
102
RTVSPost2010PropOp46
 70
     1
102
RTVSPost2010Prop47
 90
       50
102
RTVSPost2010PropOp47
 70
     1
102
RTVSPost2010Prop48
 90
       50
102
RTVSPost2010PropOp48
 70
     1
102
RTVSPost2010Prop49
280
     0
102
RTVSPost2010PropOp49
 70
     1
102
RTVSPost2010Prop50
 90
       50
102
RTVSPost2010PropOp50
 70
     1
102
RTVSPost2010Prop51ColorIndex
 90
      256
102
RTVSPost2010Prop51ColorRGB
 90
-16777216
102
RTVSPost2010PropOp51
 70
     0
102
RTVSPost2010Prop52
140
1.0
102
RTVSPost2010PropOp52
 70
     0
102
RTVSPost2010Prop53
 90
        2
102
RTVSPost2010PropOp53
 70
     1
102
RTVSPost2010Prop54
  1
strokes_ogs.tif
102
RTVSPost2010PropOp54
 70
     1
102
RTVSPost2010Prop55
280
     0
102
RTVSPost2010PropOp55
 70
     1
102
RTVSPost2010Prop56
140
1.0
102
RTVSPost2010PropOp56
 70
     1
102
RTVSPost2010Prop57
140
1.0
102
RTVSPost2010PropOp57
 70
     1
  0
XRECORD
  5
34D
102
{ACAD_REACTORS
330
34C
102
}
330
34C
100
AcDbXrecord
280
     1
102
RTVSPropertyOp0
 70
     1
102
RTVSPropertyOp1
 70
     1
102
RTVSPropertyOp2
 70
     1
102
RTVSPropertyOp3
 70
     1
102
RTVSPropertyOp4
 70
     1
102
RTVSPropertyOp5
 70
     1
102
RTVSPropertyOp6
 70
     1
102
RTVSPropertyOp7
 70
     1
102
RTVSPropertyOp8
 70
     1
102
RTVSPropertyOp9
 70
     1
102
RTVSPropertyOp10
 70
     1
102
RTVSPropertyOp11
 70
     1
102
RTVSPropertyOp12
 70
     1
102
RTVSPropertyOp13
 70
     1
102
RTVSPropertyOp14
 70
     1
102
RTVSPropertyOp15
 70
     1
102
RTVSPropertyOp16
 70
     1
102
RTVSPropertyOp17
 70
     1
102
RTVSPropertyOp18
 70
     1
102
RTVSPropertyOp19
 70
     1
102
RTVSPropertyOp20
 70
     1
102
RTVSPropertyOp21
 70
     1
102
RTVSPropertyOp22
 70
     1
102
RTVSPropertyOp23
 70
     1
102
RTVSPropertyOp24
 70
     1
102
RTVSPropertyOp25
 70
     1
102
RTVSPropertyOp26
 70
     1
102
RTVSPropertyOp27
 70
     1
102
RTVSPropertyOp28
 70
     1
102
RTVSPropertyOp29
 70
     1
102
RTVSPropertyOp30
 70
     1
102
RTVSPropertyOp31
 70
     1
102
RTVSPropertyOp32
 70
     1
102
RTVSPropertyOp33
 70
     1
102
RTVSPropertyOp34
 70
     1
102
RTVSPropertyOp35
 70
     1
102
RTVSPropertyOp36
 70
     1
102
RTVSPropertyOp37
 70
     1
102
RTVSPropertyOp38
 70
     1
102
RTVSPropertyOp39
 70
     1
102
RTVSPropertyOp40
 70
     1
102
RTVSPropertyOp41
 70
     1
102
RTVSPropertyOp42
 70
     1
102
RTVSPropertyOp43
 70
     1
102
RTVSPropertyOp44
 70
     1
102
RTVSPropertyOp45
 70
     1
102
RTVSPropertyOp46
 70
     1
102
RTVSPropertyOp47
 70
     1
102
RTVSPropertyOp48
 70
     1
102
RTVSPropertyOp49
 70
     1
102
RTVSPropertyOp50
 70
     1
102
RTVSPropertyOp51
 70
     0
102
RTVSPropertyOp52
 70
     0
102
RTVSPropertyOp53
 70
     1
102
RTVSPropertyOp54
 70
     1
102
RTVSPropertyOp55
 70
     1
102
RTVSPropertyOp56
 70
     1
102
RTVSPropertyOp57
 70
     1
102
RTVSPost2010Prop28
280
     0
102
RTVSPost2010PropOp28
 70
     1
102
RTVSPost2010Prop29
280
     1
102
RTVSPost2010PropOp29
 70
     1
102
RTVSPost2010Prop30
280
     1
102
RTVSPost2010PropOp30
 70
     1
102
RTVSPost2010Prop31
280
     0
102
RTVSPost2010PropOp31
 70
     1
102
RTVSPost2010Prop32
280
     0
102
RTVSPost2010PropOp32
 70
     1
102
RTVSPost2010Prop33
280
     0
102
RTVSPost2010PropOp33
 70
     1
102
RTVSPost2010Prop34
280
     0
102
RTVSPost2010PropOp34
 70
     1
102
RTVSPost2010Prop35
280
     0
102
RTVSPost2010PropOp35
 70
     1
102
RTVSPost2010Prop36
280
     0
102
RTVSPost2010PropOp36
 70
     1
102
RTVSPost2010Prop37
 90
       50
102
RTVSPost2010PropOp37
 70
     1
102
RTVSPost2010Prop38
140
0.0
102
RTVSPost2010PropOp38
 70
     1
102
RTVSPost2010Prop39
140
1.0
102
RTVSPost2010PropOp39
 70
     1
102
RTVSPost2010Prop40
 90
        0
102
RTVSPost2010PropOp40
 70
     1
102
RTVSPost2010Prop41ColorIndex
 90
       18
102
RTVSPost2010Prop41ColorRGB
 90
        0
102
RTVSPost2010PropOp41
 70
     1
102
RTVSPost2010Prop42
 90
       50
102
RTVSPost2010PropOp42
 70
     1
102
RTVSPost2010Prop43
 90
        3
102
RTVSPost2010PropOp43
 70
     1
102
RTVSPost2010Prop44ColorIndex
 90
        5
102
RTVSPost2010Prop44ColorRGB
 90
      255
102
RTVSPost2010PropOp44
 70
     1
102
RTVSPost2010Prop45
280
     0
102
RTVSPost2010PropOp45
 70
     1
102
RTVSPost2010Prop46
 90
       50
102
RTVSPost2010PropOp46
 70
     1
102
RTVSPost2010Prop47
 90
       50
102
RTVSPost2010PropOp47
 70
     1
102
RTVSPost2010Prop48
 90
       50
102
RTVSPost2010PropOp48
 70
     1
102
RTVSPost2010Prop49
280
     0
102
RTVSPost2010PropOp49
 70
     1
102
RTVSPost2010Prop50
 90
       50
102
RTVSPost2010PropOp50
 70
     1
102
RTVSPost2010Prop51ColorIndex
 90
      256
102
RTVSPost2010Prop51ColorRGB
 90
-16777216
102
RTVSPost2010PropOp51
 70
     0
102
RTVSPost2010Prop52
140
1.0
102
RTVSPost2010PropOp52
 70
     0
102
RTVSPost2010Prop53
 90
        2
102
RTVSPost2010PropOp53
 70
     1
102
RTVSPost2010Prop54
  1
strokes_ogs.tif
102
RTVSPost2010PropOp54
 70
     1
102
RTVSPost2010Prop55
280
     0
102
RTVSPost2010PropOp55
 70
     1
102
RTVSPost2010Prop56
140
1.0
102
RTVSPost2010PropOp56
 70
     1
102
RTVSPost2010Prop57
140
1.0
102
RTVSPost2010PropOp57
 70
     1
  0
XRECORD
  5
361
102
{ACAD_REACTORS
330
360
102
}
330
360
100
AcDbXrecord
280
     1
102
RTVSPropertyOp0
 70
     0
102
RTVSPropertyOp1
 70
     0
102
RTVSPropertyOp2
 70
     0
102
RTVSPropertyOp3
 70
     0
102
RTVSPropertyOp4
 70
     0
102
RTVSPropertyOp5
 70
     0
102
RTVSPropertyOp6
 70
     0
102
RTVSPropertyOp7
 70
     0
102
RTVSPropertyOp8
 70
     0
102
RTVSPropertyOp9
 70
     0
102
RTVSPropertyOp10
 70
     0
102
RTVSPropertyOp11
 70
     0
102
RTVSPropertyOp12
 70
     0
102
RTVSPropertyOp13
 70
     0
102
RTVSPropertyOp14
 70
     2
102
RTVSPropertyOp15
 70
     0
102
RTVSPropertyOp16
 70
     0
102
RTVSPropertyOp17
 70
     0
102
RTVSPropertyOp18
 70
     0
102
RTVSPropertyOp19
 70
     0
102
RTVSPropertyOp20
 70
     0
102
RTVSPropertyOp21
 70
     0
102
RTVSPropertyOp22
 70
     0
102
RTVSPropertyOp23
 70
     0
102
RTVSPropertyOp24
 70
     0
102
RTVSPropertyOp25
 70
     0
102
RTVSPropertyOp26
 70
     0
102
RTVSPropertyOp27
 70
     0
102
RTVSPropertyOp28
 70
     0
102
RTVSPropertyOp29
 70
     0
102
RTVSPropertyOp30
 70
     0
102
RTVSPropertyOp31
 70
     0
102
RTVSPropertyOp32
 70
     0
102
RTVSPropertyOp33
 70
     0
102
RTVSPropertyOp34
 70
     0
102
RTVSPropertyOp35
 70
     0
102
RTVSPropertyOp36
 70
     0
102
RTVSPropertyOp37
 70
     0
102
RTVSPropertyOp38
 70
     0
102
RTVSPropertyOp39
 70
     0
102
RTVSPropertyOp40
 70
     0
102
RTVSPropertyOp41
 70
     0
102
RTVSPropertyOp42
 70
     0
102
RTVSPropertyOp43
 70
     0
102
RTVSPropertyOp44
 70
     0
102
RTVSPropertyOp45
 70
     0
102
RTVSPropertyOp46
 70
     0
102
RTVSPropertyOp47
 70
     0
102
RTVSPropertyOp48
 70
     0
102
RTVSPropertyOp49
 70
     0
102
RTVSPropertyOp50
 70
     0
102
RTVSPropertyOp51
 70
     0
102
RTVSPropertyOp52
 70
     0
102
RTVSPropertyOp53
 70
     0
102
RTVSPropertyOp54
 70
     0
102
RTVSPropertyOp55
 70
     0
102
RTVSPropertyOp56
 70
     0
102
RTVSPropertyOp57
 70
     0
102
RTVSPost2010Prop28
280
     0
102
RTVSPost2010PropOp28
 70
     0
102
RTVSPost2010Prop29
280
     1
102
RTVSPost2010PropOp29
 70
     0
102
RTVSPost2010Prop30
280
     1
102
RTVSPost2010PropOp30
 70
     0
102
RTVSPost2010Prop31
280
     0
102
RTVSPost2010PropOp31
 70
     0
102
RTVSPost2010Prop32
280
     0
102
RTVSPost2010PropOp32
 70
     0
102
RTVSPost2010Prop33
280
     0
102
RTVSPost2010PropOp33
 70
     0
102
RTVSPost2010Prop34
280
     0
102
RTVSPost2010PropOp34
 70
     0
102
RTVSPost2010Prop35
280
     0
102
RTVSPost2010PropOp35
 70
     0
102
RTVSPost2010Prop36
280
     0
102
RTVSPost2010PropOp36
 70
     0
102
RTVSPost2010Prop37
 90
       50
102
RTVSPost2010PropOp37
 70
     0
102
RTVSPost2010Prop38
140
0.0
102
RTVSPost2010PropOp38
 70
     0
102
RTVSPost2010Prop39
140
1.0
102
RTVSPost2010PropOp39
 70
     0
102
RTVSPost2010Prop40
 90
        0
102
RTVSPost2010PropOp40
 70
     0
102
RTVSPost2010Prop41ColorIndex
 90
       18
102
RTVSPost2010Prop41ColorRGB
 90
        0
102
RTVSPost2010PropOp41
 70
     0
102
RTVSPost2010Prop42
 90
       50
102
RTVSPost2010PropOp42
 70
     0
102
RTVSPost2010Prop43
 90
        3
102
RTVSPost2010PropOp43
 70
     0
102
RTVSPost2010Prop44ColorIndex
 90
        5
102
RTVSPost2010Prop44ColorRGB
 90
      255
102
RTVSPost2010PropOp44
 70
     0
102
RTVSPost2010Prop45
280
     0
102
RTVSPost2010PropOp45
 70
     0
102
RTVSPost2010Prop46
 90
       50
102
RTVSPost2010PropOp46
 70
     0
102
RTVSPost2010Prop47
 90
       50
102
RTVSPost2010PropOp47
 70
     0
102
RTVSPost2010Prop48
 90
       50
102
RTVSPost2010PropOp48
 70
     0
102
RTVSPost2010Prop49
280
     0
102
RTVSPost2010PropOp49
 70
     0
102
RTVSPost2010Prop50
 90
       50
102
RTVSPost2010PropOp50
 70
     0
102
RTVSPost2010Prop51ColorIndex
 90
      256
102
RTVSPost2010Prop51ColorRGB
 90
-16777216
102
RTVSPost2010PropOp51
 70
     0
102
RTVSPost2010Prop52
140
1.0
102
RTVSPost2010PropOp52
 70
     0
102
RTVSPost2010Prop53
 90
        2
102
RTVSPost2010PropOp53
 70
     0
102
RTVSPost2010Prop54
  1
strokes_ogs.tif
102
RTVSPost2010PropOp54
 70
     0
102
RTVSPost2010Prop55
280
     0
102
RTVSPost2010PropOp55
 70
     0
102
RTVSPost2010Prop56
140
1.0
102
RTVSPost2010PropOp56
 70
     0
102
RTVSPost2010Prop57
140
1.0
102
RTVSPost2010PropOp57
 70
     0
  0
XRECORD
  5
35B
102
{ACAD_REACTORS
330
35A
102
}
330
35A
100
AcDbXrecord
280
     1
102
RTVSPropertyOp0
 70
     1
102
RTVSPropertyOp1
 70
     1
102
RTVSPropertyOp2
 70
     1
102
RTVSPropertyOp3
 70
     1
102
RTVSPropertyOp4
 70
     1
102
RTVSPropertyOp5
 70
     1
102
RTVSPropertyOp6
 70
     1
102
RTVSPropertyOp7
 70
     1
102
RTVSPropertyOp8
 70
     1
102
RTVSPropertyOp9
 70
     1
102
RTVSPropertyOp10
 70
     1
102
RTVSPropertyOp11
 70
     1
102
RTVSPropertyOp12
 70
     1
102
RTVSPropertyOp13
 70
     1
102
RTVSPropertyOp14
 70
     1
102
RTVSPropertyOp15
 70
     1
102
RTVSPropertyOp16
 70
     1
102
RTVSPropertyOp17
 70
     1
102
RTVSPropertyOp18
 70
     1
102
RTVSPropertyOp19
 70
     1
102
RTVSPropertyOp20
 70
     1
102
RTVSPropertyOp21
 70
     1
102
RTVSPropertyOp22
 70
     1
102
RTVSPropertyOp23
 70
     1
102
RTVSPropertyOp24
 70
     1
102
RTVSPropertyOp25
 70
     1
102
RTVSPropertyOp26
 70
     1
102
RTVSPropertyOp27
 70
     1
102
RTVSPropertyOp28
 70
     1
102
RTVSPropertyOp29
 70
     1
102
RTVSPropertyOp30
 70
     1
102
RTVSPropertyOp31
 70
     1
102
RTVSPropertyOp32
 70
     1
102
RTVSPropertyOp33
 70
     1
102
RTVSPropertyOp34
 70
     1
102
RTVSPropertyOp35
 70
     1
102
RTVSPropertyOp36
 70
     1
102
RTVSPropertyOp37
 70
     1
102
RTVSPropertyOp38
 70
     1
102
RTVSPropertyOp39
 70
     1
102
RTVSPropertyOp40
 70
     1
102
RTVSPropertyOp41
 70
     1
102
RTVSPropertyOp42
 70
     1
102
RTVSPropertyOp43
 70
     1
102
RTVSPropertyOp44
 70
     1
102
RTVSPropertyOp45
 70
     1
102
RTVSPropertyOp46
 70
     1
102
RTVSPropertyOp47
 70
     1
102
RTVSPropertyOp48
 70
     1
102
RTVSPropertyOp49
 70
     1
102
RTVSPropertyOp50
 70
     1
102
RTVSPropertyOp51
 70
     0
102
RTVSPropertyOp52
 70
     0
102
RTVSPropertyOp53
 70
     1
102
RTVSPropertyOp54
 70
     1
102
RTVSPropertyOp55
 70
     1
102
RTVSPropertyOp56
 70
     1
102
RTVSPropertyOp57
 70
     1
102
RTVSPost2010Prop28
280
     0
102
RTVSPost2010PropOp28
 70
     1
102
RTVSPost2010Prop29
280
     1
102
RTVSPost2010PropOp29
 70
     1
102
RTVSPost2010Prop30
280
     1
102
RTVSPost2010PropOp30
 70
     1
102
RTVSPost2010Prop31
280
     0
102
RTVSPost2010PropOp31
 70
     1
102
RTVSPost2010Prop32
280
     0
102
RTVSPost2010PropOp32
 70
     1
102
RTVSPost2010Prop33
280
     0
102
RTVSPost2010PropOp33
 70
     1
102
RTVSPost2010Prop34
280
     0
102
RTVSPost2010PropOp34
 70
     1
102
RTVSPost2010Prop35
280
     0
102
RTVSPost2010PropOp35
 70
     1
102
RTVSPost2010Prop36
280
     0
102
RTVSPost2010PropOp36
 70
     1
102
RTVSPost2010Prop37
 90
       50
102
RTVSPost2010PropOp37
 70
     1
102
RTVSPost2010Prop38
140
0.0
102
RTVSPost2010PropOp38
 70
     1
102
RTVSPost2010Prop39
140
1.0
102
RTVSPost2010PropOp39
 70
     1
102
RTVSPost2010Prop40
 90
        0
102
RTVSPost2010PropOp40
 70
     1
102
RTVSPost2010Prop41ColorIndex
 90
       18
102
RTVSPost2010Prop41ColorRGB
 90
        0
102
RTVSPost2010PropOp41
 70
     1
102
RTVSPost2010Prop42
 90
       50
102
RTVSPost2010PropOp42
 70
     1
102
RTVSPost2010Prop43
 90
        3
102
RTVSPost2010PropOp43
 70
     1
102
RTVSPost2010Prop44ColorIndex
 90
        5
102
RTVSPost2010Prop44ColorRGB
 90
      255
102
RTVSPost2010PropOp44
 70
     1
102
RTVSPost2010Prop45
280
     0
102
RTVSPost2010PropOp45
 70
     1
102
RTVSPost2010Prop46
 90
       50
102
RTVSPost2010PropOp46
 70
     1
102
RTVSPost2010Prop47
 90
       50
102
RTVSPost2010PropOp47
 70
     1
102
RTVSPost2010Prop48
 90
       50
102
RTVSPost2010PropOp48
 70
     1
102
RTVSPost2010Prop49
280
     0
102
RTVSPost2010PropOp49
 70
     1
102
RTVSPost2010Prop50
 90
       50
102
RTVSPost2010PropOp50
 70
     1
102
RTVSPost2010Prop51ColorIndex
 90
      256
102
RTVSPost2010Prop51ColorRGB
 90
-16777216
102
RTVSPost2010PropOp51
 70
     0
102
RTVSPost2010Prop52
140
1.0
102
RTVSPost2010PropOp52
 70
     0
102
RTVSPost2010Prop53
 90
        2
102
RTVSPost2010PropOp53
 70
     1
102
RTVSPost2010Prop54
  1
strokes_ogs.tif
102
RTVSPost2010PropOp54
 70
     1
102
RTVSPost2010Prop55
280
     0
102
RTVSPost2010PropOp55
 70
     1
102
RTVSPost2010Prop56
140
1.0
102
RTVSPost2010PropOp56
 70
     1
102
RTVSPost2010Prop57
140
1.0
102
RTVSPost2010PropOp57
 70
     1
  0
XRECORD
  5
363
102
{ACAD_REACTORS
330
362
102
}
330
362
100
AcDbXrecord
280
     1
102
RTVSPropertyOp0
 70
     0
102
RTVSPropertyOp1
 70
     0
102
RTVSPropertyOp2
 70
     0
102
RTVSPropertyOp3
 70
     0
102
RTVSPropertyOp4
 70
     0
102
RTVSPropertyOp5
 70
     0
102
RTVSPropertyOp6
 70
     0
102
RTVSPropertyOp7
 70
     0
102
RTVSPropertyOp8
 70
     0
102
RTVSPropertyOp9
 70
     0
102
RTVSPropertyOp10
 70
     0
102
RTVSPropertyOp11
 70
     0
102
RTVSPropertyOp12
 70
     0
102
RTVSPropertyOp13
 70
     0
102
RTVSPropertyOp14
 70
     2
102
RTVSPropertyOp15
 70
     0
102
RTVSPropertyOp16
 70
     0
102
RTVSPropertyOp17
 70
     0
102
RTVSPropertyOp18
 70
     0
102
RTVSPropertyOp19
 70
     0
102
RTVSPropertyOp20
 70
     0
102
RTVSPropertyOp21
 70
     0
102
RTVSPropertyOp22
 70
     0
102
RTVSPropertyOp23
 70
     0
102
RTVSPropertyOp24
 70
     0
102
RTVSPropertyOp25
 70
     0
102
RTVSPropertyOp26
 70
     0
102
RTVSPropertyOp27
 70
     0
102
RTVSPropertyOp28
 70
     0
102
RTVSPropertyOp29
 70
     0
102
RTVSPropertyOp30
 70
     0
102
RTVSPropertyOp31
 70
     0
102
RTVSPropertyOp32
 70
     0
102
RTVSPropertyOp33
 70
     0
102
RTVSPropertyOp34
 70
     0
102
RTVSPropertyOp35
 70
     0
102
RTVSPropertyOp36
 70
     0
102
RTVSPropertyOp37
 70
     0
102
RTVSPropertyOp38
 70
     0
102
RTVSPropertyOp39
 70
     0
102
RTVSPropertyOp40
 70
     0
102
RTVSPropertyOp41
 70
     0
102
RTVSPropertyOp42
 70
     0
102
RTVSPropertyOp43
 70
     0
102
RTVSPropertyOp44
 70
     0
102
RTVSPropertyOp45
 70
     0
102
RTVSPropertyOp46
 70
     0
102
RTVSPropertyOp47
 70
     0
102
RTVSPropertyOp48
 70
     0
102
RTVSPropertyOp49
 70
     0
102
RTVSPropertyOp50
 70
     0
102
RTVSPropertyOp51
 70
     0
102
RTVSPropertyOp52
 70
     0
102
RTVSPropertyOp53
 70
     0
102
RTVSPropertyOp54
 70
     0
102
RTVSPropertyOp55
 70
     0
102
RTVSPropertyOp56
 70
     0
102
RTVSPropertyOp57
 70
     0
102
RTVSPost2010Prop28
280
     0
102
RTVSPost2010PropOp28
 70
     0
102
RTVSPost2010Prop29
280
     1
102
RTVSPost2010PropOp29
 70
     0
102
RTVSPost2010Prop30
280
     1
102
RTVSPost2010PropOp30
 70
     0
102
RTVSPost2010Prop31
280
     0
102
RTVSPost2010PropOp31
 70
     0
102
RTVSPost2010Prop32
280
     0
102
RTVSPost2010PropOp32
 70
     0
102
RTVSPost2010Prop33
280
     0
102
RTVSPost2010PropOp33
 70
     0
102
RTVSPost2010Prop34
280
     0
102
RTVSPost2010PropOp34
 70
     0
102
RTVSPost2010Prop35
280
     0
102
RTVSPost2010PropOp35
 70
     0
102
RTVSPost2010Prop36
280
     0
102
RTVSPost2010PropOp36
 70
     0
102
RTVSPost2010Prop37
 90
       50
102
RTVSPost2010PropOp37
 70
     0
102
RTVSPost2010Prop38
140
0.0
102
RTVSPost2010PropOp38
 70
     0
102
RTVSPost2010Prop39
140
1.0
102
RTVSPost2010PropOp39
 70
     0
102
RTVSPost2010Prop40
 90
        0
102
RTVSPost2010PropOp40
 70
     0
102
RTVSPost2010Prop41ColorIndex
 90
       18
102
RTVSPost2010Prop41ColorRGB
 90
        0
102
RTVSPost2010PropOp41
 70
     0
102
RTVSPost2010Prop42
 90
       50
102
RTVSPost2010PropOp42
 70
     0
102
RTVSPost2010Prop43
 90
        3
102
RTVSPost2010PropOp43
 70
     0
102
RTVSPost2010Prop44ColorIndex
 90
        5
102
RTVSPost2010Prop44ColorRGB
 90
      255
102
RTVSPost2010PropOp44
 70
     0
102
RTVSPost2010Prop45
280
     0
102
RTVSPost2010PropOp45
 70
     0
102
RTVSPost2010Prop46
 90
       50
102
RTVSPost2010PropOp46
 70
     0
102
RTVSPost2010Prop47
 90
       50
102
RTVSPost2010PropOp47
 70
     0
102
RTVSPost2010Prop48
 90
       50
102
RTVSPost2010PropOp48
 70
     0
102
RTVSPost2010Prop49
280
     0
102
RTVSPost2010PropOp49
 70
     0
102
RTVSPost2010Prop50
 90
       50
102
RTVSPost2010PropOp50
 70
     0
102
RTVSPost2010Prop51ColorIndex
 90
      256
102
RTVSPost2010Prop51ColorRGB
 90
-16777216
102
RTVSPost2010PropOp51
 70
     0
102
RTVSPost2010Prop52
140
1.0
102
RTVSPost2010PropOp52
 70
     0
102
RTVSPost2010Prop53
 90
        2
102
RTVSPost2010PropOp53
 70
     0
102
RTVSPost2010Prop54
  1
strokes_ogs.tif
102
RTVSPost2010PropOp54
 70
     0
102
RTVSPost2010Prop55
280
     0
102
RTVSPost2010PropOp55
 70
     0
102
RTVSPost2010Prop56
140
1.0
102
RTVSPost2010PropOp56
 70
     0
102
RTVSPost2010Prop57
140
1.0
102
RTVSPost2010PropOp57
 70
     0
  0
XRECORD
  5
351
102
{ACAD_REACTORS
330
350
102
}
330
350
100
AcDbXrecord
280
     1
102
RTVSPropertyOp0
 70
     1
102
RTVSPropertyOp1
 70
     1
102
RTVSPropertyOp2
 70
     1
102
RTVSPropertyOp3
 70
     1
102
RTVSPropertyOp4
 70
     1
102
RTVSPropertyOp5
 70
     1
102
RTVSPropertyOp6
 70
     1
102
RTVSPropertyOp7
 70
     1
102
RTVSPropertyOp8
 70
     1
102
RTVSPropertyOp9
 70
     1
102
RTVSPropertyOp10
 70
     1
102
RTVSPropertyOp11
 70
     1
102
RTVSPropertyOp12
 70
     1
102
RTVSPropertyOp13
 70
     1
102
RTVSPropertyOp14
 70
     1
102
RTVSPropertyOp15
 70
     1
102
RTVSPropertyOp16
 70
     1
102
RTVSPropertyOp17
 70
     1
102
RTVSPropertyOp18
 70
     1
102
RTVSPropertyOp19
 70
     1
102
RTVSPropertyOp20
 70
     1
102
RTVSPropertyOp21
 70
     1
102
RTVSPropertyOp22
 70
     1
102
RTVSPropertyOp23
 70
     1
102
RTVSPropertyOp24
 70
     1
102
RTVSPropertyOp25
 70
     1
102
RTVSPropertyOp26
 70
     1
102
RTVSPropertyOp27
 70
     1
102
RTVSPropertyOp28
 70
     1
102
RTVSPropertyOp29
 70
     1
102
RTVSPropertyOp30
 70
     1
102
RTVSPropertyOp31
 70
     1
102
RTVSPropertyOp32
 70
     1
102
RTVSPropertyOp33
 70
     1
102
RTVSPropertyOp34
 70
     1
102
RTVSPropertyOp35
 70
     1
102
RTVSPropertyOp36
 70
     1
102
RTVSPropertyOp37
 70
     1
102
RTVSPropertyOp38
 70
     1
102
RTVSPropertyOp39
 70
     1
102
RTVSPropertyOp40
 70
     1
102
RTVSPropertyOp41
 70
     1
102
RTVSPropertyOp42
 70
     1
102
RTVSPropertyOp43
 70
     1
102
RTVSPropertyOp44
 70
     1
102
RTVSPropertyOp45
 70
     1
102
RTVSPropertyOp46
 70
     1
102
RTVSPropertyOp47
 70
     1
102
RTVSPropertyOp48
 70
     1
102
RTVSPropertyOp49
 70
     1
102
RTVSPropertyOp50
 70
     1
102
RTVSPropertyOp51
 70
     0
102
RTVSPropertyOp52
 70
     0
102
RTVSPropertyOp53
 70
     1
102
RTVSPropertyOp54
 70
     1
102
RTVSPropertyOp55
 70
     1
102
RTVSPropertyOp56
 70
     1
102
RTVSPropertyOp57
 70
     1
102
RTVSPost2010Prop28
280
     0
102
RTVSPost2010PropOp28
 70
     1
102
RTVSPost2010Prop29
280
     1
102
RTVSPost2010PropOp29
 70
     1
102
RTVSPost2010Prop30
280
     1
102
RTVSPost2010PropOp30
 70
     1
102
RTVSPost2010Prop31
280
     0
102
RTVSPost2010PropOp31
 70
     1
102
RTVSPost2010Prop32
280
     0
102
RTVSPost2010PropOp32
 70
     1
102
RTVSPost2010Prop33
280
     0
102
RTVSPost2010PropOp33
 70
     1
102
RTVSPost2010Prop34
280
     0
102
RTVSPost2010PropOp34
 70
     1
102
RTVSPost2010Prop35
280
     0
102
RTVSPost2010PropOp35
 70
     1
102
RTVSPost2010Prop36
280
     0
102
RTVSPost2010PropOp36
 70
     1
102
RTVSPost2010Prop37
 90
       50
102
RTVSPost2010PropOp37
 70
     1
102
RTVSPost2010Prop38
140
0.0
102
RTVSPost2010PropOp38
 70
     1
102
RTVSPost2010Prop39
140
1.0
102
RTVSPost2010PropOp39
 70
     1
102
RTVSPost2010Prop40
 90
        0
102
RTVSPost2010PropOp40
 70
     1
102
RTVSPost2010Prop41ColorIndex
 90
       18
102
RTVSPost2010Prop41ColorRGB
 90
        0
102
RTVSPost2010PropOp41
 70
     1
102
RTVSPost2010Prop42
 90
       50
102
RTVSPost2010PropOp42
 70
     1
102
RTVSPost2010Prop43
 90
        3
102
RTVSPost2010PropOp43
 70
     1
102
RTVSPost2010Prop44ColorIndex
 90
        5
102
RTVSPost2010Prop44ColorRGB
 90
      255
102
RTVSPost2010PropOp44
 70
     1
102
RTVSPost2010Prop45
280
     0
102
RTVSPost2010PropOp45
 70
     1
102
RTVSPost2010Prop46
 90
       50
102
RTVSPost2010PropOp46
 70
     1
102
RTVSPost2010Prop47
 90
       50
102
RTVSPost2010PropOp47
 70
     1
102
RTVSPost2010Prop48
 90
       50
102
RTVSPost2010PropOp48
 70
     1
102
RTVSPost2010Prop49
280
     0
102
RTVSPost2010PropOp49
 70
     1
102
RTVSPost2010Prop50
 90
       50
102
RTVSPost2010PropOp50
 70
     1
102
RTVSPost2010Prop51ColorIndex
 90
      256
102
RTVSPost2010Prop51ColorRGB
 90
-16777216
102
RTVSPost2010PropOp51
 70
     0
102
RTVSPost2010Prop52
140
1.0
102
RTVSPost2010PropOp52
 70
     0
102
RTVSPost2010Prop53
 90
        2
102
RTVSPost2010PropOp53
 70
     1
102
RTVSPost2010Prop54
  1
strokes_ogs.tif
102
RTVSPost2010PropOp54
 70
     1
102
RTVSPost2010Prop55
280
     0
102
RTVSPost2010PropOp55
 70
     1
102
RTVSPost2010Prop56
140
1.0
102
RTVSPost2010PropOp56
 70
     1
102
RTVSPost2010Prop57
140
1.0
102
RTVSPost2010PropOp57
 70
     1
  0
XRECORD
  5
36F
102
{ACAD_REACTORS
330
36E
102
}
330
36E
100
AcDbXrecord
280
     1
102
RTVSPropertyOp0
 70
     1
102
RTVSPropertyOp1
 70
     1
102
RTVSPropertyOp2
 70
     1
102
RTVSPropertyOp3
 70
     1
102
RTVSPropertyOp4
 70
     1
102
RTVSPropertyOp5
 70
     1
102
RTVSPropertyOp6
 70
     1
102
RTVSPropertyOp7
 70
     1
102
RTVSPropertyOp8
 70
     1
102
RTVSPropertyOp9
 70
     1
102
RTVSPropertyOp10
 70
     1
102
RTVSPropertyOp11
 70
     1
102
RTVSPropertyOp12
 70
     1
102
RTVSPropertyOp13
 70
     1
102
RTVSPropertyOp14
 70
     1
102
RTVSPropertyOp15
 70
     1
102
RTVSPropertyOp16
 70
     1
102
RTVSPropertyOp17
 70
     1
102
RTVSPropertyOp18
 70
     1
102
RTVSPropertyOp19
 70
     1
102
RTVSPropertyOp20
 70
     1
102
RTVSPropertyOp21
 70
     1
102
RTVSPropertyOp22
 70
     1
102
RTVSPropertyOp23
 70
     1
102
RTVSPropertyOp24
 70
     1
102
RTVSPropertyOp25
 70
     1
102
RTVSPropertyOp26
 70
     1
102
RTVSPropertyOp27
 70
     1
102
RTVSPropertyOp28
 70
     1
102
RTVSPropertyOp29
 70
     1
102
RTVSPropertyOp30
 70
     1
102
RTVSPropertyOp31
 70
     1
102
RTVSPropertyOp32
 70
     1
102
RTVSPropertyOp33
 70
     1
102
RTVSPropertyOp34
 70
     1
102
RTVSPropertyOp35
 70
     1
102
RTVSPropertyOp36
 70
     1
102
RTVSPropertyOp37
 70
     1
102
RTVSPropertyOp38
 70
     1
102
RTVSPropertyOp39
 70
     1
102
RTVSPropertyOp40
 70
     1
102
RTVSPropertyOp41
 70
     1
102
RTVSPropertyOp42
 70
     1
102
RTVSPropertyOp43
 70
     1
102
RTVSPropertyOp44
 70
     1
102
RTVSPropertyOp45
 70
     1
102
RTVSPropertyOp46
 70
     1
102
RTVSPropertyOp47
 70
     1
102
RTVSPropertyOp48
 70
     1
102
RTVSPropertyOp49
 70
     1
102
RTVSPropertyOp50
 70
     1
102
RTVSPropertyOp51
 70
     0
102
RTVSPropertyOp52
 70
     0
102
RTVSPropertyOp53
 70
     1
102
RTVSPropertyOp54
 70
     1
102
RTVSPropertyOp55
 70
     1
102
RTVSPropertyOp56
 70
     1
102
RTVSPropertyOp57
 70
     1
102
RTVSPost2010Prop28
280
     0
102
RTVSPost2010PropOp28
 70
     1
102
RTVSPost2010Prop29
280
     1
102
RTVSPost2010PropOp29
 70
     1
102
RTVSPost2010Prop30
280
     1
102
RTVSPost2010PropOp30
 70
     1
102
RTVSPost2010Prop31
280
     0
102
RTVSPost2010PropOp31
 70
     1
102
RTVSPost2010Prop32
280
     0
102
RTVSPost2010PropOp32
 70
     1
102
RTVSPost2010Prop33
280
     0
102
RTVSPost2010PropOp33
 70
     1
102
RTVSPost2010Prop34
280
     0
102
RTVSPost2010PropOp34
 70
     1
102
RTVSPost2010Prop35
280
     0
102
RTVSPost2010PropOp35
 70
     1
102
RTVSPost2010Prop36
280
     0
102
RTVSPost2010PropOp36
 70
     1
102
RTVSPost2010Prop37
 90
       50
102
RTVSPost2010PropOp37
 70
     1
102
RTVSPost2010Prop38
140
0.0
102
RTVSPost2010PropOp38
 70
     1
102
RTVSPost2010Prop39
140
1.0
102
RTVSPost2010PropOp39
 70
     1
102
RTVSPost2010Prop40
 90
        0
102
RTVSPost2010PropOp40
 70
     1
102
RTVSPost2010Prop41ColorIndex
 90
       18
102
RTVSPost2010Prop41ColorRGB
 90
        0
102
RTVSPost2010PropOp41
 70
     1
102
RTVSPost2010Prop42
 90
       50
102
RTVSPost2010PropOp42
 70
     1
102
RTVSPost2010Prop43
 90
        3
102
RTVSPost2010PropOp43
 70
     1
102
RTVSPost2010Prop44ColorIndex
 90
        5
102
RTVSPost2010Prop44ColorRGB
 90
      255
102
RTVSPost2010PropOp44
 70
     1
102
RTVSPost2010Prop45
280
     0
102
RTVSPost2010PropOp45
 70
     1
102
RTVSPost2010Prop46
 90
       50
102
RTVSPost2010PropOp46
 70
     1
102
RTVSPost2010Prop47
 90
       50
102
RTVSPost2010PropOp47
 70
     1
102
RTVSPost2010Prop48
 90
       50
102
RTVSPost2010PropOp48
 70
     1
102
RTVSPost2010Prop49
280
     0
102
RTVSPost2010PropOp49
 70
     1
102
RTVSPost2010Prop50
 90
       50
102
RTVSPost2010PropOp50
 70
     1
102
RTVSPost2010Prop51ColorIndex
 90
      256
102
RTVSPost2010Prop51ColorRGB
 90
-16777216
102
RTVSPost2010PropOp51
 70
     0
102
RTVSPost2010Prop52
140
1.0
102
RTVSPost2010PropOp52
 70
     0
102
RTVSPost2010Prop53
 90
        2
102
RTVSPost2010PropOp53
 70
     1
102
RTVSPost2010Prop54
  1
strokes_ogs.tif
102
RTVSPost2010PropOp54
 70
     1
102
RTVSPost2010Prop55
280
     0
102
RTVSPost2010PropOp55
 70
     1
102
RTVSPost2010Prop56
140
1.0
102
RTVSPost2010PropOp56
 70
     1
102
RTVSPost2010Prop57
140
1.0
102
RTVSPost2010PropOp57
 70
     1
  0
XRECORD
  5
36D
102
{ACAD_REACTORS
330
36C
102
}
330
36C
100
AcDbXrecord
280
     1
102
RTVSPropertyOp0
 70
     1
102
RTVSPropertyOp1
 70
     1
102
RTVSPropertyOp2
 70
     1
102
RTVSPropertyOp3
 70
     1
102
RTVSPropertyOp4
 70
     1
102
RTVSPropertyOp5
 70
     1
102
RTVSPropertyOp6
 70
     1
102
RTVSPropertyOp7
 70
     1
102
RTVSPropertyOp8
 70
     1
102
RTVSPropertyOp9
 70
     1
102
RTVSPropertyOp10
 70
     1
102
RTVSPropertyOp11
 70
     1
102
RTVSPropertyOp12
 70
     1
102
RTVSPropertyOp13
 70
     1
102
RTVSPropertyOp14
 70
     1
102
RTVSPropertyOp15
 70
     1
102
RTVSPropertyOp16
 70
     1
102
RTVSPropertyOp17
 70
     1
102
RTVSPropertyOp18
 70
     1
102
RTVSPropertyOp19
 70
     1
102
RTVSPropertyOp20
 70
     1
102
RTVSPropertyOp21
 70
     1
102
RTVSPropertyOp22
 70
     1
102
RTVSPropertyOp23
 70
     1
102
RTVSPropertyOp24
 70
     1
102
RTVSPropertyOp25
 70
     1
102
RTVSPropertyOp26
 70
     1
102
RTVSPropertyOp27
 70
     1
102
RTVSPropertyOp28
 70
     1
102
RTVSPropertyOp29
 70
     1
102
RTVSPropertyOp30
 70
     1
102
RTVSPropertyOp31
 70
     1
102
RTVSPropertyOp32
 70
     1
102
RTVSPropertyOp33
 70
     1
102
RTVSPropertyOp34
 70
     1
102
RTVSPropertyOp35
 70
     1
102
RTVSPropertyOp36
 70
     1
102
RTVSPropertyOp37
 70
     1
102
RTVSPropertyOp38
 70
     1
102
RTVSPropertyOp39
 70
     1
102
RTVSPropertyOp40
 70
     1
102
RTVSPropertyOp41
 70
     1
102
RTVSPropertyOp42
 70
     1
102
RTVSPropertyOp43
 70
     1
102
RTVSPropertyOp44
 70
     1
102
RTVSPropertyOp45
 70
     1
102
RTVSPropertyOp46
 70
     1
102
RTVSPropertyOp47
 70
     1
102
RTVSPropertyOp48
 70
     1
102
RTVSPropertyOp49
 70
     1
102
RTVSPropertyOp50
 70
     1
102
RTVSPropertyOp51
 70
     0
102
RTVSPropertyOp52
 70
     0
102
RTVSPropertyOp53
 70
     1
102
RTVSPropertyOp54
 70
     1
102
RTVSPropertyOp55
 70
     1
102
RTVSPropertyOp56
 70
     1
102
RTVSPropertyOp57
 70
     1
102
RTVSPost2010Prop28
280
     0
102
RTVSPost2010PropOp28
 70
     1
102
RTVSPost2010Prop29
280
     1
102
RTVSPost2010PropOp29
 70
     1
102
RTVSPost2010Prop30
280
     1
102
RTVSPost2010PropOp30
 70
     1
102
RTVSPost2010Prop31
280
     0
102
RTVSPost2010PropOp31
 70
     1
102
RTVSPost2010Prop32
280
     0
102
RTVSPost2010PropOp32
 70
     1
102
RTVSPost2010Prop33
280
     0
102
RTVSPost2010PropOp33
 70
     1
102
RTVSPost2010Prop34
280
     0
102
RTVSPost2010PropOp34
 70
     1
102
RTVSPost2010Prop35
280
     0
102
RTVSPost2010PropOp35
 70
     1
102
RTVSPost2010Prop36
280
     0
102
RTVSPost2010PropOp36
 70
     1
102
RTVSPost2010Prop37
 90
       50
102
RTVSPost2010PropOp37
 70
     1
102
RTVSPost2010Prop38
140
0.0
102
RTVSPost2010PropOp38
 70
     1
102
RTVSPost2010Prop39
140
1.0
102
RTVSPost2010PropOp39
 70
     1
102
RTVSPost2010Prop40
 90
        0
102
RTVSPost2010PropOp40
 70
     1
102
RTVSPost2010Prop41ColorIndex
 90
       18
102
RTVSPost2010Prop41ColorRGB
 90
        0
102
RTVSPost2010PropOp41
 70
     1
102
RTVSPost2010Prop42
 90
       50
102
RTVSPost2010PropOp42
 70
     1
102
RTVSPost2010Prop43
 90
        3
102
RTVSPost2010PropOp43
 70
     1
102
RTVSPost2010Prop44ColorIndex
 90
        5
102
RTVSPost2010Prop44ColorRGB
 90
      255
102
RTVSPost2010PropOp44
 70
     1
102
RTVSPost2010Prop45
280
     0
102
RTVSPost2010PropOp45
 70
     1
102
RTVSPost2010Prop46
 90
       50
102
RTVSPost2010PropOp46
 70
     1
102
RTVSPost2010Prop47
 90
       50
102
RTVSPost2010PropOp47
 70
     1
102
RTVSPost2010Prop48
 90
       50
102
RTVSPost2010PropOp48
 70
     1
102
RTVSPost2010Prop49
280
     0
102
RTVSPost2010PropOp49
 70
     1
102
RTVSPost2010Prop50
 90
       50
102
RTVSPost2010PropOp50
 70
     1
102
RTVSPost2010Prop51ColorIndex
 90
      256
102
RTVSPost2010Prop51ColorRGB
 90
-16777216
102
RTVSPost2010PropOp51
 70
     0
102
RTVSPost2010Prop52
140
1.0
102
RTVSPost2010PropOp52
 70
     0
102
RTVSPost2010Prop53
 90
        2
102
RTVSPost2010PropOp53
 70
     1
102
RTVSPost2010Prop54
  1
strokes_ogs.tif
102
RTVSPost2010PropOp54
 70
     1
102
RTVSPost2010Prop55
280
     0
102
RTVSPost2010PropOp55
 70
     1
102
RTVSPost2010Prop56
140
1.0
102
RTVSPost2010PropOp56
 70
     1
102
RTVSPost2010Prop57
140
1.0
102
RTVSPost2010PropOp57
 70
     1
  0
XRECORD
  5
367
102
{ACAD_REACTORS
330
366
102
}
330
366
100
AcDbXrecord
280
     1
102
RTVSPropertyOp0
 70
     1
102
RTVSPropertyOp1
 70
     1
102
RTVSPropertyOp2
 70
     1
102
RTVSPropertyOp3
 70
     1
102
RTVSPropertyOp4
 70
     1
102
RTVSPropertyOp5
 70
     1
102
RTVSPropertyOp6
 70
     1
102
RTVSPropertyOp7
 70
     1
102
RTVSPropertyOp8
 70
     1
102
RTVSPropertyOp9
 70
     1
102
RTVSPropertyOp10
 70
     1
102
RTVSPropertyOp11
 70
     1
102
RTVSPropertyOp12
 70
     1
102
RTVSPropertyOp13
 70
     1
102
RTVSPropertyOp14
 70
     1
102
RTVSPropertyOp15
 70
     1
102
RTVSPropertyOp16
 70
     1
102
RTVSPropertyOp17
 70
     1
102
RTVSPropertyOp18
 70
     1
102
RTVSPropertyOp19
 70
     1
102
RTVSPropertyOp20
 70
     1
102
RTVSPropertyOp21
 70
     1
102
RTVSPropertyOp22
 70
     1
102
RTVSPropertyOp23
 70
     1
102
RTVSPropertyOp24
 70
     1
102
RTVSPropertyOp25
 70
     1
102
RTVSPropertyOp26
 70
     1
102
RTVSPropertyOp27
 70
     1
102
RTVSPropertyOp28
 70
     1
102
RTVSPropertyOp29
 70
     1
102
RTVSPropertyOp30
 70
     1
102
RTVSPropertyOp31
 70
     1
102
RTVSPropertyOp32
 70
     1
102
RTVSPropertyOp33
 70
     1
102
RTVSPropertyOp34
 70
     1
102
RTVSPropertyOp35
 70
     1
102
RTVSPropertyOp36
 70
     1
102
RTVSPropertyOp37
 70
     1
102
RTVSPropertyOp38
 70
     1
102
RTVSPropertyOp39
 70
     1
102
RTVSPropertyOp40
 70
     1
102
RTVSPropertyOp41
 70
     1
102
RTVSPropertyOp42
 70
     1
102
RTVSPropertyOp43
 70
     1
102
RTVSPropertyOp44
 70
     1
102
RTVSPropertyOp45
 70
     1
102
RTVSPropertyOp46
 70
     1
102
RTVSPropertyOp47
 70
     1
102
RTVSPropertyOp48
 70
     1
102
RTVSPropertyOp49
 70
     1
102
RTVSPropertyOp50
 70
     1
102
RTVSPropertyOp51
 70
     0
102
RTVSPropertyOp52
 70
     0
102
RTVSPropertyOp53
 70
     1
102
RTVSPropertyOp54
 70
     1
102
RTVSPropertyOp55
 70
     1
102
RTVSPropertyOp56
 70
     1
102
RTVSPropertyOp57
 70
     1
102
RTVSPost2010Prop28
280
     0
102
RTVSPost2010PropOp28
 70
     1
102
RTVSPost2010Prop29
280
     1
102
RTVSPost2010PropOp29
 70
     1
102
RTVSPost2010Prop30
280
     1
102
RTVSPost2010PropOp30
 70
     1
102
RTVSPost2010Prop31
280
     0
102
RTVSPost2010PropOp31
 70
     1
102
RTVSPost2010Prop32
280
     0
102
RTVSPost2010PropOp32
 70
     1
102
RTVSPost2010Prop33
280
     0
102
RTVSPost2010PropOp33
 70
     1
102
RTVSPost2010Prop34
280
     0
102
RTVSPost2010PropOp34
 70
     1
102
RTVSPost2010Prop35
280
     0
102
RTVSPost2010PropOp35
 70
     1
102
RTVSPost2010Prop36
280
     0
102
RTVSPost2010PropOp36
 70
     1
102
RTVSPost2010Prop37
 90
       50
102
RTVSPost2010PropOp37
 70
     1
102
RTVSPost2010Prop38
140
0.0
102
RTVSPost2010PropOp38
 70
     1
102
RTVSPost2010Prop39
140
1.0
102
RTVSPost2010PropOp39
 70
     1
102
RTVSPost2010Prop40
 90
        0
102
RTVSPost2010PropOp40
 70
     1
102
RTVSPost2010Prop41ColorIndex
 90
       18
102
RTVSPost2010Prop41ColorRGB
 90
        0
102
RTVSPost2010PropOp41
 70
     1
102
RTVSPost2010Prop42
 90
       50
102
RTVSPost2010PropOp42
 70
     1
102
RTVSPost2010Prop43
 90
        3
102
RTVSPost2010PropOp43
 70
     1
102
RTVSPost2010Prop44ColorIndex
 90
        5
102
RTVSPost2010Prop44ColorRGB
 90
      255
102
RTVSPost2010PropOp44
 70
     1
102
RTVSPost2010Prop45
280
     0
102
RTVSPost2010PropOp45
 70
     1
102
RTVSPost2010Prop46
 90
       50
102
RTVSPost2010PropOp46
 70
     1
102
RTVSPost2010Prop47
 90
       50
102
RTVSPost2010PropOp47
 70
     1
102
RTVSPost2010Prop48
 90
       50
102
RTVSPost2010PropOp48
 70
     1
102
RTVSPost2010Prop49
280
     0
102
RTVSPost2010PropOp49
 70
     1
102
RTVSPost2010Prop50
 90
       50
102
RTVSPost2010PropOp50
 70
     1
102
RTVSPost2010Prop51ColorIndex
 90
      256
102
RTVSPost2010Prop51ColorRGB
 90
-16777216
102
RTVSPost2010PropOp51
 70
     0
102
RTVSPost2010Prop52
140
1.0
102
RTVSPost2010PropOp52
 70
     0
102
RTVSPost2010Prop53
 90
        2
102
RTVSPost2010PropOp53
 70
     1
102
RTVSPost2010Prop54
  1
strokes_ogs.tif
102
RTVSPost2010PropOp54
 70
     1
102
RTVSPost2010Prop55
280
     0
102
RTVSPost2010PropOp55
 70
     1
102
RTVSPost2010Prop56
140
1.0
102
RTVSPost2010PropOp56
 70
     1
102
RTVSPost2010Prop57
140
1.0
102
RTVSPost2010PropOp57
 70
     1
  0
XRECORD
  5
369
102
{ACAD_REACTORS
330
368
102
}
330
368
100
AcDbXrecord
280
     1
102
RTVSPropertyOp0
 70
     1
102
RTVSPropertyOp1
 70
     1
102
RTVSPropertyOp2
 70
     1
102
RTVSPropertyOp3
 70
     1
102
RTVSPropertyOp4
 70
     1
102
RTVSPropertyOp5
 70
     1
102
RTVSPropertyOp6
 70
     1
102
RTVSPropertyOp7
 70
     1
102
RTVSPropertyOp8
 70
     1
102
RTVSPropertyOp9
 70
     1
102
RTVSPropertyOp10
 70
     1
102
RTVSPropertyOp11
 70
     1
102
RTVSPropertyOp12
 70
     1
102
RTVSPropertyOp13
 70
     1
102
RTVSPropertyOp14
 70
     1
102
RTVSPropertyOp15
 70
     1
102
RTVSPropertyOp16
 70
     1
102
RTVSPropertyOp17
 70
     1
102
RTVSPropertyOp18
 70
     1
102
RTVSPropertyOp19
 70
     1
102
RTVSPropertyOp20
 70
     1
102
RTVSPropertyOp21
 70
     1
102
RTVSPropertyOp22
 70
     1
102
RTVSPropertyOp23
 70
     1
102
RTVSPropertyOp24
 70
     1
102
RTVSPropertyOp25
 70
     1
102
RTVSPropertyOp26
 70
     1
102
RTVSPropertyOp27
 70
     1
102
RTVSPropertyOp28
 70
     1
102
RTVSPropertyOp29
 70
     1
102
RTVSPropertyOp30
 70
     1
102
RTVSPropertyOp31
 70
     1
102
RTVSPropertyOp32
 70
     1
102
RTVSPropertyOp33
 70
     1
102
RTVSPropertyOp34
 70
     1
102
RTVSPropertyOp35
 70
     1
102
RTVSPropertyOp36
 70
     1
102
RTVSPropertyOp37
 70
     1
102
RTVSPropertyOp38
 70
     1
102
RTVSPropertyOp39
 70
     1
102
RTVSPropertyOp40
 70
     1
102
RTVSPropertyOp41
 70
     1
102
RTVSPropertyOp42
 70
     1
102
RTVSPropertyOp43
 70
     1
102
RTVSPropertyOp44
 70
     1
102
RTVSPropertyOp45
 70
     1
102
RTVSPropertyOp46
 70
     1
102
RTVSPropertyOp47
 70
     1
102
RTVSPropertyOp48
 70
     1
102
RTVSPropertyOp49
 70
     1
102
RTVSPropertyOp50
 70
     1
102
RTVSPropertyOp51
 70
     0
102
RTVSPropertyOp52
 70
     0
102
RTVSPropertyOp53
 70
     1
102
RTVSPropertyOp54
 70
     1
102
RTVSPropertyOp55
 70
     1
102
RTVSPropertyOp56
 70
     1
102
RTVSPropertyOp57
 70
     1
102
RTVSPost2010Prop28
280
     0
102
RTVSPost2010PropOp28
 70
     1
102
RTVSPost2010Prop29
280
     1
102
RTVSPost2010PropOp29
 70
     1
102
RTVSPost2010Prop30
280
     1
102
RTVSPost2010PropOp30
 70
     1
102
RTVSPost2010Prop31
280
     0
102
RTVSPost2010PropOp31
 70
     1
102
RTVSPost2010Prop32
280
     0
102
RTVSPost2010PropOp32
 70
     1
102
RTVSPost2010Prop33
280
     0
102
RTVSPost2010PropOp33
 70
     1
102
RTVSPost2010Prop34
280
     0
102
RTVSPost2010PropOp34
 70
     1
102
RTVSPost2010Prop35
280
     0
102
RTVSPost2010PropOp35
 70
     1
102
RTVSPost2010Prop36
280
     0
102
RTVSPost2010PropOp36
 70
     1
102
RTVSPost2010Prop37
 90
       50
102
RTVSPost2010PropOp37
 70
     1
102
RTVSPost2010Prop38
140
0.0
102
RTVSPost2010PropOp38
 70
     1
102
RTVSPost2010Prop39
140
1.0
102
RTVSPost2010PropOp39
 70
     1
102
RTVSPost2010Prop40
 90
        0
102
RTVSPost2010PropOp40
 70
     1
102
RTVSPost2010Prop41ColorIndex
 90
       18
102
RTVSPost2010Prop41ColorRGB
 90
        0
102
RTVSPost2010PropOp41
 70
     1
102
RTVSPost2010Prop42
 90
       50
102
RTVSPost2010PropOp42
 70
     1
102
RTVSPost2010Prop43
 90
        3
102
RTVSPost2010PropOp43
 70
     1
102
RTVSPost2010Prop44ColorIndex
 90
        5
102
RTVSPost2010Prop44ColorRGB
 90
      255
102
RTVSPost2010PropOp44
 70
     1
102
RTVSPost2010Prop45
280
     0
102
RTVSPost2010PropOp45
 70
     1
102
RTVSPost2010Prop46
 90
       50
102
RTVSPost2010PropOp46
 70
     1
102
RTVSPost2010Prop47
 90
       50
102
RTVSPost2010PropOp47
 70
     1
102
RTVSPost2010Prop48
 90
       50
102
RTVSPost2010PropOp48
 70
     1
102
RTVSPost2010Prop49
280
     0
102
RTVSPost2010PropOp49
 70
     1
102
RTVSPost2010Prop50
 90
       50
102
RTVSPost2010PropOp50
 70
     1
102
RTVSPost2010Prop51ColorIndex
 90
      256
102
RTVSPost2010Prop51ColorRGB
 90
-16777216
102
RTVSPost2010PropOp51
 70
     0
102
RTVSPost2010Prop52
140
1.0
102
RTVSPost2010PropOp52
 70
     0
102
RTVSPost2010Prop53
 90
        2
102
RTVSPost2010PropOp53
 70
     1
102
RTVSPost2010Prop54
  1
strokes_ogs.tif
102
RTVSPost2010PropOp54
 70
     1
102
RTVSPost2010Prop55
280
     0
102
RTVSPost2010PropOp55
 70
     1
102
RTVSPost2010Prop56
140
1.0
102
RTVSPost2010PropOp56
 70
     1
102
RTVSPost2010Prop57
140
1.0
102
RTVSPost2010PropOp57
 70
     1
  0
XRECORD
  5
359
102
{ACAD_REACTORS
330
358
102
}
330
358
100
AcDbXrecord
280
     1
102
RTVSPropertyOp0
 70
     1
102
RTVSPropertyOp1
 70
     1
102
RTVSPropertyOp2
 70
     1
102
RTVSPropertyOp3
 70
     1
102
RTVSPropertyOp4
 70
     1
102
RTVSPropertyOp5
 70
     1
102
RTVSPropertyOp6
 70
     1
102
RTVSPropertyOp7
 70
     1
102
RTVSPropertyOp8
 70
     1
102
RTVSPropertyOp9
 70
     1
102
RTVSPropertyOp10
 70
     1
102
RTVSPropertyOp11
 70
     1
102
RTVSPropertyOp12
 70
     1
102
RTVSPropertyOp13
 70
     1
102
RTVSPropertyOp14
 70
     1
102
RTVSPropertyOp15
 70
     1
102
RTVSPropertyOp16
 70
     1
102
RTVSPropertyOp17
 70
     1
102
RTVSPropertyOp18
 70
     1
102
RTVSPropertyOp19
 70
     1
102
RTVSPropertyOp20
 70
     1
102
RTVSPropertyOp21
 70
     1
102
RTVSPropertyOp22
 70
     1
102
RTVSPropertyOp23
 70
     1
102
RTVSPropertyOp24
 70
     1
102
RTVSPropertyOp25
 70
     1
102
RTVSPropertyOp26
 70
     1
102
RTVSPropertyOp27
 70
     1
102
RTVSPropertyOp28
 70
     1
102
RTVSPropertyOp29
 70
     1
102
RTVSPropertyOp30
 70
     1
102
RTVSPropertyOp31
 70
     1
102
RTVSPropertyOp32
 70
     1
102
RTVSPropertyOp33
 70
     1
102
RTVSPropertyOp34
 70
     1
102
RTVSPropertyOp35
 70
     1
102
RTVSPropertyOp36
 70
     1
102
RTVSPropertyOp37
 70
     1
102
RTVSPropertyOp38
 70
     1
102
RTVSPropertyOp39
 70
     1
102
RTVSPropertyOp40
 70
     1
102
RTVSPropertyOp41
 70
     1
102
RTVSPropertyOp42
 70
     1
102
RTVSPropertyOp43
 70
     1
102
RTVSPropertyOp44
 70
     1
102
RTVSPropertyOp45
 70
     1
102
RTVSPropertyOp46
 70
     1
102
RTVSPropertyOp47
 70
     1
102
RTVSPropertyOp48
 70
     1
102
RTVSPropertyOp49
 70
     1
102
RTVSPropertyOp50
 70
     1
102
RTVSPropertyOp51
 70
     0
102
RTVSPropertyOp52
 70
     0
102
RTVSPropertyOp53
 70
     1
102
RTVSPropertyOp54
 70
     1
102
RTVSPropertyOp55
 70
     1
102
RTVSPropertyOp56
 70
     1
102
RTVSPropertyOp57
 70
     1
102
RTVSPost2010Prop28
280
     0
102
RTVSPost2010PropOp28
 70
     1
102
RTVSPost2010Prop29
280
     1
102
RTVSPost2010PropOp29
 70
     1
102
RTVSPost2010Prop30
280
     1
102
RTVSPost2010PropOp30
 70
     1
102
RTVSPost2010Prop31
280
     0
102
RTVSPost2010PropOp31
 70
     1
102
RTVSPost2010Prop32
280
     0
102
RTVSPost2010PropOp32
 70
     1
102
RTVSPost2010Prop33
280
     0
102
RTVSPost2010PropOp33
 70
     1
102
RTVSPost2010Prop34
280
     0
102
RTVSPost2010PropOp34
 70
     1
102
RTVSPost2010Prop35
280
     0
102
RTVSPost2010PropOp35
 70
     1
102
RTVSPost2010Prop36
280
     0
102
RTVSPost2010PropOp36
 70
     1
102
RTVSPost2010Prop37
 90
       50
102
RTVSPost2010PropOp37
 70
     1
102
RTVSPost2010Prop38
140
0.0
102
RTVSPost2010PropOp38
 70
     1
102
RTVSPost2010Prop39
140
1.0
102
RTVSPost2010PropOp39
 70
     1
102
RTVSPost2010Prop40
 90
        0
102
RTVSPost2010PropOp40
 70
     1
102
RTVSPost2010Prop41ColorIndex
 90
       18
102
RTVSPost2010Prop41ColorRGB
 90
        0
102
RTVSPost2010PropOp41
 70
     1
102
RTVSPost2010Prop42
 90
       50
102
RTVSPost2010PropOp42
 70
     1
102
RTVSPost2010Prop43
 90
        3
102
RTVSPost2010PropOp43
 70
     1
102
RTVSPost2010Prop44ColorIndex
 90
        5
102
RTVSPost2010Prop44ColorRGB
 90
      255
102
RTVSPost2010PropOp44
 70
     1
102
RTVSPost2010Prop45
280
     0
102
RTVSPost2010PropOp45
 70
     1
102
RTVSPost2010Prop46
 90
       50
102
RTVSPost2010PropOp46
 70
     1
102
RTVSPost2010Prop47
 90
       50
102
RTVSPost2010PropOp47
 70
     1
102
RTVSPost2010Prop48
 90
       50
102
RTVSPost2010PropOp48
 70
     1
102
RTVSPost2010Prop49
280
     0
102
RTVSPost2010PropOp49
 70
     1
102
RTVSPost2010Prop50
 90
       50
102
RTVSPost2010PropOp50
 70
     1
102
RTVSPost2010Prop51ColorIndex
 90
      256
102
RTVSPost2010Prop51ColorRGB
 90
-16777216
102
RTVSPost2010PropOp51
 70
     0
102
RTVSPost2010Prop52
140
1.0
102
RTVSPost2010PropOp52
 70
     0
102
RTVSPost2010Prop53
 90
        2
102
RTVSPost2010PropOp53
 70
     1
102
RTVSPost2010Prop54
  1
strokes_ogs.tif
102
RTVSPost2010PropOp54
 70
     1
102
RTVSPost2010Prop55
280
     0
102
RTVSPost2010PropOp55
 70
     1
102
RTVSPost2010Prop56
140
1.0
102
RTVSPost2010PropOp56
 70
     1
102
RTVSPost2010Prop57
140
1.0
102
RTVSPost2010PropOp57
 70
     1
  0
XRECORD
  5
34B
102
{ACAD_REACTORS
330
34A
102
}
330
34A
100
AcDbXrecord
280
     1
102
RTVSPropertyOp0
 70
     1
102
RTVSPropertyOp1
 70
     1
102
RTVSPropertyOp2
 70
     1
102
RTVSPropertyOp3
 70
     1
102
RTVSPropertyOp4
 70
     1
102
RTVSPropertyOp5
 70
     1
102
RTVSPropertyOp6
 70
     1
102
RTVSPropertyOp7
 70
     1
102
RTVSPropertyOp8
 70
     1
102
RTVSPropertyOp9
 70
     1
102
RTVSPropertyOp10
 70
     1
102
RTVSPropertyOp11
 70
     1
102
RTVSPropertyOp12
 70
     1
102
RTVSPropertyOp13
 70
     1
102
RTVSPropertyOp14
 70
     1
102
RTVSPropertyOp15
 70
     1
102
RTVSPropertyOp16
 70
     1
102
RTVSPropertyOp17
 70
     1
102
RTVSPropertyOp18
 70
     1
102
RTVSPropertyOp19
 70
     1
102
RTVSPropertyOp20
 70
     1
102
RTVSPropertyOp21
 70
     1
102
RTVSPropertyOp22
 70
     1
102
RTVSPropertyOp23
 70
     1
102
RTVSPropertyOp24
 70
     1
102
RTVSPropertyOp25
 70
     1
102
RTVSPropertyOp26
 70
     1
102
RTVSPropertyOp27
 70
     1
102
RTVSPropertyOp28
 70
     1
102
RTVSPropertyOp29
 70
     1
102
RTVSPropertyOp30
 70
     1
102
RTVSPropertyOp31
 70
     1
102
RTVSPropertyOp32
 70
     1
102
RTVSPropertyOp33
 70
     1
102
RTVSPropertyOp34
 70
     1
102
RTVSPropertyOp35
 70
     1
102
RTVSPropertyOp36
 70
     1
102
RTVSPropertyOp37
 70
     1
102
RTVSPropertyOp38
 70
     1
102
RTVSPropertyOp39
 70
     1
102
RTVSPropertyOp40
 70
     1
102
RTVSPropertyOp41
 70
     1
102
RTVSPropertyOp42
 70
     1
102
RTVSPropertyOp43
 70
     1
102
RTVSPropertyOp44
 70
     1
102
RTVSPropertyOp45
 70
     1
102
RTVSPropertyOp46
 70
     1
102
RTVSPropertyOp47
 70
     1
102
RTVSPropertyOp48
 70
     1
102
RTVSPropertyOp49
 70
     1
102
RTVSPropertyOp50
 70
     1
102
RTVSPropertyOp51
 70
     0
102
RTVSPropertyOp52
 70
     0
102
RTVSPropertyOp53
 70
     1
102
RTVSPropertyOp54
 70
     1
102
RTVSPropertyOp55
 70
     1
102
RTVSPropertyOp56
 70
     1
102
RTVSPropertyOp57
 70
     1
102
RTVSPost2010Prop28
280
     0
102
RTVSPost2010PropOp28
 70
     1
102
RTVSPost2010Prop29
280
     1
102
RTVSPost2010PropOp29
 70
     1
102
RTVSPost2010Prop30
280
     1
102
RTVSPost2010PropOp30
 70
     1
102
RTVSPost2010Prop31
280
     0
102
RTVSPost2010PropOp31
 70
     1
102
RTVSPost2010Prop32
280
     0
102
RTVSPost2010PropOp32
 70
     1
102
RTVSPost2010Prop33
280
     0
102
RTVSPost2010PropOp33
 70
     1
102
RTVSPost2010Prop34
280
     0
102
RTVSPost2010PropOp34
 70
     1
102
RTVSPost2010Prop35
280
     0
102
RTVSPost2010PropOp35
 70
     1
102
RTVSPost2010Prop36
280
     0
102
RTVSPost2010PropOp36
 70
     1
102
RTVSPost2010Prop37
 90
       50
102
RTVSPost2010PropOp37
 70
     1
102
RTVSPost2010Prop38
140
0.0
102
RTVSPost2010PropOp38
 70
     1
102
RTVSPost2010Prop39
140
1.0
102
RTVSPost2010PropOp39
 70
     1
102
RTVSPost2010Prop40
 90
        0
102
RTVSPost2010PropOp40
 70
     1
102
RTVSPost2010Prop41ColorIndex
 90
       18
102
RTVSPost2010Prop41ColorRGB
 90
        0
102
RTVSPost2010PropOp41
 70
     1
102
RTVSPost2010Prop42
 90
       50
102
RTVSPost2010PropOp42
 70
     1
102
RTVSPost2010Prop43
 90
        3
102
RTVSPost2010PropOp43
 70
     1
102
RTVSPost2010Prop44ColorIndex
 90
        5
102
RTVSPost2010Prop44ColorRGB
 90
      255
102
RTVSPost2010PropOp44
 70
     1
102
RTVSPost2010Prop45
280
     0
102
RTVSPost2010PropOp45
 70
     1
102
RTVSPost2010Prop46
 90
       50
102
RTVSPost2010PropOp46
 70
     1
102
RTVSPost2010Prop47
 90
       50
102
RTVSPost2010PropOp47
 70
     1
102
RTVSPost2010Prop48
 90
       50
102
RTVSPost2010PropOp48
 70
     1
102
RTVSPost2010Prop49
280
     0
102
RTVSPost2010PropOp49
 70
     1
102
RTVSPost2010Prop50
 90
       50
102
RTVSPost2010PropOp50
 70
     1
102
RTVSPost2010Prop51ColorIndex
 90
      256
102
RTVSPost2010Prop51ColorRGB
 90
-16777216
102
RTVSPost2010PropOp51
 70
     0
102
RTVSPost2010Prop52
140
1.0
102
RTVSPost2010PropOp52
 70
     0
102
RTVSPost2010Prop53
 90
        2
102
RTVSPost2010PropOp53
 70
     1
102
RTVSPost2010Prop54
  1
strokes_ogs.tif
102
RTVSPost2010PropOp54
 70
     1
102
RTVSPost2010Prop55
280
     0
102
RTVSPost2010PropOp55
 70
     1
102
RTVSPost2010Prop56
140
1.0
102
RTVSPost2010PropOp56
 70
     1
102
RTVSPost2010Prop57
140
1.0
102
RTVSPost2010PropOp57
 70
     1
  0
XRECORD
  5
36B
102
{ACAD_REACTORS
330
36A
102
}
330
36A
100
AcDbXrecord
280
     1
102
RTVSPropertyOp0
 70
     1
102
RTVSPropertyOp1
 70
     1
102
RTVSPropertyOp2
 70
     1
102
RTVSPropertyOp3
 70
     1
102
RTVSPropertyOp4
 70
     1
102
RTVSPropertyOp5
 70
     1
102
RTVSPropertyOp6
 70
     1
102
RTVSPropertyOp7
 70
     1
102
RTVSPropertyOp8
 70
     1
102
RTVSPropertyOp9
 70
     1
102
RTVSPropertyOp10
 70
     1
102
RTVSPropertyOp11
 70
     1
102
RTVSPropertyOp12
 70
     1
102
RTVSPropertyOp13
 70
     1
102
RTVSPropertyOp14
 70
     1
102
RTVSPropertyOp15
 70
     1
102
RTVSPropertyOp16
 70
     1
102
RTVSPropertyOp17
 70
     1
102
RTVSPropertyOp18
 70
     1
102
RTVSPropertyOp19
 70
     1
102
RTVSPropertyOp20
 70
     1
102
RTVSPropertyOp21
 70
     1
102
RTVSPropertyOp22
 70
     1
102
RTVSPropertyOp23
 70
     1
102
RTVSPropertyOp24
 70
     1
102
RTVSPropertyOp25
 70
     1
102
RTVSPropertyOp26
 70
     1
102
RTVSPropertyOp27
 70
     1
102
RTVSPropertyOp28
 70
     1
102
RTVSPropertyOp29
 70
     1
102
RTVSPropertyOp30
 70
     1
102
RTVSPropertyOp31
 70
     1
102
RTVSPropertyOp32
 70
     1
102
RTVSPropertyOp33
 70
     1
102
RTVSPropertyOp34
 70
     1
102
RTVSPropertyOp35
 70
     1
102
RTVSPropertyOp36
 70
     1
102
RTVSPropertyOp37
 70
     1
102
RTVSPropertyOp38
 70
     1
102
RTVSPropertyOp39
 70
     1
102
RTVSPropertyOp40
 70
     1
102
RTVSPropertyOp41
 70
     1
102
RTVSPropertyOp42
 70
     1
102
RTVSPropertyOp43
 70
     1
102
RTVSPropertyOp44
 70
     1
102
RTVSPropertyOp45
 70
     1
102
RTVSPropertyOp46
 70
     1
102
RTVSPropertyOp47
 70
     1
102
RTVSPropertyOp48
 70
     1
102
RTVSPropertyOp49
 70
     1
102
RTVSPropertyOp50
 70
     1
102
RTVSPropertyOp51
 70
     0
102
RTVSPropertyOp52
 70
     0
102
RTVSPropertyOp53
 70
     1
102
RTVSPropertyOp54
 70
     1
102
RTVSPropertyOp55
 70
     1
102
RTVSPropertyOp56
 70
     1
102
RTVSPropertyOp57
 70
     1
102
RTVSPost2010Prop28
280
     0
102
RTVSPost2010PropOp28
 70
     1
102
RTVSPost2010Prop29
280
     1
102
RTVSPost2010PropOp29
 70
     1
102
RTVSPost2010Prop30
280
     1
102
RTVSPost2010PropOp30
 70
     1
102
RTVSPost2010Prop31
280
     0
102
RTVSPost2010PropOp31
 70
     1
102
RTVSPost2010Prop32
280
     0
102
RTVSPost2010PropOp32
 70
     1
102
RTVSPost2010Prop33
280
     0
102
RTVSPost2010PropOp33
 70
     1
102
RTVSPost2010Prop34
280
     0
102
RTVSPost2010PropOp34
 70
     1
102
RTVSPost2010Prop35
280
     0
102
RTVSPost2010PropOp35
 70
     1
102
RTVSPost2010Prop36
280
     0
102
RTVSPost2010PropOp36
 70
     1
102
RTVSPost2010Prop37
 90
       50
102
RTVSPost2010PropOp37
 70
     1
102
RTVSPost2010Prop38
140
0.0
102
RTVSPost2010PropOp38
 70
     1
102
RTVSPost2010Prop39
140
1.0
102
RTVSPost2010PropOp39
 70
     1
102
RTVSPost2010Prop40
 90
        0
102
RTVSPost2010PropOp40
 70
     1
102
RTVSPost2010Prop41ColorIndex
 90
       18
102
RTVSPost2010Prop41ColorRGB
 90
        0
102
RTVSPost2010PropOp41
 70
     1
102
RTVSPost2010Prop42
 90
       50
102
RTVSPost2010PropOp42
 70
     1
102
RTVSPost2010Prop43
 90
        3
102
RTVSPost2010PropOp43
 70
     1
102
RTVSPost2010Prop44ColorIndex
 90
        5
102
RTVSPost2010Prop44ColorRGB
 90
      255
102
RTVSPost2010PropOp44
 70
     1
102
RTVSPost2010Prop45
280
     0
102
RTVSPost2010PropOp45
 70
     1
102
RTVSPost2010Prop46
 90
       50
102
RTVSPost2010PropOp46
 70
     1
102
RTVSPost2010Prop47
 90
       50
102
RTVSPost2010PropOp47
 70
     1
102
RTVSPost2010Prop48
 90
       50
102
RTVSPost2010PropOp48
 70
     1
102
RTVSPost2010Prop49
280
     0
102
RTVSPost2010PropOp49
 70
     1
102
RTVSPost2010Prop50
 90
       50
102
RTVSPost2010PropOp50
 70
     1
102
RTVSPost2010Prop51ColorIndex
 90
      256
102
RTVSPost2010Prop51ColorRGB
 90
-16777216
102
RTVSPost2010PropOp51
 70
     0
102
RTVSPost2010Prop52
140
1.0
102
RTVSPost2010PropOp52
 70
     0
102
RTVSPost2010Prop53
 90
        2
102
RTVSPost2010PropOp53
 70
     1
102
RTVSPost2010Prop54
  1
strokes_ogs.tif
102
RTVSPost2010PropOp54
 70
     1
102
RTVSPost2010Prop55
280
     0
102
RTVSPost2010PropOp55
 70
     1
102
RTVSPost2010Prop56
140
1.0
102
RTVSPost2010PropOp56
 70
     1
102
RTVSPost2010Prop57
140
1.0
102
RTVSPost2010PropOp57
 70
     1
  0
ENDSEC
  0
EOF
