  0
SECTION
  2
HEADER
  9
$ACADVER
  1
AC1021
  9
$ACADMAINTVER
 70
    25
  9
$DWGCODEPAGE
  3
ANSI_1252
  9
$INSBASE
 10
0.0
 20
0.0
 30
0.0
  9
$EXTMIN
 10
0.0
 20
0.0
 30
0.0
  9
$EXTMAX
 10
420.0
 20
297.0
 30
0.0
  9
$LIMMIN
 10
0.0
 20
0.0
  9
$LIMMAX
 10
420.0
 20
297.0
  9
$ORTHOMODE
 70
     0
  9
$REGENMODE
 70
     1
  9
$FILLMODE
 70
     1
  9
$QTEXTMODE
 70
     0
  9
$MIRRTEXT
 70
     1
  9
$LTSCALE
 40
1.0
  9
$ATTMODE
 70
     1
  9
$TEXTSIZE
 40
3.5
  9
$TRACEWID
 40
1.0
  9
$TEXTSTYLE
  7
Standard
  9
$CLAYER
  8
0
  9
$CELTYPE
  6
ByLayer
  9
$CECOLOR
 62
   256
  9
$CELTSCALE
 40
1.0
  9
$DISPSILH
 70
     0
  9
$DIMSCALE
 40
1.0
  9
$DIMASZ
 40
2.5
  9
$DIMEXO
 40
0.625
  9
$DIMDLI
 40
3.75
  9
$DIMRND
 40
0.0
  9
$DIMDLE
 40
0.0
  9
$DIMEXE
 40
1.25
  9
$DIMTP
 40
0.0
  9
$DIMTM
 40
0.0
  9
$DIMTXT
 40
2.5
  9
$DIMCEN
 40
2.5
  9
$DIMTSZ
 40
0.0
  9
$DIMTOL
 70
     0
  9
$DIMLIM
 70
     0
  9
$DIMTIH
 70
     0
  9
$DIMTOH
 70
     0
  9
$DIMSE1
 70
     0
  9
$DIMSE2
 70
     0
  9
$DIMTAD
 70
     1
  9
$DIMZIN
 70
     8
  9
$DIMBLK
  1

  9
$DIMASO
 70
     1
  9
$DIMSHO
 70
     1
  9
$DIMPOST
  1

  9
$DIMAPOST
  1

  9
$DIMALT
 70
     0
  9
$DIMALTD
 70
     3
  9
$DIMALTF
 40
0.0393700787
  9
$DIMLFAC
 40
1.0
  9
$DIMTOFL
 70
     1
  9
$DIMTVP
 40
0.0
  9
$DIMTIX
 70
     0
  9
$DIMSOXD
 70
     0
  9
$DIMSAH
 70
     0
  9
$DIMBLK1
  1

  9
$DIMBLK2
  1

  9
$DIMSTYLE
  2
ISO-25
  9
$DIMCLRD
 70
     0
  9
$DIMCLRE
 70
     0
  9
$DIMCLRT
 70
     0
  9
$DIMTFAC
 40
1.0
  9
$DIMGAP
 40
0.625
  9
$DIMJUST
 70
     0
  9
$DIMSD1
 70
     0
  9
$DIMSD2
 70
     0
  9
$DIMTOLJ
 70
     0
  9
$DIMTZIN
 70
     8
  9
$DIMALTZ
 70
     0
  9
$DIMALTTZ
 70
     0
  9
$DIMUPT
 70
     0
  9
$DIMDEC
 70
     2
  9
$DIMTDEC
 70
     2
  9
$DIMALTU
 70
     2
  9
$DIMALTTD
 70
     3
  9
$DIMTXSTY
  7
Standard
  9
$DIMAUNIT
 70
     0
  9
$DIMADEC
 70
     0
  9
$DIMALTRND
 40
0.0
  9
$DIMAZIN
 70
     0
  9
$DIMDSEP
 70
    44
  9
$DIMATFIT
 70
     3
  9
$DIMFRAC
 70
     0
  9
$DIMLDRBLK
  1

  9
$DIMLUNIT
 70
     2
  9
$DIMLWD
 70
    -2
  9
$DIMLWE
 70
    -2
  9
$DIMTMOVE
 70
     0
  9
$DIMFXL
 40
1.0
  9
$DIMFXLON
 70
     0
  9
$DIMJOGANG
 40
0.7853981634
  9
$DIMTFILL
 70
     0
  9
$DIMTFILLCLR
 70
     0
  9
$DIMARCSYM
 70
     0
  9
$DIMLTYPE
  6

  9
$DIMLTEX1
  6

  9
$DIMLTEX2
  6

  9
$LUNITS
 70
     2
  9
$LUPREC
 70
     4
  9
$SKETCHINC
 40
1.0
  9
$FILLETRAD
 40
10.0
  9
$AUNITS
 70
     0
  9
$AUPREC
 70
     0
  9
$MENU
  1
.
  9
$ELEVATION
 40
0.0
  9
$PELEVATION
 40
0.0
  9
$THICKNESS
 40
0.0
  9
$LIMCHECK
 70
     0
  9
$CHAMFERA
 40
0.0
  9
$CHAMFERB
 40
0.0
  9
$CHAMFERC
 40
0.0
  9
$CHAMFERD
 40
0.0
  9
$SKPOLY
 70
     0
  9
$TDCREATE
 40
2459224.709685891
  9
$TDUCREATE
 40
2459224.668019224
  9
$TDUPDATE
 40
2459224.709687153
  9
$TDUUPDATE
 40
2459224.668020486
  9
$TDINDWG
 40
0.0000000116
  9
$TDUSRTIMER
 40
0.0000000116
  9
$USRTIMER
 70
     1
  9
$ANGBASE
 50
0.0
  9
$ANGDIR
 70
     0
  9
$PDMODE
 70
     0
  9
$PDSIZE
 40
0.0
  9
$PLINEWID
 40
0.0
  9
$SPLFRAME
 70
     0
  9
$SPLINETYPE
 70
     6
  9
$SPLINESEGS
 70
     8
  9
$HANDSEED
  5
2AA
  9
$SURFTAB1
 70
     6
  9
$SURFTAB2
 70
     6
  9
$SURFTYPE
 70
     6
  9
$SURFU
 70
     6
  9
$SURFV
 70
     6
  9
$UCSBASE
  2

  9
$UCSNAME
  2

  9
$UCSORG
 10
0.0
 20
0.0
 30
0.0
  9
$UCSXDIR
 10
1.0
 20
0.0
 30
0.0
  9
$UCSYDIR
 10
0.0
 20
1.0
 30
0.0
  9
$UCSORTHOREF
  2

  9
$UCSORTHOVIEW
 70
     0
  9
$UCSORGTOP
 10
0.0
 20
0.0
 30
0.0
  9
$UCSORGBOTTOM
 10
0.0
 20
0.0
 30
0.0
  9
$UCSORGLEFT
 10
0.0
 20
0.0
 30
0.0
  9
$UCSORGRIGHT
 10
0.0
 20
0.0
 30
0.0
  9
$UCSORGFRONT
 10
0.0
 20
0.0
 30
0.0
  9
$UCSORGBACK
 10
0.0
 20
0.0
 30
0.0
  9
$PUCSBASE
  2

  9
$PUCSNAME
  2

  9
$PUCSORG
 10
0.0
 20
0.0
 30
0.0
  9
$PUCSXDIR
 10
1.0
 20
0.0
 30
0.0
  9
$PUCSYDIR
 10
0.0
 20
1.0
 30
0.0
  9
$PUCSORTHOREF
  2

  9
$PUCSORTHOVIEW
 70
     0
  9
$PUCSORGTOP
 10
0.0
 20
0.0
 30
0.0
  9
$PUCSORGBOTTOM
 10
0.0
 20
0.0
 30
0.0
  9
$PUCSORGLEFT
 10
0.0
 20
0.0
 30
0.0
  9
$PUCSORGRIGHT
 10
0.0
 20
0.0
 30
0.0
  9
$PUCSORGFRONT
 10
0.0
 20
0.0
 30
0.0
  9
$PUCSORGBACK
 10
0.0
 20
0.0
 30
0.0
  9
$USERI1
 70
     0
  9
$USERI2
 70
     0
  9
$USERI3
 70
     0
  9
$USERI4
 70
     0
  9
$USERI5
 70
     0
  9
$USERR1
 40
0.0
  9
$USERR2
 40
0.0
  9
$USERR3
 40
0.0
  9
$USERR4
 40
0.0
  9
$USERR5
 40
0.0
  9
$WORLDVIEW
 70
     1
  9
$SHADEDGE
 70
     3
  9
$SHADEDIF
 70
    70
  9
$TILEMODE
 70
     1
  9
$MAXACTVP
 70
    64
  9
$PINSBASE
 10
0.0
 20
0.0
 30
0.0
  9
$PLIMCHECK
 70
     0
  9
$PEXTMIN
 10
0.0
 20
0.0
 30
0.0
  9
$PEXTMAX
 10
420.0
 20
297.0
 30
0.0
  9
$PLIMMIN
 10
0.0
 20
0.0
  9
$PLIMMAX
 10
420.0
 20
297.0
  9
$UNITMODE
 70
     0
  9
$VISRETAIN
 70
     1
  9
$PLINEGEN
 70
     0
  9
$PSLTSCALE
 70
     1
  9
$TREEDEPTH
 70
  3020
  9
$CMLSTYLE
  2
Standard
  9
$CMLJUST
 70
     0
  9
$CMLSCALE
 40
20.0
  9
$PROXYGRAPHICS
 70
     1
  9
$MEASUREMENT
 70
     1
  9
$CELWEIGHT
370
    -1
  9
$ENDCAPS
280
     0
  9
$JOINSTYLE
280
     0
  9
$LWDISPLAY
290
     0
  9
$INSUNITS
 70
     4
  9
$HYPERLINKBASE
  1

  9
$STYLESHEET
  1

  9
$XEDIT
290
     1
  9
$CEPSNTYPE
380
     0
  9
$PSTYLEMODE
290
     1
  9
$FINGERPRINTGUID
  2
{C75C5C7B-F8DA-45E8-B6D4-B75D9DA18224}
  9
$VERSIONGUID
  2
{FAEB1C32-E019-11D5-929B-00C0DF256EC4}
  9
$EXTNAMES
290
     1
  9
$PSVPSCALE
 40
0.0
  9
$OLESTARTUP
290
     0
  9
$SORTENTS
280
   127
  9
$INDEXCTL
280
     0
  9
$HIDETEXT
280
     1
  9
$XCLIPFRAME
290
     0
  9
$HALOGAP
280
     0
  9
$OBSCOLOR
 70
   257
  9
$OBSLTYPE
280
     0
  9
$INTERSECTIONDISPLAY
280
     0
  9
$INTERSECTIONCOLOR
 70
   257
  9
$DIMASSOC
280
     2
  9
$PROJECTNAME
  1

  9
$CAMERADISPLAY
290
     0
  9
$LENSLENGTH
 40
50.0
  9
$CAMERAHEIGHT
 40
0.0
  9
$STEPSPERSEC
 40
2.0
  9
$STEPSIZE
 40
6.0
  9
$3DDWFPREC
 40
2.0
  9
$PSOLWIDTH
 40
5.0
  9
$PSOLHEIGHT
 40
80.0
  9
$LOFTANG1
 40
1.5707963268
  9
$LOFTANG2
 40
1.5707963268
  9
$LOFTMAG1
 40
0.0
  9
$LOFTMAG2
 40
0.0
  9
$LOFTPARAM
 70
     7
  9
$LOFTNORMALS
280
     1
  9
$LATITUDE
 40
37.795
  9
$LONGITUDE
 40
-122.394
  9
$NORTHDIRECTION
 40
0.0
  9
$TIMEZONE
 70
 -8000
  9
$LIGHTGLYPHDISPLAY
280
     1
  9
$TILEMODELIGHTSYNCH
280
     1
  9
$CMATERIAL
347
44
  9
$SOLIDHIST
280
     0
  9
$SHOWHIST
280
     1
  9
$DWFFRAME
280
     2
  9
$DGNFRAME
280
     2
  9
$REALWORLDSCALE
290
     1
  9
$INTERFERECOLOR
 62
   256
  9
$CSHADOW
280
     0
  9
$SHADOWPLANELOCATION
 40
0.0
  0
ENDSEC
  0
SECTION
  2
CLASSES
  0
CLASS
  1
ACDBDICTIONARYWDFLT
  2
AcDbDictionaryWithDefault
  3
ObjectDBX Classes
 90
        0
 91
        4
280
     0
281
     0
  0
CLASS
  1
VISUALSTYLE
  2
AcDbVisualStyle
  3
ObjectDBX Classes
 90
     4095
 91
        4
280
     0
281
     0
  0
CLASS
  1
MATERIAL
  2
AcDbMaterial
  3
ObjectDBX Classes
 90
     1153
 91
        4
280
     0
281
     0
  0
CLASS
  1
SCALE
  2
AcDbScale
  3
ObjectDBX Classes
 90
     1153
 91
        4
280
     0
281
     0
  0
CLASS
  1
TABLESTYLE
  2
AcDbTableStyle
  3
ObjectDBX Classes
 90
     4095
 91
        4
280
     0
281
     0
  0
CLASS
  1
MLEADERSTYLE
  2
AcDbMLeaderStyle
  3
ACDB_MLEADERSTYLE_CLASS
 90
     4095
 91
        4
280
     0
281
     0
  0
CLASS
  1
SUN
  2
AcDbSun
  3
SCENEOE
 90
     1153
 91
        4
280
     0
281
     0
  0
CLASS
  1
MULTILEADER
  2
AcDbMLeader
  3
ACDB_MLEADER_CLASS
 90
     1025
 91
        4
280
     0
281
     1
  0
CLASS
  1
DICTIONARYVAR
  2
AcDbDictionaryVar
  3
ObjectDBX Classes
 90
        0
 91
        4
280
     0
281
     0
  0
CLASS
  1
CELLSTYLEMAP
  2
AcDbCellStyleMap
  3
ObjectDBX Classes
 90
     1152
 91
        4
280
     0
281
     0
  0
ENDSEC
  0
SECTION
  2
TABLES
  0
TABLE
  2
VPORT
  5
8
330
0
100
AcDbSymbolTable
 70
     1
  0
VPORT
  5
29
330
8
100
AcDbSymbolTableRecord
100
AcDbViewportTableRecord
  2
*Active
 70
     0
 10
0.0
 20
0.0
 11
1.0
 21
1.0
 12
344.1869158879
 22
148.5
 13
0.0
 23
0.0
 14
10.0
 24
10.0
 15
10.0
 25
10.0
 16
0.0
 26
0.0
 36
1.0
 17
0.0
 27
0.0
 37
0.0
 40
297.0
 41
1.9729729729
 42
50.0
 43
0.0
 44
0.0
 50
0.0
 51
0.0
 71
     0
 72
   100
 73
     1
 74
     3
 75
     0
 76
     0
 77
     0
 78
     0
281
     0
 65
     1
110
0.0
120
0.0
130
0.0
111
1.0
121
0.0
131
0.0
112
0.0
122
1.0
132
0.0
 79
     0
146
0.0
348
2F
 60
     3
 61
     5
292
     1
282
     1
141
0.0
142
0.0
 63
   250
361
6D
  0
ENDTAB
  0
TABLE
  2
LTYPE
  5
5
330
0
100
AcDbSymbolTable
 70
     2
  0
LTYPE
  5
14
330
5
100
AcDbSymbolTableRecord
100
AcDbLinetypeTableRecord
  2
ByBlock
 70
     0
  3

 72
    65
 73
     0
 40
0.0
  0
LTYPE
  5
15
330
5
100
AcDbSymbolTableRecord
100
AcDbLinetypeTableRecord
  2
ByLayer
 70
     0
  3

 72
    65
 73
     0
 40
0.0
  0
LTYPE
  5
16
330
5
100
AcDbSymbolTableRecord
100
AcDbLinetypeTableRecord
  2
Continuous
 70
     0
  3
Solid line
 72
    65
 73
     0
 40
0.0
  0
LTYPE
  5
77
330
5
100
AcDbSymbolTableRecord
100
AcDbLinetypeTableRecord
  2
HIDDEN2
 70
     0
  3
Hidden (.5x) _ _ _ _ _ _ _ _ _ _ _ _ _ _ _ _ _ 
 72
    65
 73
     2
 40
4.7625
 49
3.175
 74
     4
 75
     0
340
0
 46
0.0
 50
0.0
 44
0.0
 45
0.0
 49
-1.5875
 74
     4
 75
     0
340
0
 46
0.0
 50
0.0
 44
0.0
 45
0.0
  0
ENDTAB
  0
TABLE
  2
LAYER
  5
2
330
0
100
AcDbSymbolTable
 70
     7
  0
LAYER
  5
10
330
2
100
AcDbSymbolTableRecord
100
AcDbLayerTableRecord
  2
0
 70
     0
 62
     7
  6
Continuous
370
    -3
390
F
347
46
  0
LAYER
  5
6E
330
2
100
AcDbSymbolTableRecord
100
AcDbLayerTableRecord
  2
Default
 70
     0
 62
     7
  6
Continuous
370
    -3
390
F
347
46
  0
LAYER
  5
72
330
2
100
AcDbSymbolTableRecord
100
AcDbLayerTableRecord
  2
BRIDA120
 70
     0
 62
     7
  6
Continuous
370
    -3
390
F
347
46
  0
LAYER
  5
90
330
2
100
AcDbSymbolTableRecord
100
AcDbLayerTableRecord
  2
M3X8
 70
     0
 62
     7
  6
Continuous
370
    -3
390
F
347
46
  0
LAYER
  5
93
330
2
100
AcDbSymbolTableRecord
100
AcDbLayerTableRecord
  2
PCB120
 70
     0
 62
     7
  6
Continuous
370
    -3
390
F
347
46
  0
LAYER
  5
97
330
2
100
AcDbSymbolTableRecord
100
AcDbLayerTableRecord
  2
FESTOCOLM5T4
 70
     0
 62
     7
  6
Continuous
370
    -3
390
F
347
46
  0
LAYER
  5
BA
330
2
100
AcDbSymbolTableRecord
100
AcDbLayerTableRecord
  2
X120MAS
 70
     0
 62
     7
  6
Continuous
370
    -3
390
F
347
46
  0
ENDTAB
  0
TABLE
  2
STYLE
  5
3
330
0
100
AcDbSymbolTable
 70
     2
  0
STYLE
  5
11
330
3
100
AcDbSymbolTableRecord
100
AcDbTextStyleTableRecord
  2
Standard
 70
     0
 40
0.0
 41
1.0
 50
0.0
 71
     0
 42
3.5
  3
txt
  4

  0
STYLE
  5
1EB
330
3
100
AcDbSymbolTableRecord
100
AcDbTextStyleTableRecord
  2
SEACAD_Solid_Edge_ISO
 70
     0
 40
0.0
 41
1.0
 50
0.0
 71
     0
 42
3.5
  3
seiso.ttf
  4

1001
ACAD
1000
Solid Edge ISO
1071
        0
  0
ENDTAB
  0
TABLE
  2
VIEW
  5
6
330
0
100
AcDbSymbolTable
 70
     0
  0
ENDTAB
  0
TABLE
  2
UCS
  5
7
330
0
100
AcDbSymbolTable
 70
     0
  0
ENDTAB
  0
TABLE
  2
APPID
  5
9
330
0
100
AcDbSymbolTable
 70
     2
  0
APPID
  5
12
330
9
100
AcDbSymbolTableRecord
100
AcDbRegAppTableRecord
  2
ACAD
 70
     0
  0
APPID
  5
26B
330
9
100
AcDbSymbolTableRecord
100
AcDbRegAppTableRecord
  2
ACAD_MLEADERVER
 70
     0
  0
ENDTAB
  0
TABLE
  2
DIMSTYLE
  5
A
330
0
100
AcDbSymbolTable
 70
     3
100
AcDbDimStyleTable
  0
DIMSTYLE
105
27
330
A
100
AcDbSymbolTableRecord
100
AcDbDimStyleTableRecord
  2
ISO-25
 70
     0
 41
2.5
 42
0.625
 43
3.75
 44
1.25
 73
     0
 74
     0
 77
     1
 78
     8
140
2.5
141
2.5
143
0.0393700787
147
0.625
171
     3
172
     1
178
     0
271
     2
272
     2
274
     3
278
    44
283
     0
284
     8
340
11
  0
DIMSTYLE
105
1DC
330
A
100
AcDbSymbolTableRecord
100
AcDbDimStyleTableRecord
  2
Standard
 70
     0
178
     0
340
11
  0
DIMSTYLE
105
1EC
102
{ACAD_REACTORS
330
1ED
330
1F7
330
201
330
20B
330
215
330
21D
330
227
330
231
102
}
330
A
100
AcDbSymbolTableRecord
100
AcDbDimStyleTableRecord
  2
DIN_(mm)
 70
     0
 41
3.5
 42
0.0
 44
1.75
 73
     0
 74
     0
 77
     1
 78
     8
140
3.5
141
1.75
143
0.0393700787
147
0.875
172
     1
173
     1
178
     0
271
     1
272
     2
278
    44
283
     0
284
     8
340
1EB
343
1E6
344
1E6
  0
ENDTAB
  0
TABLE
  2
BLOCK_RECORD
  5
1
330
0
100
AcDbSymbolTable
 70
    16
  0
BLOCK_RECORD
  5
1F
330
1
100
AcDbSymbolTableRecord
100
AcDbBlockTableRecord
  2
*Model_Space
340
22
 70
     0
280
     1
281
     0
  0
BLOCK_RECORD
  5
1B
330
1
100
AcDbSymbolTableRecord
100
AcDbBlockTableRecord
  2
*Paper_Space
340
1E
 70
     0
280
     1
281
     0
  0
BLOCK_RECORD
  5
70
330
1
100
AcDbSymbolTableRecord
100
AcDbBlockTableRecord
  2
SE
340
0
102
{BLKREFS
331
71
102
}
 70
     0
280
     1
281
     0
  0
BLOCK_RECORD
  5
CC
330
1
100
AcDbSymbolTableRecord
100
AcDbBlockTableRecord
  2
SE1
340
0
102
{BLKREFS
331
CD
102
}
 70
     0
280
     1
281
     0
  0
BLOCK_RECORD
  5
1DD
330
1
100
AcDbSymbolTableRecord
100
AcDbBlockTableRecord
  2
_Oblique
340
0
 70
     0
280
     1
281
     0
  0
BLOCK_RECORD
  5
1E1
330
1
100
AcDbSymbolTableRecord
100
AcDbBlockTableRecord
  2
_Dot
340
0
 70
     0
280
     1
281
     0
  0
BLOCK_RECORD
  5
1E6
330
1
100
AcDbSymbolTableRecord
100
AcDbBlockTableRecord
  2
_SE_FILLED
340
0
 70
     0
280
     1
281
     0
  0
BLOCK_RECORD
  5
1EE
330
1
100
AcDbSymbolTableRecord
100
AcDbBlockTableRecord
  2
DMBLK14
340
0
 70
     0
280
     1
281
     0
  0
BLOCK_RECORD
  5
1F8
330
1
100
AcDbSymbolTableRecord
100
AcDbBlockTableRecord
  2
DMBLK15
340
0
 70
     0
280
     1
281
     0
  0
BLOCK_RECORD
  5
202
330
1
100
AcDbSymbolTableRecord
100
AcDbBlockTableRecord
  2
DMBLK16
340
0
 70
     0
280
     1
281
     0
  0
BLOCK_RECORD
  5
20C
330
1
100
AcDbSymbolTableRecord
100
AcDbBlockTableRecord
  2
DMBLK17
340
0
 70
     0
280
     1
281
     0
  0
BLOCK_RECORD
  5
216
330
1
100
AcDbSymbolTableRecord
100
AcDbBlockTableRecord
  2
DMBLK18
340
0
 70
     0
280
     1
281
     0
  0
BLOCK_RECORD
  5
21E
330
1
100
AcDbSymbolTableRecord
100
AcDbBlockTableRecord
  2
DMBLK19
340
0
 70
     0
280
     1
281
     0
  0
BLOCK_RECORD
  5
228
330
1
100
AcDbSymbolTableRecord
100
AcDbBlockTableRecord
  2
DMBLK20
340
0
 70
     0
280
     1
281
     0
  0
BLOCK_RECORD
  5
232
330
1
100
AcDbSymbolTableRecord
100
AcDbBlockTableRecord
  2
DMBLK21
340
0
 70
     0
280
     1
281
     0
  0
BLOCK_RECORD
  5
25C
330
1
100
AcDbSymbolTableRecord
100
AcDbBlockTableRecord
  2
SEANNOT_GROUP
340
0
102
{BLKREFS
331
25D
102
}
 70
     0
280
     1
281
     0
  0
BLOCK_RECORD
  5
263
330
1
100
AcDbSymbolTableRecord
100
AcDbBlockTableRecord
  2
SEANNOT_GROUP1
340
0
102
{BLKREFS
331
264
102
}
 70
     0
280
     1
281
     0
  0
ENDTAB
  0
ENDSEC
  0
SECTION
  2
BLOCKS
  0
BLOCK
  5
20
330
1F
100
AcDbEntity
  8
0
100
AcDbBlockBegin
  2
*Model_Space
 70
     0
 10
0.0
 20
0.0
 30
0.0
  3
*Model_Space
  1

  0
ENDBLK
  5
21
330
1F
100
AcDbEntity
  8
0
100
AcDbBlockEnd
  0
BLOCK
  5
1C
330
1B
100
AcDbEntity
 67
     1
  8
0
100
AcDbBlockBegin
  2
*Paper_Space
 70
     0
 10
0.0
 20
0.0
 30
0.0
  3
*Paper_Space
  1

  0
ENDBLK
  5
1D
330
1B
100
AcDbEntity
 67
     1
  8
0
100
AcDbBlockEnd
  0
BLOCK
  5
CA
330
70
100
AcDbEntity
  8
0
100
AcDbBlockBegin
  2
SE
 70
     0
 10
0.0
 20
0.0
 30
0.0
  3
SE
  1

  0
LINE
  5
73
330
70
100
AcDbEntity
  8
BRIDA120
  6
Continuous
 62
     7
100
AcDbLine
 10
98.5364114729
 20
254.1772493875
 30
0.0
 11
98.5585257291
 21
250.177310518
 31
0.0
  0
LINE
  5
74
330
70
100
AcDbEntity
  8
BRIDA120
  6
Continuous
 62
     7
100
AcDbLine
 10
98.5585257291
 20
250.177310518
 30
0.0
 11
98.6315433033
 21
236.9701815189
 31
0.0
  0
LINE
  5
75
330
70
100
AcDbEntity
  8
BRIDA120
  6
Continuous
 62
     7
100
AcDbLine
 10
97.7585379552
 20
250.1728876668
 30
0.0
 11
97.831516899
 21
236.9727459935
 31
0.0
  0
LINE
  5
76
330
70
100
AcDbEntity
  8
BRIDA120
  6
Continuous
 62
     7
100
AcDbLine
 10
97.736423699
 20
254.1728265363
 30
0.0
 11
97.7585379552
 21
250.1728876668
 31
0.0
  0
LINE
  5
78
330
70
100
AcDbEntity
  8
BRIDA120
  6
HIDDEN2
 62
     7
100
AcDbLine
 10
98.6304008586
 20
237.1768223843
 30
0.0
 11
97.8304130847
 21
237.172399533
 31
0.0
  0
LINE
  5
79
330
70
100
AcDbEntity
  8
BRIDA120
  6
Continuous
 62
     7
100
AcDbLine
 10
98.5364114729
 20
254.1772493875
 30
0.0
 11
97.736423699
 21
254.1728265363
 31
0.0
  0
LINE
  5
7A
330
70
100
AcDbEntity
  8
BRIDA120
  6
Continuous
 62
     7
100
AcDbLine
 10
99.2330143383
 20
128.1784881906
 30
0.0
 11
98.4330265644
 21
128.1740653394
 31
0.0
  0
LINE
  5
7B
330
70
100
AcDbEntity
  8
BRIDA120
  6
HIDDEN2
 62
     7
100
AcDbLine
 10
99.1390249526
 20
145.1789151938
 30
0.0
 11
98.3390371787
 21
145.1744923426
 31
0.0
  0
LINE
  5
7C
330
70
100
AcDbEntity
  8
BRIDA120
  6
Continuous
 62
     7
100
AcDbLine
 10
99.2109000821
 20
132.1784270601
 30
0.0
 11
99.1378825079
 21
145.3855560591
 31
0.0
  0
LINE
  5
7D
330
70
100
AcDbEntity
  8
BRIDA120
  6
Continuous
 62
     7
100
AcDbLine
 10
99.2330143383
 20
128.1784881906
 30
0.0
 11
99.2109000821
 21
132.1784270601
 31
0.0
  0
LINE
  5
7E
330
70
100
AcDbEntity
  8
BRIDA120
  6
Continuous
 62
     7
100
AcDbLine
 10
98.4109123083
 20
132.1740042089
 30
0.0
 11
98.3379333644
 21
145.3741458821
 31
0.0
  0
LINE
  5
7F
330
70
100
AcDbEntity
  8
BRIDA120
  6
Continuous
 62
     7
100
AcDbLine
 10
98.4330265644
 20
128.1740653394
 30
0.0
 11
98.4109123083
 21
132.1740042089
 31
0.0
  0
ARC
  5
80
330
70
100
AcDbEntity
  8
BRIDA120
  6
Continuous
 62
     7
100
AcDbCircle
 10
98.0847251317
 20
191.1734459378
 30
0.0
 40
45.79999999999999
100
AcDbArc
 50
9.749643004
 51
89.315914459
  0
ARC
  5
81
330
70
100
AcDbEntity
  8
BRIDA120
  6
Continuous
 62
     7
100
AcDbCircle
 10
98.0847251317
 20
191.1734459378
 30
0.0
 40
45.79999999999999
100
AcDbArc
 50
271.3176155402
 51
351.3681278309
  0
ARC
  5
82
330
70
100
AcDbEntity
  8
BRIDA120
  6
Continuous
 62
     7
100
AcDbCircle
 10
98.0847251317
 20
191.1734459378
 30
0.0
 40
45.79999999999999
100
AcDbArc
 50
127.3296138506
 51
270.3167649996
  0
ARC
  5
83
330
70
100
AcDbEntity
  8
BRIDA120
  6
Continuous
 62
     7
100
AcDbCircle
 10
98.0847251317
 20
191.1734459378
 30
0.0
 40
45.79999999999999
100
AcDbArc
 50
90.3167649996
 51
116.1924483799
  0
ARC
  5
84
330
70
100
AcDbEntity
  8
BRIDA120
  6
HIDDEN2
 62
     7
100
AcDbCircle
 10
98.0847251317
 20
191.1734459378
 30
0.0
 40
45.79999999999999
100
AcDbArc
 50
89.315914459
 51
90.3167649996
  0
ARC
  5
85
330
70
100
AcDbEntity
  8
BRIDA120
  6
HIDDEN2
 62
     7
100
AcDbCircle
 10
98.0847251317
 20
191.1734459378
 30
0.0
 40
45.8
100
AcDbArc
 50
270.3167649996
 51
271.3176155402
  0
LINE
  5
86
330
70
100
AcDbEntity
  8
BRIDA120
  6
HIDDEN2
 62
     7
100
AcDbLine
 10
97.5379069601
 20
145.3767103567
 30
0.0
 11
99.1378825079
 21
145.3855560591
 31
0.0
  0
LINE
  5
87
330
70
100
AcDbEntity
  8
BRIDA120
  6
HIDDEN2
 62
     7
100
AcDbLine
 10
97.0315677556
 20
236.9613358165
 30
0.0
 11
98.6315433033
 21
236.9701815189
 31
0.0
  0
LINE
  5
88
330
70
100
AcDbEntity
  8
BRIDA120
  6
HIDDEN2
 62
     7
100
AcDbLine
 10
97.8260429403
 20
237.9628539058
 30
0.0
 11
98.6260307142
 21
237.967276757
 31
0.0
  0
LINE
  5
89
330
70
100
AcDbEntity
  8
BRIDA120
  6
HIDDEN2
 62
     7
100
AcDbLine
 10
98.6094450221
 20
240.9672309091
 30
0.0
 11
97.8094572482
 21
240.9628080579
 31
0.0
  0
LINE
  5
8A
330
70
100
AcDbEntity
  8
BRIDA120
  6
HIDDEN2
 62
     7
100
AcDbLine
 10
97.7723631624
 20
247.6722390655
 30
0.0
 11
98.5723509363
 21
247.6766619167
 31
0.0
  0
LINE
  5
8B
330
70
100
AcDbEntity
  8
BRIDA120
  6
HIDDEN2
 62
     7
100
AcDbLine
 10
98.5557652442
 20
250.6766160688
 30
0.0
 11
97.7557774703
 21
250.6721932176
 31
0.0
  0
LINE
  5
8C
330
70
100
AcDbEntity
  8
BRIDA120
  6
HIDDEN2
 62
     7
100
AcDbLine
 10
98.4136727931
 20
131.6746986581
 30
0.0
 11
99.213660567
 21
131.6791215093
 31
0.0
  0
LINE
  5
8D
330
70
100
AcDbEntity
  8
BRIDA120
  6
HIDDEN2
 62
     7
100
AcDbLine
 10
99.1970748749
 20
134.6790756614
 30
0.0
 11
98.397087101
 21
134.6746528102
 31
0.0
  0
LINE
  5
8E
330
70
100
AcDbEntity
  8
BRIDA120
  6
HIDDEN2
 62
     7
100
AcDbLine
 10
98.3599930152
 20
141.3840838177
 30
0.0
 11
99.1599807891
 21
141.388506669
 31
0.0
  0
LINE
  5
8F
330
70
100
AcDbEntity
  8
BRIDA120
  6
HIDDEN2
 62
     7
100
AcDbLine
 10
99.143395097
 20
144.3884608211
 30
0.0
 11
98.3434073231
 21
144.3840379698
 31
0.0
  0
CIRCLE
  5
91
330
70
100
AcDbEntity
  8
M3X8
  6
HIDDEN2
 62
     7
100
AcDbCircle
 10
103.0522532962
 20
224.3030952558
 30
0.0
 40
1.139355835699407
  0
ARC
  5
92
330
70
100
AcDbEntity
  8
M3X8
  6
HIDDEN2
 62
     7
100
AcDbCircle
 10
103.0522532962
 20
224.3030952558
 30
0.0
 40
1.195
100
AcDbArc
 50
358.0
 51
298.0
  0
LINE
  5
94
330
70
100
AcDbEntity
  8
PCB120
  6
Continuous
 62
     7
100
AcDbLine
 10
142.9213876112
 20
184.2970795317
 30
0.0
 11
147.9401651428
 21
184.3248265887
 31
0.0
  0
LINE
  5
95
330
70
100
AcDbEntity
  8
PCB120
  6
Continuous
 62
     7
100
AcDbLine
 10
147.9401651428
 20
184.3248265887
 30
0.0
 11
147.8592800395
 21
198.9550029978
 31
0.0
  0
LINE
  5
96
330
70
100
AcDbEntity
  8
PCB120
  6
Continuous
 62
     7
100
AcDbLine
 10
147.8592800395
 20
198.9550029978
 30
0.0
 11
142.7780635709
 21
198.9269107378
 31
0.0
  0
LINE
  5
98
330
70
100
AcDbEntity
  8
FESTOCOLM5T4
  6
Continuous
 62
     7
100
AcDbLine
 10
69.0466266122
 20
236.5265249656
 30
0.0
 11
72.2918838007
 21
238.5356152207
 31
0.0
  0
LINE
  5
99
330
70
100
AcDbEntity
  8
FESTOCOLM5T4
  6
Continuous
 62
     7
100
AcDbLine
 10
70.5438716833
 20
227.2166437508
 30
0.0
 11
68.0678696428
 21
231.2160974342
 31
0.0
  0
LINE
  5
9A
330
70
100
AcDbEntity
  8
FESTOCOLM5T4
  6
HIDDEN2
 62
     7
100
AcDbLine
 10
73.6204253168
 20
228.5377598973
 30
0.0
 11
70.6200728167
 21
233.3841900139
 31
0.0
  0
LINE
  5
9B
330
70
100
AcDbEntity
  8
FESTOCOLM5T4
  6
HIDDEN2
 62
     7
100
AcDbLine
 10
77.3991973082
 20
230.8771411984
 30
0.0
 11
74.3988448081
 21
235.723571315
 31
0.0
  0
LINE
  5
9C
330
70
100
AcDbEntity
  8
FESTOCOLM5T4
  6
Continuous
 62
     7
100
AcDbLine
 10
78.1014156661
 20
231.8954063529
 30
0.0
 11
75.3622248097
 21
236.3199854852
 31
0.0
  0
LINE
  5
9D
330
70
100
AcDbEntity
  8
FESTOCOLM5T4
  6
Continuous
 62
     7
100
AcDbLine
 10
75.1785950802
 20
230.3259672271
 30
0.0
 11
72.54683282
 21
234.5770183543
 31
0.0
  0
LINE
  5
9E
330
70
100
AcDbEntity
  8
FESTOCOLM5T4
  6
Continuous
 62
     7
100
AcDbLine
 10
71.4560745321
 20
227.8957237061
 30
0.0
 11
68.7680608286
 21
232.2376370532
 31
0.0
  0
LINE
  5
9F
330
70
100
AcDbEntity
  8
FESTOCOLM5T4
  6
Continuous
 62
     7
100
AcDbLine
 10
68.7680608286
 20
232.2376370532
 30
0.0
 11
68.2710751648
 21
231.9299606516
 31
0.0
  0
LINE
  5
A0
330
70
100
AcDbEntity
  8
FESTOCOLM5T4
  6
Continuous
 62
     7
100
AcDbLine
 10
75.3622248097
 20
236.3199854852
 30
0.0
 11
72.54683282
 21
234.5770183543
 31
0.0
  0
LINE
  5
A1
330
70
100
AcDbEntity
  8
FESTOCOLM5T4
  6
Continuous
 62
     7
100
AcDbLine
 10
72.54683282
 20
234.5770183543
 30
0.0
 11
68.7680608286
 21
232.2376370532
 31
0.0
  0
LINE
  5
A2
330
70
100
AcDbEntity
  8
FESTOCOLM5T4
  6
Continuous
 62
     7
100
AcDbLine
 10
70.4392909211
 20
234.2769725384
 30
0.0
 11
69.0466266122
 21
236.5265249656
 31
0.0
  0
LINE
  5
A3
330
70
100
AcDbEntity
  8
FESTOCOLM5T4
  6
HIDDEN2
 62
     7
100
AcDbLine
 10
70.4356356033
 20
237.3864396861
 30
0.0
 11
71.8282999122
 21
235.1368872589
 31
0.0
  0
ELLIPSE
  5
A4
330
70
100
AcDbEntity
  8
FESTOCOLM5T4
  6
HIDDEN2
 62
     7
100
AcDbEllipse
 10
69.7411311077
 20
236.9564823259
 30
0.0
 11
2.105510526403099
 21
-3.401003590589964
 31
0.0
210
0.0
220
0.0
230
1.0
 40
0.2722743359
 41
0.8480620789814743
 42
1.570796326794906
  0
ELLIPSE
  5
A5
330
70
100
AcDbEntity
  8
FESTOCOLM5T4
  6
Continuous
 62
     7
100
AcDbEllipse
 10
69.7411311077
 20
236.9564823259
 30
0.0
 11
2.105510526403099
 21
-3.401003590589964
 31
0.0
210
0.0
220
0.0
230
1.0
 40
0.2722743359
 41
1.570796326794906
 42
5.435123228198108
  0
ELLIPSE
  5
A6
330
70
100
AcDbEntity
  8
FESTOCOLM5T4
  6
Continuous
 62
     7
100
AcDbEllipse
 10
65.9623591164
 20
234.6171010248
 30
0.0
 11
-2.105510526403068
 21
3.401003590589871
 31
0.0
210
0.0
220
0.0
230
1.0
 40
0.2832634474
 41
3.141592653589788
 42
3.646953163873965
  0
ELLIPSE
  5
A7
330
70
100
AcDbEntity
  8
FESTOCOLM5T4
  6
HIDDEN2
 62
     7
100
AcDbEllipse
 10
65.9623591164
 20
234.6171010248
 30
0.0
 11
2.105510526402957
 21
-3.401003590589796
 31
0.0
210
0.0
220
0.0
230
1.0
 40
0.8278121192
 41
0.0
 42
0.5053605102841853
  0
ARC
  5
A8
330
70
100
AcDbEntity
  8
FESTOCOLM5T4
  6
Continuous
 62
     7
100
AcDbCircle
 10
71.9512260036
 20
231.9817347653
 30
0.0
 40
2.748465777339249
100
AcDbArc
 50
123.3739749661
 51
168.2262728527
  0
SPLINE
  5
A9
330
70
100
AcDbEntity
  8
FESTOCOLM5T4
  6
HIDDEN2
 62
     7
100
AcDbSpline
210
0.0
220
0.0
230
1.0
 70
     8
 71
     3
 72
    16
 73
    12
 74
     0
 42
0.000000001
 43
0.0000000001
 40
0.0
 40
0.0
 40
0.0
 40
0.0
 40
0.25
 40
0.25
 40
0.3750000000000001
 40
0.3750000000000001
 40
0.5000000000000001
 40
0.5000000000000001
 40
0.75
 40
0.75
 40
1.0
 40
1.0
 40
1.0
 40
1.0
 10
71.82829991220399
 20
235.1368872589413
 30
0.0
 10
71.63748463895247
 20
235.0187563732401
 30
0.0
 10
71.46369901479507
 20
234.8746680513082
 30
0.0
 10
71.22122003006797
 20
234.6293108198341
 30
0.0
 10
71.14316207263997
 20
234.5423011326537
 30
0.0
 10
70.99573018468159
 20
234.365483634819
 30
0.0
 10
70.92573344423687
 20
234.2751025355368
 30
0.0
 10
70.72376512400722
 20
234.0003123797966
 30
0.0
 10
70.59933517915199
 20
233.8116560629282
 30
0.0
 10
70.36828142946197
 20
233.4464271760717
 30
0.0
 10
70.25983173414393
 20
233.266905822613
 30
0.0
 10
70.15718648931957
 20
233.0976240021698
 30
0.0
  0
ELLIPSE
  5
AA
330
70
100
AcDbEntity
  8
FESTOCOLM5T4
  6
Continuous
 62
     7
100
AcDbEllipse
 10
60.3572014003
 20
231.1470316
 30
0.0
 11
2.105510526403097
 21
-3.401003590589956
 31
0.0
210
0.0
220
0.0
230
1.0
 40
0.2722743359
 41
3.141592653589793
 42
6.283185307179585
  0
ELLIPSE
  5
AB
330
70
100
AcDbEntity
  8
FESTOCOLM5T4
  6
HIDDEN2
 62
     7
100
AcDbEllipse
 10
60.3572014003
 20
231.1470316
 30
0.0
 11
2.105510526403097
 21
-3.401003590589956
 31
0.0
210
0.0
220
0.0
230
1.0
 40
0.2722743359
 41
0.0
 42
3.141592653589793
  0
ELLIPSE
  5
AC
330
70
100
AcDbEntity
  8
FESTOCOLM5T4
  6
Continuous
 62
     7
100
AcDbEllipse
 10
58.9663835709
 20
230.2859970548
 30
0.0
 11
-2.555563401421761
 21
4.127968108078558
 31
0.0
210
0.0
220
0.0
230
1.0
 40
0.2722743359
 41
0.0
 42
3.141592653589789
  0
ELLIPSE
  5
AD
330
70
100
AcDbEntity
  8
FESTOCOLM5T4
  6
HIDDEN2
 62
     7
100
AcDbEllipse
 10
58.9663835709
 20
230.2859970548
 30
0.0
 11
-2.555563401421761
 21
4.127968108078558
 31
0.0
210
0.0
220
0.0
230
1.0
 40
0.2722743359
 41
3.141592653589789
 42
6.283185307179586
  0
ELLIPSE
  5
AE
330
70
100
AcDbEntity
  8
FESTOCOLM5T4
  6
Continuous
 62
     7
100
AcDbEllipse
 10
60.3572014003
 20
231.1470316
 30
0.0
 11
-2.555563401421761
 21
4.127968108078558
 31
0.0
210
0.0
220
0.0
230
1.0
 40
0.2722743359
 41
0.0
 42
3.744143008013825
  0
ELLIPSE
  5
AF
330
70
100
AcDbEntity
  8
FESTOCOLM5T4
  6
HIDDEN2
 62
     7
100
AcDbEllipse
 10
60.3572014003
 20
231.1470316
 30
0.0
 11
-2.555563401421761
 21
4.127968108078558
 31
0.0
210
0.0
220
0.0
230
1.0
 40
0.2722743359
 41
3.744143008013825
 42
5.680634952755536
  0
ELLIPSE
  5
B0
330
70
100
AcDbEntity
  8
FESTOCOLM5T4
  6
Continuous
 62
     7
100
AcDbEllipse
 10
60.3572014003
 20
231.1470316
 30
0.0
 11
-2.555563401421761
 21
4.127968108078558
 31
0.0
210
0.0
220
0.0
230
1.0
 40
0.2722743359
 41
5.680634952755536
 42
6.283185307179586
  0
ELLIPSE
  5
B1
330
70
100
AcDbEntity
  8
FESTOCOLM5T4
  6
HIDDEN2
 62
     7
100
AcDbEllipse
 10
67.1476649201
 20
235.3509061444
 30
0.0
 11
1.052755263201548
 21
-1.700501795294975
 31
0.0
210
0.0
220
0.0
230
1.0
 40
0.2722743359
 41
0.0
 42
6.283185307179586
  0
ELLIPSE
  5
B2
330
70
100
AcDbEntity
  8
FESTOCOLM5T4
  6
HIDDEN2
 62
     7
100
AcDbEllipse
 10
58.9663835709
 20
230.2859970548
 30
0.0
 11
-1.052755263201548
 21
1.700501795294975
 31
0.0
210
0.0
220
0.0
230
1.0
 40
0.2722743359
 41
0.0
 42
6.283185307179586
  0
LINE
  5
B3
330
70
100
AcDbEntity
  8
FESTOCOLM5T4
  6
Continuous
 62
     7
100
AcDbLine
 10
74.1342055113
 20
235.5597370789
 30
0.0
 11
72.2918838007
 21
238.5356152207
 31
0.0
  0
LINE
  5
B4
330
70
100
AcDbEntity
  8
FESTOCOLM5T4
  6
Continuous
 62
     7
100
AcDbLine
 10
67.6356205813
 20
240.3574859165
 30
0.0
 11
58.2516908739
 21
234.5480351906
 31
0.0
  0
LINE
  5
B5
330
70
100
AcDbEntity
  8
FESTOCOLM5T4
  6
Continuous
 62
     7
100
AcDbLine
 10
62.4627119267
 20
227.7460280094
 30
0.0
 11
68.0678696428
 21
231.2160974342
 31
0.0
  0
LINE
  5
B6
330
70
100
AcDbEntity
  8
FESTOCOLM5T4
  6
Continuous
 62
     7
100
AcDbLine
 10
61.5219469724
 20
226.1580289467
 30
0.0
 11
62.9127648017
 21
227.0190634919
 31
0.0
  0
LINE
  5
B7
330
70
100
AcDbEntity
  8
FESTOCOLM5T4
  6
Continuous
 62
     7
100
AcDbLine
 10
57.8016379989
 20
235.2749997081
 30
0.0
 11
56.4108201695
 21
234.4139651628
 31
0.0
  0
LINE
  5
B8
330
70
100
AcDbEntity
  8
FESTOCOLM5T4
  6
HIDDEN2
 62
     7
100
AcDbLine
 10
66.0949096569
 20
237.0514079397
 30
0.0
 11
57.9136283077
 21
231.98649885
 31
0.0
  0
LINE
  5
B9
330
70
100
AcDbEntity
  8
FESTOCOLM5T4
  6
HIDDEN2
 62
     7
100
AcDbLine
 10
60.0191388341
 20
228.5854952595
 30
0.0
 11
68.2004201833
 21
233.6504043492
 31
0.0
  0
CIRCLE
  5
BB
330
70
100
AcDbEntity
  8
X120MAS
  6
Continuous
 62
     7
100
AcDbCircle
 10
98.0847251317
 20
191.1734459378
 30
0.0
 40
16.64167623623266
  0
CIRCLE
  5
BC
330
70
100
AcDbEntity
  8
X120MAS
  6
Continuous
 62
     7
100
AcDbCircle
 10
98.0847251317
 20
191.1734459378
 30
0.0
 40
18.0
  0
CIRCLE
  5
BD
330
70
100
AcDbEntity
  8
X120MAS
  6
Continuous
 62
     7
100
AcDbCircle
 10
98.0847251317
 20
191.1734459378
 30
0.0
 40
20.71089414073988
  0
CIRCLE
  5
BE
330
70
100
AcDbEntity
  8
X120MAS
  6
Continuous
 62
     7
100
AcDbCircle
 10
98.0847251317
 20
191.1734459378
 30
0.0
 40
38.47959594232535
  0
CIRCLE
  5
BF
330
70
100
AcDbEntity
  8
X120MAS
  6
Continuous
 62
     7
100
AcDbCircle
 10
98.0847251317
 20
191.1734459378
 30
0.0
 40
40.22879228778744
  0
CIRCLE
  5
C0
330
70
100
AcDbEntity
  8
X120MAS
  6
Continuous
 62
     7
100
AcDbCircle
 10
98.0847251317
 20
191.1734459378
 30
0.0
 40
45.36089414073994
  0
CIRCLE
  5
C1
330
70
100
AcDbEntity
  8
X120MAS
  6
HIDDEN2
 62
     7
100
AcDbCircle
 10
98.0847251317
 20
191.1734459378
 30
0.0
 40
45.13505362253429
  0
CIRCLE
  5
C2
330
70
100
AcDbEntity
  8
X120MAS
  6
HIDDEN2
 62
     7
100
AcDbCircle
 10
98.0847251317
 20
191.1734459378
 30
0.0
 40
45.25905500000002
  0
CIRCLE
  5
C3
330
70
100
AcDbEntity
  8
X120MAS
  6
HIDDEN2
 62
     7
100
AcDbCircle
 10
98.0847251317
 20
191.1734459378
 30
0.0
 40
45.02905499999996
  0
CIRCLE
  5
C4
330
70
100
AcDbEntity
  8
X120MAS
  6
HIDDEN2
 62
     7
100
AcDbCircle
 10
98.0847251317
 20
191.1734459378
 30
0.0
 40
45.02999999999999
  0
CIRCLE
  5
C5
330
70
100
AcDbEntity
  8
X120MAS
  6
HIDDEN2
 62
     7
100
AcDbCircle
 10
98.0847251317
 20
191.1734459378
 30
0.0
 40
37.49999999999996
  0
CIRCLE
  5
C6
330
70
100
AcDbEntity
  8
X120MAS
  6
HIDDEN2
 62
     7
100
AcDbCircle
 10
98.0847251317
 20
191.1734459378
 30
0.0
 40
37.09230538262783
  0
CIRCLE
  5
C7
330
70
100
AcDbEntity
  8
X120MAS
  6
HIDDEN2
 62
     7
100
AcDbCircle
 10
98.0847251317
 20
191.1734459378
 30
0.0
 40
30.07807563869478
  0
CIRCLE
  5
C8
330
70
100
AcDbEntity
  8
X120MAS
  6
HIDDEN2
 62
     7
100
AcDbCircle
 10
98.0847251317
 20
191.1734459378
 30
0.0
 40
28.8500000097348
  0
CIRCLE
  5
C9
330
70
100
AcDbEntity
  8
X120MAS
  6
HIDDEN2
 62
     7
100
AcDbCircle
 10
98.0847251317
 20
191.1734459378
 30
0.0
 40
23.17621178866643
  0
ENDBLK
  5
CB
330
70
100
AcDbEntity
  8
0
100
AcDbBlockEnd
  0
BLOCK
  5
1DA
330
CC
100
AcDbEntity
  8
0
100
AcDbBlockBegin
  2
SE1
 70
     0
 10
0.0
 20
0.0
 30
0.0
  3
SE1
  1

  0
ARC
  5
CE
330
CC
100
AcDbEntity
  8
BRIDA120
  6
Continuous
 62
     7
100
AcDbCircle
 10
233.0161183296
 20
250.177310518
 30
0.0
 40
4.000000000000007
100
AcDbArc
 50
90.0
 51
180.0
  0
LINE
  5
CF
330
CC
100
AcDbEntity
  8
BRIDA120
  6
Continuous
 62
     7
100
AcDbLine
 10
233.0161183296
 20
254.1772493875
 30
0.0
 11
280.0161183296
 21
254.1772493875
 31
0.0
  0
ARC
  5
D0
330
CC
100
AcDbEntity
  8
BRIDA120
  6
Continuous
 62
     7
100
AcDbCircle
 10
280.0161183296
 20
250.177310518
 30
0.0
 40
3.999938869492313
100
AcDbArc
 50
0.0
 51
90.0
  0
LINE
  5
D1
330
CC
100
AcDbEntity
  8
BRIDA120
  6
HIDDEN2
 62
     7
100
AcDbLine
 10
274.0161183296
 20
237.1768223843
 30
0.0
 11
239.0161183296
 21
237.1768223843
 31
0.0
  0
ELLIPSE
  5
D2
330
CC
100
AcDbEntity
  8
BRIDA120
  6
Continuous
 62
     7
100
AcDbEllipse
 10
256.5161183296
 20
249.1766389927
 30
0.0
 11
-1.499999999991723
 21
-3.114885557387911E-7
 31
0.0
210
0.0
220
0.0
230
1.0
 40
0.9999847174
 41
0.0
 42
3.141592653589793
  0
ELLIPSE
  5
D3
330
CC
100
AcDbEntity
  8
BRIDA120
  6
HIDDEN2
 62
     7
100
AcDbEllipse
 10
256.5161183296
 20
249.1766389927
 30
0.0
 11
-1.499999999991723
 21
-3.114885557387911E-7
 31
0.0
210
0.0
220
0.0
230
1.0
 40
0.9999847174
 41
3.141592653589793
 42
6.283185307179582
  0
ELLIPSE
  5
D4
330
CC
100
AcDbEntity
  8
BRIDA120
  6
HIDDEN2
 62
     7
100
AcDbEllipse
 10
279.0161183296
 20
249.1766389927
 30
0.0
 11
1.50000000000412
 21
-1.559826455319297E-7
 31
0.0
210
0.0
220
0.0
230
1.0
 40
0.9999847174
 41
0.0000000000000083
 42
3.141595006275046
  0
ELLIPSE
  5
D5
330
CC
100
AcDbEntity
  8
BRIDA120
  6
Continuous
 62
     7
100
AcDbEllipse
 10
279.0161183296
 20
249.1766389927
 30
0.0
 11
1.50000000000412
 21
-1.559826455319297E-7
 31
0.0
210
0.0
220
0.0
230
1.0
 40
0.9999847174
 41
3.141595006275046
 42
6.283185307179586
  0
ELLIPSE
  5
D6
330
CC
100
AcDbEntity
  8
BRIDA120
  6
HIDDEN2
 62
     7
100
AcDbEllipse
 10
279.0161183296
 20
239.4672538331
 30
0.0
 11
1.500000000004123
 21
-1.559826455319297E-7
 31
0.0
210
0.0
220
0.0
230
1.0
 40
0.9999847174
 41
0.0000000000000083
 42
3.141595007218661
  0
ELLIPSE
  5
D7
330
CC
100
AcDbEntity
  8
BRIDA120
  6
Continuous
 62
     7
100
AcDbEllipse
 10
279.0161183296
 20
239.4672538331
 30
0.0
 11
1.500000000004123
 21
-1.559826455319297E-7
 31
0.0
210
0.0
220
0.0
230
1.0
 40
0.9999847174
 41
3.141595007218661
 42
6.283185307179586
  0
ELLIPSE
  5
D8
330
CC
100
AcDbEntity
  8
BRIDA120
  6
HIDDEN2
 62
     7
100
AcDbEllipse
 10
234.0161183296
 20
239.4672538331
 30
0.0
 11
1.500000000004121
 21
-1.559826455319297E-7
 31
0.0
210
0.0
220
0.0
230
1.0
 40
0.9999847174
 41
0.0
 42
3.141595004953368
  0
ELLIPSE
  5
D9
330
CC
100
AcDbEntity
  8
BRIDA120
  6
Continuous
 62
     7
100
AcDbEllipse
 10
234.0161183296
 20
239.4672538331
 30
0.0
 11
1.500000000004121
 21
-1.559826455319297E-7
 31
0.0
210
0.0
220
0.0
230
1.0
 40
0.9999847174
 41
3.141595004953368
 42
6.283185307179586
  0
ELLIPSE
  5
DA
330
CC
100
AcDbEntity
  8
BRIDA120
  6
HIDDEN2
 62
     7
100
AcDbEllipse
 10
234.0161183296
 20
249.1766389927
 30
0.0
 11
1.500000000004121
 21
-1.559826455319297E-7
 31
0.0
210
0.0
220
0.0
230
1.0
 40
0.9999847174
 41
0.0
 42
3.141595004953368
  0
ELLIPSE
  5
DB
330
CC
100
AcDbEntity
  8
BRIDA120
  6
Continuous
 62
     7
100
AcDbEllipse
 10
234.0161183296
 20
249.1766389927
 30
0.0
 11
1.500000000004121
 21
-1.559826455319297E-7
 31
0.0
210
0.0
220
0.0
230
1.0
 40
0.9999847174
 41
3.141595004953368
 42
6.283185307179586
  0
ELLIPSE
  5
DC
330
CC
100
AcDbEntity
  8
BRIDA120
  6
Continuous
 62
     7
100
AcDbEllipse
 10
234.0161183296
 20
249.1722161415
 30
0.0
 11
1.500000000004121
 21
-1.559826455319297E-7
 31
0.0
210
0.0
220
0.0
230
1.0
 40
0.9999847174
 41
0.0
 42
6.283185307179586
  0
ELLIPSE
  5
DD
330
CC
100
AcDbEntity
  8
BRIDA120
  6
Continuous
 62
     7
100
AcDbEllipse
 10
234.0161183296
 20
239.4628309818
 30
0.0
 11
1.500000000004125
 21
-1.560683803724449E-7
 31
0.0
210
0.0
220
0.0
230
1.0
 40
0.9999847174
 41
0.0
 42
6.283185307179586
  0
ELLIPSE
  5
DE
330
CC
100
AcDbEntity
  8
BRIDA120
  6
Continuous
 62
     7
100
AcDbEllipse
 10
279.0161183296
 20
239.4628309818
 30
0.0
 11
1.500000000004123
 21
-1.559826455319297E-7
 31
0.0
210
0.0
220
0.0
230
1.0
 40
0.9999847174
 41
0.0
 42
6.283185307179586
  0
ELLIPSE
  5
DF
330
CC
100
AcDbEntity
  8
BRIDA120
  6
Continuous
 62
     7
100
AcDbEllipse
 10
279.0161183296
 20
249.1722161415
 30
0.0
 11
-1.499999999994835
 21
-1.946274117870535E-7
 31
0.0
210
0.0
220
0.0
230
1.0
 40
0.9999847174
 41
0.0
 42
6.283185307179586
  0
ELLIPSE
  5
E0
330
CC
100
AcDbEntity
  8
BRIDA120
  6
Continuous
 62
     7
100
AcDbEllipse
 10
256.5161183296
 20
249.1722161415
 30
0.0
 11
-1.499999999991723
 21
-3.114885557387911E-7
 31
0.0
210
0.0
220
0.0
230
1.0
 40
0.9999847174
 41
0.0
 42
6.283185307179586
  0
LINE
  5
E1
330
CC
100
AcDbEntity
  8
BRIDA120
  6
Continuous
 62
     7
100
AcDbLine
 10
239.0161183296
 20
237.172399533
 30
0.0
 11
239.0161183296
 21
236.9727459935
 31
0.0
  0
LINE
  5
E2
330
CC
100
AcDbEntity
  8
BRIDA120
  6
Continuous
 62
     7
100
AcDbLine
 10
274.0161183296
 20
237.172399533
 30
0.0
 11
239.0161183296
 21
237.172399533
 31
0.0
  0
LINE
  5
E3
330
CC
100
AcDbEntity
  8
BRIDA120
  6
HIDDEN2
 62
     7
100
AcDbLine
 10
284.0161183296
 20
236.1724148157
 30
0.0
 11
274.0161183296
 21
236.1724148157
 31
0.0
  0
LINE
  5
E4
330
CC
100
AcDbEntity
  8
BRIDA120
  6
Continuous
 62
     7
100
AcDbLine
 10
284.0161183296
 20
250.1728876668
 30
0.0
 11
284.0161183296
 21
236.9727459935
 31
0.0
  0
ARC
  5
E5
330
CC
100
AcDbEntity
  8
BRIDA120
  6
Continuous
 62
     7
100
AcDbCircle
 10
280.0161183296
 20
250.1728876668
 30
0.0
 40
3.999938869492327
100
AcDbArc
 50
0.0
 51
90.0
  0
LINE
  5
E6
330
CC
100
AcDbEntity
  8
BRIDA120
  6
Continuous
 62
     7
100
AcDbLine
 10
233.0161183296
 20
254.1728265363
 30
0.0
 11
280.0161183296
 21
254.1728265363
 31
0.0
  0
ARC
  5
E7
330
CC
100
AcDbEntity
  8
BRIDA120
  6
Continuous
 62
     7
100
AcDbCircle
 10
233.0161183296
 20
250.1728876668
 30
0.0
 40
4.000000000000007
100
AcDbArc
 50
90.0
 51
180.0
  0
LINE
  5
E8
330
CC
100
AcDbEntity
  8
BRIDA120
  6
HIDDEN2
 62
     7
100
AcDbLine
 10
239.0161183296
 20
236.1724148157
 30
0.0
 11
229.0161183296
 21
236.1724148157
 31
0.0
  0
LINE
  5
E9
330
CC
100
AcDbEntity
  8
BRIDA120
  6
HIDDEN2
 62
     7
100
AcDbLine
 10
239.0161183296
 20
237.1768223843
 30
0.0
 11
239.0161183296
 21
237.172399533
 31
0.0
  0
LINE
  5
EA
330
CC
100
AcDbEntity
  8
BRIDA120
  6
HIDDEN2
 62
     7
100
AcDbLine
 10
274.0161183296
 20
237.1768223843
 30
0.0
 11
274.0161183296
 21
237.172399533
 31
0.0
  0
LINE
  5
EB
330
CC
100
AcDbEntity
  8
BRIDA120
  6
Continuous
 62
     7
100
AcDbLine
 10
284.0161183296
 20
250.177310518
 30
0.0
 11
284.0161183296
 21
250.1728876668
 31
0.0
  0
LINE
  5
EC
330
CC
100
AcDbEntity
  8
BRIDA120
  6
Continuous
 62
     7
100
AcDbLine
 10
229.0161183296
 20
250.177310518
 30
0.0
 11
229.0161183296
 21
250.1728876668
 31
0.0
  0
ELLIPSE
  5
ED
330
CC
100
AcDbEntity
  8
BRIDA120
  6
Continuous
 62
     7
100
AcDbEllipse
 10
234.0161183296
 20
142.888483745
 30
0.0
 11
1.500000000004121
 21
1.559826454897851E-7
 31
0.0
210
0.0
220
0.0
230
1.0
 40
0.9999847174
 41
3.141590300432695
 42
6.283185307179586
  0
ELLIPSE
  5
EE
330
CC
100
AcDbEntity
  8
BRIDA120
  6
HIDDEN2
 62
     7
100
AcDbEllipse
 10
234.0161183296
 20
142.888483745
 30
0.0
 11
1.500000000004121
 21
1.559826454897851E-7
 31
0.0
210
0.0
220
0.0
230
1.0
 40
0.9999847174
 41
0.0
 42
3.141590300432695
  0
ELLIPSE
  5
EF
330
CC
100
AcDbEntity
  8
BRIDA120
  6
HIDDEN2
 62
     7
100
AcDbEllipse
 10
279.0161183296
 20
142.888483745
 30
0.0
 11
-1.499999999997941
 21
7.776093420317232E-8
 31
0.0
210
0.0
220
0.0
230
1.0
 40
0.9999847174
 41
3.141592705431208
 42
6.283185307179586
  0
ELLIPSE
  5
F0
330
CC
100
AcDbEntity
  8
BRIDA120
  6
Continuous
 62
     7
100
AcDbEllipse
 10
279.0161183296
 20
142.888483745
 30
0.0
 11
-1.499999999997941
 21
7.776093420317232E-8
 31
0.0
210
0.0
220
0.0
230
1.0
 40
0.9999847174
 41
0.0000000000000122
 42
3.141592705431208
  0
ELLIPSE
  5
F1
330
CC
100
AcDbEntity
  8
BRIDA120
  6
Continuous
 62
     7
100
AcDbEllipse
 10
279.0161183296
 20
133.1790985853
 30
0.0
 11
1.50000000000412
 21
1.559826454897851E-7
 31
0.0
210
0.0
220
0.0
230
1.0
 40
0.9999847174
 41
3.141590300904521
 42
6.283185307179586
  0
ELLIPSE
  5
F2
330
CC
100
AcDbEntity
  8
BRIDA120
  6
HIDDEN2
 62
     7
100
AcDbEllipse
 10
279.0161183296
 20
133.1790985853
 30
0.0
 11
1.50000000000412
 21
1.559826454897851E-7
 31
0.0
210
0.0
220
0.0
230
1.0
 40
0.9999847174
 41
0.0000000000000106
 42
3.141590300904521
  0
ELLIPSE
  5
F3
330
CC
100
AcDbEntity
  8
BRIDA120
  6
Continuous
 62
     7
100
AcDbEllipse
 10
256.5161183296
 20
133.1790985853
 30
0.0
 11
1.500000000004121
 21
1.560147921219927E-7
 31
0.0
210
0.0
220
0.0
230
1.0
 40
0.9999847174
 41
3.141590305722794
 42
6.283185307179586
  0
ELLIPSE
  5
F4
330
CC
100
AcDbEntity
  8
BRIDA120
  6
HIDDEN2
 62
     7
100
AcDbEllipse
 10
256.5161183296
 20
133.1790985853
 30
0.0
 11
1.500000000004121
 21
1.560147921219927E-7
 31
0.0
210
0.0
220
0.0
230
1.0
 40
0.9999847174
 41
0.0
 42
3.141590305722794
  0
ELLIPSE
  5
F5
330
CC
100
AcDbEntity
  8
BRIDA120
  6
HIDDEN2
 62
     7
100
AcDbEllipse
 10
234.0161183296
 20
133.1790985853
 30
0.0
 11
-1.500000000004121
 21
1.560201540533109E-7
 31
0.0
210
0.0
220
0.0
230
1.0
 40
0.9999847174
 41
3.141595005095012
 42
6.283185307179586
  0
ELLIPSE
  5
F6
330
CC
100
AcDbEntity
  8
BRIDA120
  6
Continuous
 62
     7
100
AcDbEllipse
 10
234.0161183296
 20
133.1790985853
 30
0.0
 11
-1.500000000004121
 21
1.560201540533109E-7
 31
0.0
210
0.0
220
0.0
230
1.0
 40
0.9999847174
 41
0.0
 42
3.141595005095012
  0
LINE
  5
F7
330
CC
100
AcDbEntity
  8
BRIDA120
  6
Continuous
 62
     7
100
AcDbLine
 10
274.0161183296
 20
145.1789151938
 30
0.0
 11
239.0161183296
 21
145.1789151938
 31
0.0
  0
ARC
  5
F8
330
CC
100
AcDbEntity
  8
BRIDA120
  6
HIDDEN2
 62
     7
100
AcDbCircle
 10
280.0161183296
 20
132.1784270601
 30
0.0
 40
3.99993886949232
100
AcDbArc
 50
270.0
 51
0.0
  0
LINE
  5
F9
330
CC
100
AcDbEntity
  8
BRIDA120
  6
HIDDEN2
 62
     7
100
AcDbLine
 10
233.0161183296
 20
128.1784881906
 30
0.0
 11
280.0161183296
 21
128.1784881906
 31
0.0
  0
ARC
  5
FA
330
CC
100
AcDbEntity
  8
BRIDA120
  6
HIDDEN2
 62
     7
100
AcDbCircle
 10
233.0161183296
 20
132.1784270601
 30
0.0
 40
4.000000000000007
100
AcDbArc
 50
180.0
 51
270.0
  0
ELLIPSE
  5
FB
330
CC
100
AcDbEntity
  8
BRIDA120
  6
Continuous
 62
     7
100
AcDbEllipse
 10
234.0161183296
 20
142.8840608938
 30
0.0
 11
1.500000000004125
 21
1.560683803303003E-7
 31
0.0
210
0.0
220
0.0
230
1.0
 40
0.9999847174
 41
0.0
 42
6.283185307179586
  0
ELLIPSE
  5
FC
330
CC
100
AcDbEntity
  8
BRIDA120
  6
Continuous
 62
     7
100
AcDbEllipse
 10
279.0161183296
 20
142.8840608938
 30
0.0
 11
1.500000000004123
 21
1.560683803303003E-7
 31
0.0
210
0.0
220
0.0
230
1.0
 40
0.9999847174
 41
0.0
 42
6.283185307179586
  0
ELLIPSE
  5
FD
330
CC
100
AcDbEntity
  8
BRIDA120
  6
Continuous
 62
     7
100
AcDbEllipse
 10
279.0161183296
 20
133.1746757341
 30
0.0
 11
1.50000000000412
 21
1.559826454897851E-7
 31
0.0
210
0.0
220
0.0
230
1.0
 40
0.9999847174
 41
0.0
 42
6.283185307179586
  0
ELLIPSE
  5
FE
330
CC
100
AcDbEntity
  8
BRIDA120
  6
Continuous
 62
     7
100
AcDbEllipse
 10
256.5161183296
 20
133.1746757341
 30
0.0
 11
1.500000000004121
 21
1.560147921219927E-7
 31
0.0
210
0.0
220
0.0
230
1.0
 40
0.9999847174
 41
0.0
 42
6.283185307179586
  0
ELLIPSE
  5
FF
330
CC
100
AcDbEntity
  8
BRIDA120
  6
Continuous
 62
     7
100
AcDbEllipse
 10
234.0161183296
 20
133.1746757341
 30
0.0
 11
1.500000000004121
 21
1.559826454897851E-7
 31
0.0
210
0.0
220
0.0
230
1.0
 40
0.9999847174
 41
0.0
 42
6.283185307179586
  0
LINE
  5
100
330
CC
100
AcDbEntity
  8
BRIDA120
  6
Continuous
 62
     7
100
AcDbLine
 10
239.0161183296
 20
145.1744923426
 30
0.0
 11
239.0161183296
 21
145.3734459378
 31
0.0
  0
LINE
  5
101
330
CC
100
AcDbEntity
  8
BRIDA120
  6
HIDDEN2
 62
     7
100
AcDbLine
 10
239.0161183296
 20
145.3734459378
 30
0.0
 11
239.0161183296
 21
145.3741458821
 31
0.0
  0
LINE
  5
102
330
CC
100
AcDbEntity
  8
BRIDA120
  6
Continuous
 62
     7
100
AcDbLine
 10
274.0161183296
 20
145.1744923426
 30
0.0
 11
239.0161183296
 21
145.1744923426
 31
0.0
  0
LINE
  5
103
330
CC
100
AcDbEntity
  8
BRIDA120
  6
HIDDEN2
 62
     7
100
AcDbLine
 10
284.0161183296
 20
146.17447706
 30
0.0
 11
274.0161183296
 21
146.17447706
 31
0.0
  0
LINE
  5
104
330
CC
100
AcDbEntity
  8
BRIDA120
  6
Continuous
 62
     7
100
AcDbLine
 10
284.0161183296
 20
132.1740042089
 30
0.0
 11
284.0161183296
 21
145.3734459378
 31
0.0
  0
ARC
  5
105
330
CC
100
AcDbEntity
  8
BRIDA120
  6
Continuous
 62
     7
100
AcDbCircle
 10
280.0161183296
 20
132.1740042089
 30
0.0
 40
3.999938869492314
100
AcDbArc
 50
270.0
 51
0.0
  0
LINE
  5
106
330
CC
100
AcDbEntity
  8
BRIDA120
  6
Continuous
 62
     7
100
AcDbLine
 10
233.0161183296
 20
128.1740653394
 30
0.0
 11
280.0161183296
 21
128.1740653394
 31
0.0
  0
ARC
  5
107
330
CC
100
AcDbEntity
  8
BRIDA120
  6
Continuous
 62
     7
100
AcDbCircle
 10
233.0161183296
 20
132.1740042089
 30
0.0
 40
4.000000000000007
100
AcDbArc
 50
180.0
 51
270.0
  0
LINE
  5
108
330
CC
100
AcDbEntity
  8
BRIDA120
  6
HIDDEN2
 62
     7
100
AcDbLine
 10
239.0161183296
 20
146.17447706
 30
0.0
 11
229.0161183296
 21
146.17447706
 31
0.0
  0
LINE
  5
109
330
CC
100
AcDbEntity
  8
BRIDA120
  6
Continuous
 62
     7
100
AcDbLine
 10
229.0161183296
 20
145.3734459378
 30
0.0
 11
229.0161183296
 21
132.1740042089
 31
0.0
  0
LINE
  5
10A
330
CC
100
AcDbEntity
  8
BRIDA120
  6
HIDDEN2
 62
     7
100
AcDbLine
 10
274.0161183296
 20
145.3741458821
 30
0.0
 11
274.0161183296
 21
145.3734459378
 31
0.0
  0
LINE
  5
10B
330
CC
100
AcDbEntity
  8
BRIDA120
  6
Continuous
 62
     7
100
AcDbLine
 10
274.0161183296
 20
145.3734459378
 30
0.0
 11
274.0161183296
 21
145.1744923426
 31
0.0
  0
LINE
  5
10C
330
CC
100
AcDbEntity
  8
BRIDA120
  6
HIDDEN2
 62
     7
100
AcDbLine
 10
239.0161183296
 20
145.3741458821
 30
0.0
 11
229.0161183296
 21
145.3741458821
 31
0.0
  0
LINE
  5
10D
330
CC
100
AcDbEntity
  8
BRIDA120
  6
HIDDEN2
 62
     7
100
AcDbLine
 10
284.0161183296
 20
145.3741458821
 30
0.0
 11
274.0161183296
 21
145.3741458821
 31
0.0
  0
LINE
  5
10E
330
CC
100
AcDbEntity
  8
BRIDA120
  6
HIDDEN2
 62
     7
100
AcDbLine
 10
239.0161183296
 20
146.174133656
 30
0.0
 11
229.0161183296
 21
146.174133656
 31
0.0
  0
LINE
  5
10F
330
CC
100
AcDbEntity
  8
BRIDA120
  6
HIDDEN2
 62
     7
100
AcDbLine
 10
284.0161183296
 20
146.174133656
 30
0.0
 11
274.0161183296
 21
146.174133656
 31
0.0
  0
LINE
  5
110
330
CC
100
AcDbEntity
  8
BRIDA120
  6
Continuous
 62
     7
100
AcDbLine
 10
274.0161183296
 20
236.9727459935
 30
0.0
 11
274.0161183296
 21
237.172399533
 31
0.0
  0
LINE
  5
111
330
CC
100
AcDbEntity
  8
BRIDA120
  6
Continuous
 62
     7
100
AcDbLine
 10
229.0161183296
 20
236.9727459935
 30
0.0
 11
229.0161183296
 21
250.1728876668
 31
0.0
  0
LINE
  5
112
330
CC
100
AcDbEntity
  8
BRIDA120
  6
HIDDEN2
 62
     7
100
AcDbLine
 10
229.0161183296
 20
146.1754489983
 30
0.0
 11
239.0161183296
 21
146.1754489983
 31
0.0
  0
LINE
  5
113
330
CC
100
AcDbEntity
  8
BRIDA120
  6
HIDDEN2
 62
     7
100
AcDbLine
 10
274.0161183296
 20
146.1754489983
 30
0.0
 11
284.0161183296
 21
146.1754489983
 31
0.0
  0
LINE
  5
114
330
CC
100
AcDbEntity
  8
BRIDA120
  6
HIDDEN2
 62
     7
100
AcDbLine
 10
274.0161183296
 20
236.173386754
 30
0.0
 11
284.0161183296
 21
236.173386754
 31
0.0
  0
LINE
  5
115
330
CC
100
AcDbEntity
  8
BRIDA120
  6
HIDDEN2
 62
     7
100
AcDbLine
 10
284.0161183296
 20
236.1727582196
 30
0.0
 11
274.0161183296
 21
236.1727582196
 31
0.0
  0
LINE
  5
116
330
CC
100
AcDbEntity
  8
BRIDA120
  6
HIDDEN2
 62
     7
100
AcDbLine
 10
284.0161183296
 20
236.9701815189
 30
0.0
 11
274.0161183296
 21
236.9701815189
 31
0.0
  0
LINE
  5
117
330
CC
100
AcDbEntity
  8
BRIDA120
  6
HIDDEN2
 62
     7
100
AcDbLine
 10
239.0161183296
 20
236.9701815189
 30
0.0
 11
229.0161183296
 21
236.9701815189
 31
0.0
  0
LINE
  5
118
330
CC
100
AcDbEntity
  8
BRIDA120
  6
HIDDEN2
 62
     7
100
AcDbLine
 10
284.0161183296
 20
145.3855560591
 30
0.0
 11
274.0161183296
 21
145.3855560591
 31
0.0
  0
LINE
  5
119
330
CC
100
AcDbEntity
  8
BRIDA120
  6
Continuous
 62
     7
100
AcDbLine
 10
284.0161183296
 20
145.3734459378
 30
0.0
 11
284.0161183296
 21
236.9727459935
 31
0.0
  0
LINE
  5
11A
330
CC
100
AcDbEntity
  8
BRIDA120
  6
Continuous
 62
     7
100
AcDbLine
 10
284.0161183296
 20
236.9727459935
 30
0.0
 11
274.0161183296
 21
236.9727459935
 31
0.0
  0
LINE
  5
11B
330
CC
100
AcDbEntity
  8
BRIDA120
  6
HIDDEN2
 62
     7
100
AcDbLine
 10
274.0161183296
 20
236.9727459935
 30
0.0
 11
274.0161183296
 21
236.9701815189
 31
0.0
  0
LINE
  5
11C
330
CC
100
AcDbEntity
  8
BRIDA120
  6
HIDDEN2
 62
     7
100
AcDbLine
 10
239.0161183296
 20
236.9701815189
 30
0.0
 11
239.0161183296
 21
236.9727459935
 31
0.0
  0
LINE
  5
11D
330
CC
100
AcDbEntity
  8
BRIDA120
  6
Continuous
 62
     7
100
AcDbLine
 10
239.0161183296
 20
236.9727459935
 30
0.0
 11
229.0161183296
 21
236.9727459935
 31
0.0
  0
LINE
  5
11E
330
CC
100
AcDbEntity
  8
BRIDA120
  6
HIDDEN2
 62
     7
100
AcDbLine
 10
239.0161183296
 20
145.3855560591
 30
0.0
 11
229.0161183296
 21
145.3855560591
 31
0.0
  0
LINE
  5
11F
330
CC
100
AcDbEntity
  8
BRIDA120
  6
HIDDEN2
 62
     7
100
AcDbLine
 10
274.0161183296
 20
145.3741458821
 30
0.0
 11
274.0161183296
 21
145.3767103567
 31
0.0
  0
LINE
  5
120
330
CC
100
AcDbEntity
  8
BRIDA120
  6
Continuous
 62
     7
100
AcDbLine
 10
229.0161183296
 20
145.3734459378
 30
0.0
 11
229.0161183296
 21
236.9727459935
 31
0.0
  0
LINE
  5
121
330
CC
100
AcDbEntity
  8
BRIDA120
  6
HIDDEN2
 62
     7
100
AcDbLine
 10
229.0161183296
 20
236.173386754
 30
0.0
 11
239.0161183296
 21
236.173386754
 31
0.0
  0
LINE
  5
122
330
CC
100
AcDbEntity
  8
BRIDA120
  6
HIDDEN2
 62
     7
100
AcDbLine
 10
239.0161183296
 20
236.1727582196
 30
0.0
 11
229.0161183296
 21
236.1727582196
 31
0.0
  0
LINE
  5
123
330
CC
100
AcDbEntity
  8
BRIDA120
  6
HIDDEN2
 62
     7
100
AcDbLine
 10
239.0161183296
 20
145.3767103567
 30
0.0
 11
239.0161183296
 21
145.3741458821
 31
0.0
  0
LINE
  5
124
330
CC
100
AcDbEntity
  8
BRIDA120
  6
Continuous
 62
     7
100
AcDbLine
 10
274.0161183296
 20
145.3855560591
 30
0.0
 11
239.0161183296
 21
145.3855560591
 31
0.0
  0
LINE
  5
125
330
CC
100
AcDbEntity
  8
BRIDA120
  6
Continuous
 62
     7
100
AcDbLine
 10
239.0161183296
 20
145.3767103567
 30
0.0
 11
274.0161183296
 21
145.3767103567
 31
0.0
  0
LINE
  5
126
330
CC
100
AcDbEntity
  8
BRIDA120
  6
Continuous
 62
     7
100
AcDbLine
 10
274.0161183296
 20
145.3767103567
 30
0.0
 11
274.0161183296
 21
236.9613358165
 31
0.0
  0
LINE
  5
127
330
CC
100
AcDbEntity
  8
BRIDA120
  6
HIDDEN2
 62
     7
100
AcDbLine
 10
274.0161183296
 20
236.9613358165
 30
0.0
 11
274.0161183296
 21
236.9701815189
 31
0.0
  0
LINE
  5
128
330
CC
100
AcDbEntity
  8
BRIDA120
  6
HIDDEN2
 62
     7
100
AcDbLine
 10
239.0161183296
 20
236.9701815189
 30
0.0
 11
274.0161183296
 21
236.9701815189
 31
0.0
  0
LINE
  5
129
330
CC
100
AcDbEntity
  8
BRIDA120
  6
HIDDEN2
 62
     7
100
AcDbLine
 10
239.0161183296
 20
236.9613358165
 30
0.0
 11
239.0161183296
 21
236.9701815189
 31
0.0
  0
LINE
  5
12A
330
CC
100
AcDbEntity
  8
BRIDA120
  6
Continuous
 62
     7
100
AcDbLine
 10
239.0161183296
 20
236.9613358165
 30
0.0
 11
239.0161183296
 21
145.3767103567
 31
0.0
  0
LINE
  5
12B
330
CC
100
AcDbEntity
  8
BRIDA120
  6
Continuous
 62
     7
100
AcDbLine
 10
274.0161183296
 20
236.9613358165
 30
0.0
 11
239.0161183296
 21
236.9613358165
 31
0.0
  0
LINE
  5
12C
330
CC
100
AcDbEntity
  8
BRIDA120
  6
HIDDEN2
 62
     7
100
AcDbLine
 10
235.5161183296
 20
249.1722161415
 30
0.0
 11
235.5161183296
 21
249.1766389927
 31
0.0
  0
LINE
  5
12D
330
CC
100
AcDbEntity
  8
BRIDA120
  6
HIDDEN2
 62
     7
100
AcDbLine
 10
232.5161183296
 20
249.1766389927
 30
0.0
 11
232.5161183296
 21
249.1722161415
 31
0.0
  0
LINE
  5
12E
330
CC
100
AcDbEntity
  8
BRIDA120
  6
HIDDEN2
 62
     7
100
AcDbLine
 10
235.5161183296
 20
239.4628309818
 30
0.0
 11
235.5161183296
 21
239.4672538331
 31
0.0
  0
LINE
  5
12F
330
CC
100
AcDbEntity
  8
BRIDA120
  6
HIDDEN2
 62
     7
100
AcDbLine
 10
232.5161183296
 20
239.4672538331
 30
0.0
 11
232.5161183296
 21
239.4628309818
 31
0.0
  0
LINE
  5
130
330
CC
100
AcDbEntity
  8
BRIDA120
  6
HIDDEN2
 62
     7
100
AcDbLine
 10
280.5161183296
 20
239.4628309818
 30
0.0
 11
280.5161183296
 21
239.4672538331
 31
0.0
  0
LINE
  5
131
330
CC
100
AcDbEntity
  8
BRIDA120
  6
HIDDEN2
 62
     7
100
AcDbLine
 10
277.5161183296
 20
239.4672538331
 30
0.0
 11
277.5161183296
 21
239.4628309818
 31
0.0
  0
LINE
  5
132
330
CC
100
AcDbEntity
  8
BRIDA120
  6
HIDDEN2
 62
     7
100
AcDbLine
 10
280.5161183296
 20
249.1722161415
 30
0.0
 11
280.5161183296
 21
249.1766389927
 31
0.0
  0
LINE
  5
133
330
CC
100
AcDbEntity
  8
BRIDA120
  6
HIDDEN2
 62
     7
100
AcDbLine
 10
277.5161183296
 20
249.1766389927
 30
0.0
 11
277.5161183296
 21
249.1722161415
 31
0.0
  0
LINE
  5
134
330
CC
100
AcDbEntity
  8
BRIDA120
  6
HIDDEN2
 62
     7
100
AcDbLine
 10
258.0161183296
 20
249.1722161415
 30
0.0
 11
258.0161183296
 21
249.1766389927
 31
0.0
  0
LINE
  5
135
330
CC
100
AcDbEntity
  8
BRIDA120
  6
HIDDEN2
 62
     7
100
AcDbLine
 10
255.0161183296
 20
249.1766389927
 30
0.0
 11
255.0161183296
 21
249.1722161415
 31
0.0
  0
LINE
  5
136
330
CC
100
AcDbEntity
  8
BRIDA120
  6
HIDDEN2
 62
     7
100
AcDbLine
 10
235.5161183296
 20
133.1746757341
 30
0.0
 11
235.5161183296
 21
133.1790985853
 31
0.0
  0
LINE
  5
137
330
CC
100
AcDbEntity
  8
BRIDA120
  6
HIDDEN2
 62
     7
100
AcDbLine
 10
232.5161183296
 20
133.1790985853
 30
0.0
 11
232.5161183296
 21
133.1746757341
 31
0.0
  0
LINE
  5
138
330
CC
100
AcDbEntity
  8
BRIDA120
  6
HIDDEN2
 62
     7
100
AcDbLine
 10
258.0161183296
 20
133.1746757341
 30
0.0
 11
258.0161183296
 21
133.1790985853
 31
0.0
  0
LINE
  5
139
330
CC
100
AcDbEntity
  8
BRIDA120
  6
HIDDEN2
 62
     7
100
AcDbLine
 10
255.0161183296
 20
133.1790985853
 30
0.0
 11
255.0161183296
 21
133.1746757341
 31
0.0
  0
LINE
  5
13A
330
CC
100
AcDbEntity
  8
BRIDA120
  6
HIDDEN2
 62
     7
100
AcDbLine
 10
280.5161183296
 20
133.1746757341
 30
0.0
 11
280.5161183296
 21
133.1790985853
 31
0.0
  0
LINE
  5
13B
330
CC
100
AcDbEntity
  8
BRIDA120
  6
HIDDEN2
 62
     7
100
AcDbLine
 10
277.5161183296
 20
133.1790985853
 30
0.0
 11
277.5161183296
 21
133.1746757341
 31
0.0
  0
LINE
  5
13C
330
CC
100
AcDbEntity
  8
BRIDA120
  6
HIDDEN2
 62
     7
100
AcDbLine
 10
280.5161183296
 20
142.8840608938
 30
0.0
 11
280.5161183296
 21
142.888483745
 31
0.0
  0
LINE
  5
13D
330
CC
100
AcDbEntity
  8
BRIDA120
  6
HIDDEN2
 62
     7
100
AcDbLine
 10
277.5161183296
 20
142.888483745
 30
0.0
 11
277.5161183296
 21
142.8840608938
 31
0.0
  0
LINE
  5
13E
330
CC
100
AcDbEntity
  8
BRIDA120
  6
HIDDEN2
 62
     7
100
AcDbLine
 10
235.5161183296
 20
142.8840608938
 30
0.0
 11
235.5161183296
 21
142.888483745
 31
0.0
  0
LINE
  5
13F
330
CC
100
AcDbEntity
  8
BRIDA120
  6
HIDDEN2
 62
     7
100
AcDbLine
 10
232.5161183296
 20
142.888483745
 30
0.0
 11
232.5161183296
 21
142.8840608938
 31
0.0
  0
LINE
  5
140
330
CC
100
AcDbEntity
  8
BRIDA120
  6
Continuous
 62
     7
100
AcDbLine
 10
274.0161183296
 20
236.9734459378
 30
0.0
 11
239.0161183296
 21
236.9734459378
 31
0.0
  0
LINE
  5
141
330
CC
100
AcDbEntity
  8
BRIDA120
  6
Continuous
 62
     7
100
AcDbLine
 10
229.0161183296
 20
145.3734459378
 30
0.0
 11
284.0161183296
 21
145.3734459378
 31
0.0
  0
LINE
  5
142
330
CC
100
AcDbEntity
  8
BRIDA120
  6
HIDDEN2
 62
     7
100
AcDbLine
 10
284.0161183296
 20
236.1734459378
 30
0.0
 11
274.0161183296
 21
236.1734459378
 31
0.0
  0
LINE
  5
143
330
CC
100
AcDbEntity
  8
BRIDA120
  6
HIDDEN2
 62
     7
100
AcDbLine
 10
274.0161183296
 20
146.1734459378
 30
0.0
 11
284.0161183296
 21
146.1734459378
 31
0.0
  0
LINE
  5
144
330
CC
100
AcDbEntity
  8
BRIDA120
  6
HIDDEN2
 62
     7
100
AcDbLine
 10
229.0161183296
 20
146.1734459378
 30
0.0
 11
239.0161183296
 21
146.1734459378
 31
0.0
  0
LINE
  5
145
330
CC
100
AcDbEntity
  8
BRIDA120
  6
HIDDEN2
 62
     7
100
AcDbLine
 10
239.0161183296
 20
236.1734459378
 30
0.0
 11
229.0161183296
 21
236.1734459378
 31
0.0
  0
LINE
  5
146
330
CC
100
AcDbEntity
  8
M3X8
  6
HIDDEN2
 62
     7
100
AcDbLine
 10
201.0347400601
 20
223.1637394201
 30
0.0
 11
201.0347400601
 21
225.4424510915
 31
0.0
  0
LINE
  5
147
330
CC
100
AcDbEntity
  8
M3X8
  6
Continuous
 62
     7
100
AcDbLine
 10
199.1735325891
 20
221.8715324045
 30
0.0
 11
199.1735325891
 21
226.7346581072
 31
0.0
  0
LINE
  5
148
330
CC
100
AcDbEntity
  8
M3X8
  6
HIDDEN2
 62
     7
100
AcDbLine
 10
201.0347400601
 20
225.4424510915
 30
0.0
 11
199.4823067316
 21
225.4424510915
 31
0.0
  0
LINE
  5
149
330
CC
100
AcDbEntity
  8
M3X8
  6
HIDDEN2
 62
     7
100
AcDbLine
 10
199.4823067316
 20
223.1637394201
 30
0.0
 11
201.0347400601
 21
223.1637394201
 31
0.0
  0
ARC
  5
14A
330
CC
100
AcDbEntity
  8
M3X8
  6
HIDDEN2
 62
     7
100
AcDbCircle
 10
199.4823067316
 20
225.751225234
 30
0.0
 40
0.3087741424768075
100
AcDbArc
 50
180.0
 51
270.0
  0
ARC
  5
14B
330
CC
100
AcDbEntity
  8
M3X8
  6
HIDDEN2
 62
     7
100
AcDbCircle
 10
199.4823067316
 20
222.8549652777
 30
0.0
 40
0.3087741424768059
100
AcDbArc
 50
90.0
 51
180.0
  0
ARC
  5
14C
330
CC
100
AcDbEntity
  8
M3X8
  6
Continuous
 62
     7
100
AcDbCircle
 10
199.4919697377
 20
226.7346581072
 30
0.0
 40
0.3184371486538572
100
AcDbArc
 50
90.0
 51
180.0
  0
ARC
  5
14D
330
CC
100
AcDbEntity
  8
M3X8
  6
Continuous
 62
     7
100
AcDbCircle
 10
199.4919697377
 20
221.8715324045
 30
0.0
 40
0.3184371486538579
100
AcDbArc
 50
180.0
 51
270.0
  0
LINE
  5
14E
330
CC
100
AcDbEntity
  8
M3X8
  6
Continuous
 62
     7
100
AcDbLine
 10
202.0911742568
 20
227.0530952558
 30
0.0
 11
199.4919697377
 21
227.0530952558
 31
0.0
  0
LINE
  5
14F
330
CC
100
AcDbEntity
  8
M3X8
  6
Continuous
 62
     7
100
AcDbLine
 10
199.4919697377
 20
221.5530952558
 30
0.0
 11
202.0911742568
 21
221.5530952558
 31
0.0
  0
ARC
  5
150
330
CC
100
AcDbEntity
  8
M3X8
  6
Continuous
 62
     7
100
AcDbCircle
 10
202.0911742568
 20
226.9707369236
 30
0.0
 40
0.0823583322504262
100
AcDbArc
 50
0.0
 51
90.0
  0
ARC
  5
151
330
CC
100
AcDbEntity
  8
M3X8
  6
Continuous
 62
     7
100
AcDbCircle
 10
202.0911742568
 20
221.6354535881
 30
0.0
 40
0.0823583322504259
100
AcDbArc
 50
270.0
 51
0.0
  0
LINE
  5
152
330
CC
100
AcDbEntity
  8
M3X8
  6
HIDDEN2
 62
     7
100
AcDbLine
 10
202.1735325891
 20
222.8030952558
 30
0.0
 11
202.1735325891
 21
223.1080952558
 31
0.0
  0
LINE
  5
153
330
CC
100
AcDbEntity
  8
M3X8
  6
HIDDEN2
 62
     7
100
AcDbLine
 10
202.1735325891
 20
225.8030952558
 30
0.0
 11
202.1735325891
 21
225.4980952558
 31
0.0
  0
LINE
  5
154
330
CC
100
AcDbEntity
  8
PCB120
  6
HIDDEN2
 62
     7
100
AcDbLine
 10
302.3911797441
 20
198.9190661901
 30
0.0
 11
300.8911797441
 21
198.9190661901
 31
0.0
  0
LINE
  5
155
330
CC
100
AcDbEntity
  8
PCB120
  6
HIDDEN2
 62
     7
100
AcDbLine
 10
302.3911797441
 20
198.9550029978
 30
0.0
 11
300.8911797441
 21
198.9550029978
 31
0.0
  0
LINE
  5
156
330
CC
100
AcDbEntity
  8
PCB120
  6
HIDDEN2
 62
     7
100
AcDbLine
 10
302.3911797441
 20
184.3248265887
 30
0.0
 11
300.8911797441
 21
184.3248265887
 31
0.0
  0
LINE
  5
157
330
CC
100
AcDbEntity
  8
PCB120
  6
HIDDEN2
 62
     7
100
AcDbLine
 10
302.3911797441
 20
184.2894582863
 30
0.0
 11
300.8911797441
 21
184.2894582863
 31
0.0
  0
LINE
  5
158
330
CC
100
AcDbEntity
  8
PCB120
  6
HIDDEN2
 62
     7
100
AcDbLine
 10
302.3911797441
 20
151.4652364744
 30
0.0
 11
300.8911797441
 21
151.4652364744
 31
0.0
  0
LINE
  5
159
330
CC
100
AcDbEntity
  8
PCB120
  6
HIDDEN2
 62
     7
100
AcDbLine
 10
300.8911797441
 20
220.587608446
 30
0.0
 11
302.3911797441
 21
220.587608446
 31
0.0
  0
LINE
  5
15A
330
CC
100
AcDbEntity
  8
PCB120
  6
HIDDEN2
 62
     7
100
AcDbLine
 10
302.3911797441
 20
221.6838037267
 30
0.0
 11
300.8911797441
 21
221.6838037267
 31
0.0
  0
LINE
  5
15B
330
CC
100
AcDbEntity
  8
PCB120
  6
HIDDEN2
 62
     7
100
AcDbLine
 10
300.8911797441
 20
152.9267312539
 30
0.0
 11
302.3911797441
 21
152.9267312539
 31
0.0
  0
LINE
  5
15C
330
CC
100
AcDbEntity
  8
PCB120
  6
HIDDEN2
 62
     7
100
AcDbLine
 10
302.3911797441
 20
155.6267312539
 30
0.0
 11
300.8911797441
 21
155.6267312539
 31
0.0
  0
LINE
  5
15D
330
CC
100
AcDbEntity
  8
PCB120
  6
HIDDEN2
 62
     7
100
AcDbLine
 10
300.8911797441
 20
202.68340034
 30
0.0
 11
302.3911797441
 21
202.68340034
 31
0.0
  0
LINE
  5
15E
330
CC
100
AcDbEntity
  8
PCB120
  6
HIDDEN2
 62
     7
100
AcDbLine
 10
302.3911797441
 20
205.3898821
 30
0.0
 11
300.8911797441
 21
205.3898821
 31
0.0
  0
ELLIPSE
  5
15F
330
CC
100
AcDbEntity
  8
FESTOCOLM5T4
  6
HIDDEN2
 62
     7
100
AcDbEllipse
 10
300.3997105739
 20
236.9564823259
 30
0.0
 11
-3.000000000000003
 21
-1.426041214471706E-14
 31
0.0
210
0.0
220
0.0
230
1.0
 40
0.5263776316
 41
2.865836775003696
 42
6.007429428593558
  0
ELLIPSE
  5
160
330
CC
100
AcDbEntity
  8
FESTOCOLM5T4
  6
HIDDEN2
 62
     7
100
AcDbEllipse
 10
300.3997105739
 20
225.0529697588
 30
0.0
 11
2.500000000000002
 21
-3.512050874244338E-17
 31
0.0
210
0.0
220
0.0
230
1.0
 40
0.5263776316
 41
0.0
 42
3.141592653589793
  0
ELLIPSE
  5
161
330
CC
100
AcDbEntity
  8
FESTOCOLM5T4
  6
HIDDEN2
 62
     7
100
AcDbEllipse
 10
300.3997105739
 20
227.6037224518
 30
0.0
 11
-2.500000000000002
 21
3.512050874244338E-17
 31
0.0
210
0.0
220
0.0
230
1.0
 40
0.5263776316
 41
0.0
 42
6.283185307179586
  0
ELLIPSE
  5
162
330
CC
100
AcDbEntity
  8
FESTOCOLM5T4
  6
HIDDEN2
 62
     7
100
AcDbEllipse
 10
300.3997105739
 20
227.6037224518
 30
0.0
 11
-3.799999999999998
 21
-6.707667329399446E-15
 31
0.0
210
0.0
220
0.0
230
1.0
 40
0.5263776316
 41
0.0
 42
0.8527764173964066
  0
ELLIPSE
  5
163
330
CC
100
AcDbEntity
  8
FESTOCOLM5T4
  6
HIDDEN2
 62
     7
100
AcDbEllipse
 10
300.3997105739
 20
227.6037224518
 30
0.0
 11
-3.799999999999998
 21
-6.707667329399446E-15
 31
0.0
210
0.0
220
0.0
230
1.0
 40
0.5263776316
 41
3.141592653589793
 42
6.283185307179586
  0
ELLIPSE
  5
164
330
CC
100
AcDbEntity
  8
FESTOCOLM5T4
  6
HIDDEN2
 62
     7
100
AcDbEllipse
 10
300.3997105739
 20
229.1341740675
 30
0.0
 11
-3.799999999999998
 21
-7.097895204315485E-15
 31
0.0
210
0.0
220
0.0
230
1.0
 40
0.5263776316
 41
0.0
 42
6.283185307179586
  0
ELLIPSE
  5
165
330
CC
100
AcDbEntity
  8
FESTOCOLM5T4
  6
HIDDEN2
 62
     7
100
AcDbEllipse
 10
300.3997105739
 20
233.9806041841
 30
0.0
 11
2.999999999999982
 21
-7.193422988094927E-15
 31
0.0
210
0.0
220
0.0
230
1.0
 40
0.5263776316
 41
-1.144878081593331
 42
-0.613558308425056
  0
ELLIPSE
  5
166
330
CC
100
AcDbEntity
  8
FESTOCOLM5T4
  6
Continuous
 62
     7
100
AcDbEllipse
 10
300.3997105739
 20
233.9806041841
 30
0.0
 11
2.999999999999982
 21
-7.193422988094927E-15
 31
0.0
210
0.0
220
0.0
230
1.0
 40
0.5263776316
 41
-0.613558308425056
 42
0.0000000000000047
  0
ELLIPSE
  5
167
330
CC
100
AcDbEntity
  8
FESTOCOLM5T4
  6
HIDDEN2
 62
     7
100
AcDbEllipse
 10
300.3997105739
 20
233.9806041841
 30
0.0
 11
2.999999999999982
 21
-7.193422988094927E-15
 31
0.0
210
0.0
220
0.0
230
1.0
 40
0.5263776316
 41
0.0000000000000047
 42
3.73495897801102
  0
LINE
  5
168
330
CC
100
AcDbEntity
  8
FESTOCOLM5T4
  6
HIDDEN2
 62
     7
100
AcDbLine
 10
304.8773798832
 20
229.7305882377
 30
0.0
 11
301.6572918629
 21
231.4735553686
 31
0.0
  0
LINE
  5
169
330
CC
100
AcDbEntity
  8
FESTOCOLM5T4
  6
HIDDEN2
 62
     7
100
AcDbLine
 10
301.6572918629
 20
231.4735553686
 30
0.0
 11
297.1796225536
 21
230.8771411984
 31
0.0
  0
LINE
  5
16A
330
CC
100
AcDbEntity
  8
FESTOCOLM5T4
  6
HIDDEN2
 62
     7
100
AcDbLine
 10
297.1796225536
 20
230.8771411984
 30
0.0
 11
295.9220412646
 21
228.5377598973
 31
0.0
  0
LINE
  5
16B
330
CC
100
AcDbEntity
  8
FESTOCOLM5T4
  6
HIDDEN2
 62
     7
100
AcDbLine
 10
295.9220412646
 20
228.5377598973
 30
0.0
 11
299.1421292848
 21
226.7947927664
 31
0.0
  0
LINE
  5
16C
330
CC
100
AcDbEntity
  8
FESTOCOLM5T4
  6
HIDDEN2
 62
     7
100
AcDbLine
 10
299.1421292848
 20
226.7947927664
 30
0.0
 11
300.1967311308
 21
226.9352630516
 31
0.0
  0
LINE
  5
16D
330
CC
100
AcDbEntity
  8
FESTOCOLM5T4
  6
HIDDEN2
 62
     7
100
AcDbLine
 10
299.1421292848
 20
226.7947927664
 30
0.0
 11
299.1421292848
 21
231.2160974342
 31
0.0
  0
LINE
  5
16E
330
CC
100
AcDbEntity
  8
FESTOCOLM5T4
  6
HIDDEN2
 62
     7
100
AcDbLine
 10
295.9220412646
 20
228.5377598973
 30
0.0
 11
295.9220412646
 21
233.3841900139
 31
0.0
  0
LINE
  5
16F
330
CC
100
AcDbEntity
  8
FESTOCOLM5T4
  6
HIDDEN2
 62
     7
100
AcDbLine
 10
297.1796225536
 20
230.8771411984
 30
0.0
 11
297.1796225536
 21
235.723571315
 31
0.0
  0
LINE
  5
170
330
CC
100
AcDbEntity
  8
FESTOCOLM5T4
  6
HIDDEN2
 62
     7
100
AcDbLine
 10
301.6572918629
 20
231.4735553686
 30
0.0
 11
301.6572918629
 21
236.3199854852
 31
0.0
  0
LINE
  5
171
330
CC
100
AcDbEntity
  8
FESTOCOLM5T4
  6
Continuous
 62
     7
100
AcDbLine
 10
304.8773798832
 20
229.7305882377
 30
0.0
 11
304.8773798832
 21
234.5770183543
 31
0.0
  0
LINE
  5
172
330
CC
100
AcDbEntity
  8
FESTOCOLM5T4
  6
Continuous
 62
     7
100
AcDbLine
 10
303.6197985941
 20
227.3912069367
 30
0.0
 11
303.6197985941
 21
232.2376370532
 31
0.0
  0
LINE
  5
173
330
CC
100
AcDbEntity
  8
FESTOCOLM5T4
  6
Continuous
 62
     7
100
AcDbLine
 10
303.6197985941
 20
232.2376370532
 30
0.0
 11
302.3105904949
 21
232.0632538623
 31
0.0
  0
LINE
  5
174
330
CC
100
AcDbEntity
  8
FESTOCOLM5T4
  6
HIDDEN2
 62
     7
100
AcDbLine
 10
302.3105904949
 20
232.0632538623
 30
0.0
 11
301.3098716179
 21
231.9299606516
 31
0.0
  0
LINE
  5
175
330
CC
100
AcDbEntity
  8
FESTOCOLM5T4
  6
HIDDEN2
 62
     7
100
AcDbLine
 10
297.5832108754
 20
232.4850332169
 30
0.0
 11
295.9220412646
 21
233.3841900139
 31
0.0
  0
LINE
  5
176
330
CC
100
AcDbEntity
  8
FESTOCOLM5T4
  6
HIDDEN2
 62
     7
100
AcDbLine
 10
295.9220412646
 20
233.3841900139
 30
0.0
 11
297.1796225536
 21
235.723571315
 31
0.0
  0
LINE
  5
177
330
CC
100
AcDbEntity
  8
FESTOCOLM5T4
  6
HIDDEN2
 62
     7
100
AcDbLine
 10
297.1796225536
 20
235.723571315
 30
0.0
 11
301.6572918629
 21
236.3199854852
 31
0.0
  0
LINE
  5
178
330
CC
100
AcDbEntity
  8
FESTOCOLM5T4
  6
HIDDEN2
 62
     7
100
AcDbLine
 10
301.6572918629
 20
236.3199854852
 30
0.0
 11
303.9357478665
 21
235.0867043145
 31
0.0
  0
LINE
  5
179
330
CC
100
AcDbEntity
  8
FESTOCOLM5T4
  6
Continuous
 62
     7
100
AcDbLine
 10
303.9357478665
 20
235.0867043145
 30
0.0
 11
304.8773798832
 21
234.5770183543
 31
0.0
  0
LINE
  5
17A
330
CC
100
AcDbEntity
  8
FESTOCOLM5T4
  6
Continuous
 62
     7
100
AcDbLine
 10
304.8773798832
 20
234.5770183543
 30
0.0
 11
303.6197985941
 21
232.2376370532
 31
0.0
  0
LINE
  5
17B
330
CC
100
AcDbEntity
  8
FESTOCOLM5T4
  6
HIDDEN2
 62
     7
100
AcDbLine
 10
297.9125213256
 20
233.0976240022
 30
0.0
 11
297.5832108754
 21
232.4850332169
 31
0.0
  0
LINE
  5
17C
330
CC
100
AcDbEntity
  8
FESTOCOLM5T4
  6
HIDDEN2
 62
     7
100
AcDbLine
 10
301.3098716179
 20
231.9299606516
 30
0.0
 11
301.6391820681
 21
232.5425514369
 31
0.0
  0
LINE
  5
17D
330
CC
100
AcDbEntity
  8
FESTOCOLM5T4
  6
HIDDEN2
 62
     7
100
AcDbLine
 10
303.2863695725
 20
234.2769725384
 30
0.0
 11
303.2863695725
 21
236.5265249656
 31
0.0
  0
LINE
  5
17E
330
CC
100
AcDbEntity
  8
FESTOCOLM5T4
  6
HIDDEN2
 62
     7
100
AcDbLine
 10
297.5130515753
 20
237.3864396861
 30
0.0
 11
297.5130515753
 21
235.1368872589
 31
0.0
  0
ELLIPSE
  5
17F
330
CC
100
AcDbEntity
  8
FESTOCOLM5T4
  6
HIDDEN2
 62
     7
100
AcDbEllipse
 10
300.3997105739
 20
236.9564823259
 30
0.0
 11
3.523194683672737
 21
-1.893963891139482
 31
0.0
210
0.0
220
0.0
230
1.0
 40
0.8181281349
 41
3.141592653589789
 42
4.278667184121332
  0
ELLIPSE
  5
180
330
CC
100
AcDbEntity
  8
FESTOCOLM5T4
  6
Continuous
 62
     7
100
AcDbEllipse
 10
300.3997105739
 20
236.9564823259
 30
0.0
 11
3.523194683672737
 21
-1.893963891139482
 31
0.0
210
0.0
220
0.0
230
1.0
 40
0.8181281349
 41
-0.0000000000000042
 42
3.141592653589789
  0
ELLIPSE
  5
181
330
CC
100
AcDbEntity
  8
FESTOCOLM5T4
  6
HIDDEN2
 62
     7
100
AcDbEllipse
 10
300.3997105739
 20
236.9564823259
 30
0.0
 11
3.523194683672737
 21
-1.893963891139482
 31
0.0
210
0.0
220
0.0
230
1.0
 40
0.8181281349
 41
-0.3083939650953023
 42
-0.0000000000000042
  0
ELLIPSE
  5
182
330
CC
100
AcDbEntity
  8
FESTOCOLM5T4
  6
HIDDEN2
 62
     7
100
AcDbEllipse
 10
299.1421292848
 20
234.6171010248
 30
0.0
 11
4.374428306691041
 21
1.308775841090662
 31
0.0
210
0.0
220
0.0
230
1.0
 40
0.7304389681
 41
4.497233158590406
 42
5.002593668874566
  0
ELLIPSE
  5
183
330
CC
100
AcDbEntity
  8
FESTOCOLM5T4
  6
HIDDEN2
 62
     7
100
AcDbEllipse
 10
299.1421292848
 20
234.6171010248
 30
0.0
 11
2.445327783836909
 21
-3.536388812593772
 31
0.0
210
0.0
220
0.0
230
1.0
 40
0.5924334182
 41
4.915437739629495
 42
5.420798249913664
  0
ARC
  5
184
330
CC
100
AcDbEntity
  8
FESTOCOLM5T4
  6
HIDDEN2
 62
     7
100
AcDbCircle
 10
298.8209641404
 20
236.8684068847
 30
0.0
 40
5.162884624264278
100
AcDbArc
 50
303.0835284811
 51
329.8718748767
  0
SPLINE
  5
185
330
CC
100
AcDbEntity
  8
FESTOCOLM5T4
  6
HIDDEN2
 62
     7
100
AcDbSpline
210
0.0
220
0.0
230
1.0
 70
     8
 71
     3
 72
    16
 73
    12
 74
     0
 42
0.000000001
 43
0.0000000001
 40
0.0
 40
0.0
 40
0.0
 40
0.0
 40
0.25
 40
0.25
 40
0.3750000000000001
 40
0.3750000000000001
 40
0.5000000000000001
 40
0.5000000000000001
 40
0.75
 40
0.75
 40
1.0
 40
1.0
 40
1.0
 40
1.0
 10
297.513051575314
 20
235.1368872589414
 30
0.0
 10
297.4495479508952
 20
235.0187563732401
 30
0.0
 10
297.414064789084
 20
234.8746680513082
 30
0.0
 10
297.3978108609238
 20
234.6293108198341
 30
0.0
 10
297.3987470649915
 20
234.5423011326537
 30
0.0
 10
297.4124552450971
 20
234.365483634819
 30
0.0
 10
297.4251406240044
 20
234.2751025355368
 30
0.0
 10
297.4796805230466
 20
234.0003123797966
 30
0.0
 10
297.5384152011616
 20
233.8116560629282
 30
0.0
 10
297.6948451974494
 20
233.4464271760717
 30
0.0
 10
297.7935629675101
 20
233.266905822613
 30
0.0
 10
297.9125213255611
 20
233.0976240021698
 30
0.0
  0
LINE
  5
186
330
CC
100
AcDbEntity
  8
FESTOCOLM5T4
  6
HIDDEN2
 62
     7
100
AcDbLine
 10
303.2863695725
 20
236.5265249656
 30
0.0
 11
297.5130515753
 21
237.3864396861
 31
0.0
  0
ELLIPSE
  5
187
330
CC
100
AcDbEntity
  8
FESTOCOLM5T4
  6
HIDDEN2
 62
     7
100
AcDbEllipse
 10
297.276723941
 20
231.1470316
 30
0.0
 11
3.52319468367273
 21
-1.893963891139488
 31
0.0
210
0.0
220
0.0
230
1.0
 40
0.8181281349
 41
0.0
 42
6.283185307179586
  0
ELLIPSE
  5
188
330
CC
100
AcDbEntity
  8
FESTOCOLM5T4
  6
Continuous
 62
     7
100
AcDbEllipse
 10
296.81385757
 20
230.2859970548
 30
0.0
 11
-4.276277547307777
 21
2.298798672870553
 31
0.0
210
0.0
220
0.0
230
1.0
 40
0.8181281349
 41
0.0
 42
6.283185307179586
  0
ELLIPSE
  5
189
330
CC
100
AcDbEntity
  8
FESTOCOLM5T4
  6
Continuous
 62
     7
100
AcDbEllipse
 10
297.276723941
 20
231.1470316
 30
0.0
 11
-4.276277547307785
 21
2.298798672870531
 31
0.0
210
0.0
220
0.0
230
1.0
 40
0.8181281349
 41
3.141592653589796
 42
6.283185307179586
  0
ELLIPSE
  5
18A
330
CC
100
AcDbEntity
  8
FESTOCOLM5T4
  6
HIDDEN2
 62
     7
100
AcDbEllipse
 10
297.276723941
 20
231.1470316
 30
0.0
 11
-4.276277547307785
 21
2.298798672870531
 31
0.0
210
0.0
220
0.0
230
1.0
 40
0.8181281349
 41
0.0000000000000093
 42
3.141592653589796
  0
ELLIPSE
  5
18B
330
CC
100
AcDbEntity
  8
FESTOCOLM5T4
  6
HIDDEN2
 62
     7
100
AcDbEllipse
 10
299.5366009291
 20
235.3509061444
 30
0.0
 11
1.761597341836362
 21
-0.9469819455697541
 31
0.0
210
0.0
220
0.0
230
1.0
 40
0.8181281349
 41
0.0
 42
6.283185307179586
  0
ELLIPSE
  5
18C
330
CC
100
AcDbEntity
  8
FESTOCOLM5T4
  6
Continuous
 62
     7
100
AcDbEllipse
 10
296.81385757
 20
230.2859970548
 30
0.0
 11
-1.761597341836368
 21
0.9469819455697406
 31
0.0
210
0.0
220
0.0
230
1.0
 40
0.8181281349
 41
0.0
 42
6.283185307179586
  0
LINE
  5
18D
330
CC
100
AcDbEntity
  8
FESTOCOLM5T4
  6
HIDDEN2
 62
     7
100
AcDbLine
 10
297.8997105739
 20
227.6037224518
 30
0.0
 11
297.8997105739
 21
226.0973256792
 31
0.0
  0
LINE
  5
18E
330
CC
100
AcDbEntity
  8
FESTOCOLM5T4
  6
HIDDEN2
 62
     7
100
AcDbLine
 10
302.8997105739
 20
226.0973256792
 30
0.0
 11
302.8997105739
 21
227.6037224518
 31
0.0
  0
LINE
  5
18F
330
CC
100
AcDbEntity
  8
FESTOCOLM5T4
  6
HIDDEN2
 62
     7
100
AcDbLine
 10
296.5997105739
 20
229.1341740675
 30
0.0
 11
296.5997105739
 21
227.6037224518
 31
0.0
  0
LINE
  5
190
330
CC
100
AcDbEntity
  8
FESTOCOLM5T4
  6
HIDDEN2
 62
     7
100
AcDbLine
 10
304.1997105739
 20
228.4699723839
 30
0.0
 11
304.1997105739
 21
229.1341740675
 31
0.0
  0
LINE
  5
191
330
CC
100
AcDbEntity
  8
FESTOCOLM5T4
  6
HIDDEN2
 62
     7
100
AcDbLine
 10
297.3997105739
 20
234.6018971901
 30
0.0
 11
297.3997105739
 21
233.9806041841
 31
0.0
  0
LINE
  5
192
330
CC
100
AcDbEntity
  8
FESTOCOLM5T4
  6
Continuous
 62
     7
100
AcDbLine
 10
303.3997105739
 20
233.9806041841
 30
0.0
 11
303.3997105739
 21
234.089259791
 31
0.0
  0
LINE
  5
193
330
CC
100
AcDbEntity
  8
FESTOCOLM5T4
  6
HIDDEN2
 62
     7
100
AcDbLine
 10
303.3997105739
 20
234.089259791
 30
0.0
 11
303.3997105739
 21
236.9564823259
 31
0.0
  0
LINE
  5
194
330
CC
100
AcDbEntity
  8
FESTOCOLM5T4
  6
Continuous
 62
     7
100
AcDbLine
 10
296.8765158902
 20
238.850446217
 30
0.0
 11
294.8194143092
 21
235.0237790943
 31
0.0
  0
LINE
  5
195
330
CC
100
AcDbEntity
  8
FESTOCOLM5T4
  6
HIDDEN2
 62
     7
100
AcDbLine
 10
294.8194143092
 20
235.0237790943
 30
0.0
 11
293.7535292573
 21
233.0409954911
 31
0.0
  0
LINE
  5
196
330
CC
100
AcDbEntity
  8
FESTOCOLM5T4
  6
HIDDEN2
 62
     7
100
AcDbLine
 10
300.7999186247
 20
229.2530677089
 30
0.0
 11
301.8658036766
 21
231.235851312
 31
0.0
  0
LINE
  5
197
330
CC
100
AcDbEntity
  8
FESTOCOLM5T4
  6
Continuous
 62
     7
100
AcDbLine
 10
301.8658036766
 20
231.235851312
 30
0.0
 11
303.9229052576
 21
235.0625184347
 31
0.0
  0
LINE
  5
198
330
CC
100
AcDbEntity
  8
FESTOCOLM5T4
  6
Continuous
 62
     7
100
AcDbLine
 10
301.0901351173
 20
227.9871983819
 30
0.0
 11
301.5530014883
 21
228.8482329271
 31
0.0
  0
LINE
  5
199
330
CC
100
AcDbEntity
  8
FESTOCOLM5T4
  6
Continuous
 62
     7
100
AcDbLine
 10
293.0004463937
 20
233.4458302729
 30
0.0
 11
292.5375800226
 21
232.5847957276
 31
0.0
  0
LINE
  5
19A
330
CC
100
AcDbEntity
  8
FESTOCOLM5T4
  6
HIDDEN2
 62
     7
100
AcDbLine
 10
297.7750035872
 20
236.29788809
 30
0.0
 11
295.0522602281
 21
231.2329790003
 31
0.0
  0
LINE
  5
19B
330
CC
100
AcDbEntity
  8
FESTOCOLM5T4
  6
HIDDEN2
 62
     7
100
AcDbLine
 10
298.5754549118
 20
229.3390151092
 30
0.0
 11
301.2981982709
 21
234.4039241989
 31
0.0
  0
LINE
  5
19C
330
CC
100
AcDbEntity
  8
X120MAS
  6
Continuous
 62
     7
100
AcDbLine
 10
369.3346599555
 20
207.815122174
 30
0.0
 11
369.3346599555
 21
174.5317697016
 31
0.0
  0
LINE
  5
19D
330
CC
100
AcDbEntity
  8
X120MAS
  6
Continuous
 62
     7
100
AcDbLine
 10
367.9763361917
 20
209.1734459378
 30
0.0
 11
367.9763361917
 21
173.1734459378
 31
0.0
  0
LINE
  5
19E
330
CC
100
AcDbEntity
  8
X120MAS
  6
Continuous
 62
     7
100
AcDbLine
 10
367.3346599555
 20
211.8843400786
 30
0.0
 11
367.3346599555
 21
170.4625517971
 31
0.0
  0
LINE
  5
19F
330
CC
100
AcDbEntity
  8
X120MAS
  6
Continuous
 62
     7
100
AcDbLine
 10
365.3346599555
 20
211.8843400786
 30
0.0
 11
365.3346599555
 21
170.4625517971
 31
0.0
  0
LINE
  5
1A0
330
CC
100
AcDbEntity
  8
X120MAS
  6
Continuous
 62
     7
100
AcDbLine
 10
337.0628106264
 20
231.4022382256
 30
0.0
 11
337.0628106264
 21
150.94465365
 31
0.0
  0
LINE
  5
1A1
330
CC
100
AcDbEntity
  8
X120MAS
  6
Continuous
 62
     7
100
AcDbLine
 10
322.45187826
 20
236.5343400786
 30
0.0
 11
322.45187826
 21
145.8125517971
 31
0.0
  0
LINE
  5
1A2
330
CC
100
AcDbEntity
  8
X120MAS
  6
Continuous
 62
     7
100
AcDbLine
 10
284.4661183296
 20
236.4325009378
 30
0.0
 11
284.4661183296
 21
145.9143909378
 31
0.0
  0
LINE
  5
1A3
330
CC
100
AcDbEntity
  8
X120MAS
  6
Continuous
 62
     7
100
AcDbLine
 10
273.8143083296
 20
236.4325009378
 30
0.0
 11
273.8143083296
 21
145.9143909378
 31
0.0
  0
LINE
  5
1A4
330
CC
100
AcDbEntity
  8
X120MAS
  6
Continuous
 62
     7
100
AcDbLine
 10
228.2705622898
 20
236.4325009378
 30
0.0
 11
228.2705622898
 21
145.9143909378
 31
0.0
  0
LINE
  5
1A5
330
CC
100
AcDbEntity
  8
X120MAS
  6
Continuous
 62
     7
100
AcDbLine
 10
203.6892271564
 20
228.6734459378
 30
0.0
 11
203.6892271564
 21
153.6734459378
 31
0.0
  0
LINE
  5
1A6
330
CC
100
AcDbEntity
  8
X120MAS
  6
Continuous
 62
     7
100
AcDbLine
 10
202.5812272065
 20
228.6734459378
 30
0.0
 11
202.5812272065
 21
153.6734459378
 31
0.0
  0
LINE
  5
1A7
330
CC
100
AcDbEntity
  8
X120MAS
  6
Continuous
 62
     7
100
AcDbLine
 10
202.1735325891
 20
228.2657513204
 30
0.0
 11
202.1735325891
 21
154.0811405552
 31
0.0
  0
LINE
  5
1A8
330
CC
100
AcDbEntity
  8
X120MAS
  6
Continuous
 62
     7
100
AcDbLine
 10
199.4614526536
 20
220.2515215765
 30
0.0
 11
199.4614526536
 21
162.0953702991
 31
0.0
  0
LINE
  5
1A9
330
CC
100
AcDbEntity
  8
X120MAS
  6
Continuous
 62
     7
100
AcDbLine
 10
199.4503119772
 20
220.0234459476
 30
0.0
 11
199.4503119772
 21
162.3234459281
 31
0.0
  0
LINE
  5
1AA
330
CC
100
AcDbEntity
  8
X120MAS
  6
Continuous
 62
     7
100
AcDbLine
 10
170.1091557072
 20
214.3496577265
 30
0.0
 11
170.1091557072
 21
167.9972341492
 31
0.0
  0
LINE
  5
1AB
330
CC
100
AcDbEntity
  8
X120MAS
  6
Continuous
 62
     7
100
AcDbLine
 10
367.9763361917
 20
173.1734459378
 30
0.0
 11
369.3346599555
 21
174.5317697016
 31
0.0
  0
LINE
  5
1AC
330
CC
100
AcDbEntity
  8
X120MAS
  6
Continuous
 62
     7
100
AcDbLine
 10
369.3346599555
 20
207.815122174
 30
0.0
 11
367.9763361917
 21
209.1734459378
 31
0.0
  0
LINE
  5
1AD
330
CC
100
AcDbEntity
  8
X120MAS
  6
Continuous
 62
     7
100
AcDbLine
 10
367.9763361917
 20
209.1734459378
 30
0.0
 11
367.3346599555
 21
209.1734459378
 31
0.0
  0
LINE
  5
1AE
330
CC
100
AcDbEntity
  8
X120MAS
  6
Continuous
 62
     7
100
AcDbLine
 10
367.3346599555
 20
173.1734459378
 30
0.0
 11
367.9763361917
 21
173.1734459378
 31
0.0
  0
LINE
  5
1AF
330
CC
100
AcDbEntity
  8
X120MAS
  6
Continuous
 62
     7
100
AcDbLine
 10
367.3346599555
 20
211.8843400786
 30
0.0
 11
365.3346599555
 21
211.8843400786
 31
0.0
  0
LINE
  5
1B0
330
CC
100
AcDbEntity
  8
X120MAS
  6
Continuous
 62
     7
100
AcDbLine
 10
365.3346599555
 20
170.4625517971
 30
0.0
 11
367.3346599555
 21
170.4625517971
 31
0.0
  0
ARC
  5
1B1
330
CC
100
AcDbEntity
  8
X120MAS
  6
Continuous
 62
     7
100
AcDbCircle
 10
335.6103399555
 20
195.9659355993
 30
0.0
 40
33.71840447928088
100
AcDbArc
 50
28.1705940254
 51
87.5311347259
  0
ARC
  5
1B2
330
CC
100
AcDbEntity
  8
X120MAS
  6
Continuous
 62
     7
100
AcDbCircle
 10
335.6103399555
 20
186.3809562764
 30
0.0
 40
33.71840447928087
100
AcDbArc
 50
272.4688652741
 51
331.8294059746
  0
LINE
  5
1B3
330
CC
100
AcDbEntity
  8
X120MAS
  6
Continuous
 62
     7
100
AcDbLine
 10
336.1884802224
 20
146.4616837306
 30
0.0
 11
337.0628106264
 21
150.94465365
 31
0.0
  0
LINE
  5
1B4
330
CC
100
AcDbEntity
  8
X120MAS
  6
Continuous
 62
     7
100
AcDbLine
 10
337.0628106264
 20
231.4022382256
 30
0.0
 11
336.1884802224
 21
235.8852081451
 31
0.0
  0
ARC
  5
1B5
330
CC
100
AcDbEntity
  8
X120MAS
  6
Continuous
 62
     7
100
AcDbCircle
 10
335.4005149881
 20
235.7315283359
 30
0.0
 40
0.8028117426265676
100
AcDbArc
 50
11.036071512
 51
90.0
  0
ARC
  5
1B6
330
CC
100
AcDbEntity
  8
X120MAS
  6
Continuous
 62
     7
100
AcDbCircle
 10
335.4005149881
 20
146.6153635397
 30
0.0
 40
0.8028117426265688
100
AcDbArc
 50
270.0
 51
348.963928488
  0
LINE
  5
1B7
330
CC
100
AcDbEntity
  8
X120MAS
  6
Continuous
 62
     7
100
AcDbLine
 10
335.4005149881
 20
236.5343400786
 30
0.0
 11
322.45187826
 21
236.5343400786
 31
0.0
  0
LINE
  5
1B8
330
CC
100
AcDbEntity
  8
X120MAS
  6
Continuous
 62
     7
100
AcDbLine
 10
322.45187826
 20
145.8125517971
 30
0.0
 11
335.4005149881
 21
145.8125517971
 31
0.0
  0
ARC
  5
1B9
330
CC
100
AcDbEntity
  8
X120MAS
  6
Continuous
 62
     7
100
AcDbCircle
 10
321.5622648762
 20
233.1793583894
 30
0.0
 40
3.253142548370849
100
AcDbArc
 50
74.1295735727
 51
90.0
  0
ARC
  5
1BA
330
CC
100
AcDbEntity
  8
X120MAS
  6
Continuous
 62
     7
100
AcDbCircle
 10
321.5622648762
 20
149.1675334862
 30
0.0
 40
3.253142548370867
100
AcDbArc
 50
270.0
 51
285.8704264273
  0
LINE
  5
1BB
330
CC
100
AcDbEntity
  8
X120MAS
  6
Continuous
 62
     7
100
AcDbLine
 10
321.5622648762
 20
236.4325009378
 30
0.0
 11
304.2481859082
 21
236.4325009378
 31
0.0
  0
LINE
  5
1BC
330
CC
100
AcDbEntity
  8
X120MAS
  6
Continuous
 62
     7
100
AcDbLine
 10
295.5767009607
 20
236.4325009378
 30
0.0
 11
284.4661183296
 21
236.4325009378
 31
0.0
  0
LINE
  5
1BD
330
CC
100
AcDbEntity
  8
X120MAS
  6
Continuous
 62
     7
100
AcDbLine
 10
284.4661183296
 20
145.9143909378
 30
0.0
 11
321.5622648762
 21
145.9143909378
 31
0.0
  0
LINE
  5
1BE
330
CC
100
AcDbEntity
  8
X120MAS
  6
Continuous
 62
     7
100
AcDbLine
 10
284.4661183296
 20
236.2025009378
 30
0.0
 11
284.0161183296
 21
236.2025009378
 31
0.0
  0
LINE
  5
1BF
330
CC
100
AcDbEntity
  8
X120MAS
  6
Continuous
 62
     7
100
AcDbLine
 10
274.0161183296
 20
236.2025009378
 30
0.0
 11
273.8143083296
 21
236.2025009378
 31
0.0
  0
LINE
  5
1C0
330
CC
100
AcDbEntity
  8
X120MAS
  6
Continuous
 62
     7
100
AcDbLine
 10
273.8143083296
 20
146.1443909378
 30
0.0
 11
274.0161183296
 21
146.1443909378
 31
0.0
  0
LINE
  5
1C1
330
CC
100
AcDbEntity
  8
X120MAS
  6
Continuous
 62
     7
100
AcDbLine
 10
284.0161183296
 20
146.1443909378
 30
0.0
 11
284.4661183296
 21
146.1443909378
 31
0.0
  0
LINE
  5
1C2
330
CC
100
AcDbEntity
  8
X120MAS
  6
Continuous
 62
     7
100
AcDbLine
 10
273.8143083296
 20
236.4325009378
 30
0.0
 11
239.0161183296
 21
236.4325009378
 31
0.0
  0
LINE
  5
1C3
330
CC
100
AcDbEntity
  8
X120MAS
  6
Continuous
 62
     7
100
AcDbLine
 10
239.0161183296
 20
145.9143909378
 30
0.0
 11
273.8143083296
 21
145.9143909378
 31
0.0
  0
LINE
  5
1C4
330
CC
100
AcDbEntity
  8
X120MAS
  6
Continuous
 62
     7
100
AcDbLine
 10
229.0161183296
 20
236.2034459378
 30
0.0
 11
228.2705622898
 21
236.2034459378
 31
0.0
  0
LINE
  5
1C5
330
CC
100
AcDbEntity
  8
X120MAS
  6
Continuous
 62
     7
100
AcDbLine
 10
228.2705622898
 20
146.1434459378
 30
0.0
 11
229.0161183296
 21
146.1434459378
 31
0.0
  0
LINE
  5
1C6
330
CC
100
AcDbEntity
  8
X120MAS
  6
Continuous
 62
     7
100
AcDbLine
 10
228.2705622898
 20
236.4325009378
 30
0.0
 11
211.9417900307
 21
236.4325009378
 31
0.0
  0
LINE
  5
1C7
330
CC
100
AcDbEntity
  8
X120MAS
  6
Continuous
 62
     7
100
AcDbLine
 10
211.9417900307
 20
145.9143909378
 30
0.0
 11
228.2705622898
 21
145.9143909378
 31
0.0
  0
ARC
  5
1C8
330
CC
100
AcDbEntity
  8
X120MAS
  6
Continuous
 62
     7
100
AcDbCircle
 10
211.9417900307
 20
228.1642434962
 30
0.0
 40
8.268257441591942
100
AcDbArc
 50
90.0
 51
176.4691925882
  0
ARC
  5
1C9
330
CC
100
AcDbEntity
  8
X120MAS
  6
Continuous
 62
     7
100
AcDbCircle
 10
211.9417900307
 20
154.1826483794
 30
0.0
 40
8.26825744159195
100
AcDbArc
 50
183.5308074118
 51
270.0
  0
LINE
  5
1CA
330
CC
100
AcDbEntity
  8
X120MAS
  6
Continuous
 62
     7
100
AcDbLine
 10
203.6892271564
 20
228.6734459378
 30
0.0
 11
202.5812272065
 21
228.6734459378
 31
0.0
  0
LINE
  5
1CB
330
CC
100
AcDbEntity
  8
X120MAS
  6
Continuous
 62
     7
100
AcDbLine
 10
202.5812272065
 20
153.6734459378
 30
0.0
 11
203.6892271564
 21
153.6734459378
 31
0.0
  0
LINE
  5
1CC
330
CC
100
AcDbEntity
  8
X120MAS
  6
Continuous
 62
     7
100
AcDbLine
 10
202.5812272065
 20
228.6734459378
 30
0.0
 11
202.1735325891
 21
228.2657513204
 31
0.0
  0
LINE
  5
1CD
330
CC
100
AcDbEntity
  8
X120MAS
  6
Continuous
 62
     7
100
AcDbLine
 10
202.1735325891
 20
154.0811405552
 30
0.0
 11
202.5812272065
 21
153.6734459378
 31
0.0
  0
LINE
  5
1CE
330
CC
100
AcDbEntity
  8
X120MAS
  6
Continuous
 62
     7
100
AcDbLine
 10
202.1735325891
 20
221.2515215765
 30
0.0
 11
200.4614526536
 21
221.2515215765
 31
0.0
  0
LINE
  5
1CF
330
CC
100
AcDbEntity
  8
X120MAS
  6
Continuous
 62
     7
100
AcDbLine
 10
200.4614526536
 20
161.0953702991
 30
0.0
 11
202.1735325891
 21
161.0953702991
 31
0.0
  0
ARC
  5
1D0
330
CC
100
AcDbEntity
  8
X120MAS
  6
Continuous
 62
     7
100
AcDbCircle
 10
200.4614526536
 20
220.2515215765
 30
0.0
 40
0.9999999999999959
100
AcDbArc
 50
90.0
 51
180.0
  0
ARC
  5
1D1
330
CC
100
AcDbEntity
  8
X120MAS
  6
Continuous
 62
     7
100
AcDbCircle
 10
200.4614526536
 20
162.0953702991
 30
0.0
 40
1.000000000000001
100
AcDbArc
 50
180.0
 51
270.0
  0
ARC
  5
1D2
330
CC
100
AcDbEntity
  8
X120MAS
  6
Continuous
 62
     7
100
AcDbCircle
 10
198.9154736986
 20
220.1331775975
 30
0.0
 40
0.5459789549426414
100
AcDbArc
 50
348.4056417292
 51
0.0
  0
ARC
  5
1D3
330
CC
100
AcDbEntity
  8
X120MAS
  6
Continuous
 62
     7
100
AcDbCircle
 10
198.9154736986
 20
162.2137142781
 30
0.0
 40
0.5459789549426387
100
AcDbArc
 50
0.0
 51
11.5943582708
  0
LINE
  5
1D4
330
CC
100
AcDbEntity
  8
X120MAS
  6
Continuous
 62
     7
100
AcDbLine
 10
199.4503119772
 20
220.0234459427
 30
0.0
 11
191.1602663479
 21
220.0234459427
 31
0.0
  0
LINE
  5
1D5
330
CC
100
AcDbEntity
  8
X120MAS
  6
Continuous
 62
     7
100
AcDbLine
 10
191.1602663479
 20
162.3234459329
 30
0.0
 11
199.4503119772
 21
162.3234459329
 31
0.0
  0
ARC
  5
1D6
330
CC
100
AcDbEntity
  8
X120MAS
  6
Continuous
 62
     7
100
AcDbCircle
 10
191.1602663483
 20
197.3634797046
 30
0.0
 40
22.65996623318316
100
AcDbArc
 50
90.0000000009
 51
108.0
  0
ARC
  5
1D7
330
CC
100
AcDbEntity
  8
X120MAS
  6
Continuous
 62
     7
100
AcDbCircle
 10
191.1602663483
 20
184.983412171
 30
0.0
 40
22.65996623318316
100
AcDbArc
 50
252.0
 51
269.9999999991
  0
LINE
  5
1D8
330
CC
100
AcDbEntity
  8
X120MAS
  6
Continuous
 62
     7
100
AcDbLine
 10
184.1579516902
 20
218.9143882497
 30
0.0
 11
170.1091557072
 21
214.3496577265
 31
0.0
  0
LINE
  5
1D9
330
CC
100
AcDbEntity
  8
X120MAS
  6
Continuous
 62
     7
100
AcDbLine
 10
170.1091557072
 20
167.9972341492
 30
0.0
 11
184.1579516902
 21
163.4325036259
 31
0.0
  0
ENDBLK
  5
1DB
330
CC
100
AcDbEntity
  8
0
100
AcDbBlockEnd
  0
BLOCK
  5
1DE
330
1DD
100
AcDbEntity
  8
0
100
AcDbBlockBegin
  2
_Oblique
 70
     0
 10
0.0
 20
0.0
 30
0.0
  3
_Oblique
  1

  0
LINE
  5
1E0
330
1DD
100
AcDbEntity
  8
0
  6
ByBlock
 62
     0
370
    -2
100
AcDbLine
 10
-0.5
 20
-0.5
 30
0.0
 11
0.5
 21
0.5
 31
0.0
  0
ENDBLK
  5
1DF
330
1DD
100
AcDbEntity
  8
0
100
AcDbBlockEnd
  0
BLOCK
  5
1E2
330
1E1
100
AcDbEntity
  8
0
100
AcDbBlockBegin
  2
_Dot
 70
     0
 10
0.0
 20
0.0
 30
0.0
  3
_Dot
  1

  0
LWPOLYLINE
  5
1E4
330
1E1
100
AcDbEntity
  8
0
  6
ByBlock
 62
     0
100
AcDbPolyline
 90
        2
 70
     1
 43
0.5
 10
-0.25
 20
0.0
 42
1.0
 10
0.25
 20
0.0
 42
1.0
  0
LINE
  5
1E5
330
1E1
100
AcDbEntity
  8
0
  6
ByBlock
 62
     0
370
    -2
100
AcDbLine
 10
-0.5
 20
0.0
 30
0.0
 11
-1.0
 21
0.0
 31
0.0
  0
ENDBLK
  5
1E3
330
1E1
100
AcDbEntity
  8
0
100
AcDbBlockEnd
  0
BLOCK
  5
1E9
330
1E6
100
AcDbEntity
  8
0
100
AcDbBlockBegin
  2
_SE_FILLED
 70
     0
 10
0.0
 20
0.0
 30
0.0
  3
_SE_FILLED
  1

  0
SOLID
  5
1E7
330
1E6
100
AcDbEntity
  8
0
 62
     0
100
AcDbTrace
 10
0.0
 20
0.0
 30
0.0
 11
-1.0
 21
-0.1665
 31
0.0
 12
-1.0
 22
0.1665
 32
0.0
 13
0.0
 23
0.0
 33
0.0
  0
LINE
  5
1E8
330
1E6
100
AcDbEntity
  8
0
 62
     0
100
AcDbLine
 10
0.0
 20
0.0
 30
0.0
 11
-1.0
 21
0.0
 31
0.0
  0
ENDBLK
  5
1EA
330
1E6
100
AcDbEntity
  8
0
100
AcDbBlockEnd
  0
BLOCK
  5
1F5
330
1EE
100
AcDbEntity
  8
0
100
AcDbBlockBegin
  2
DMBLK14
 70
     0
 10
0.0
 20
0.0
 30
0.0
  3
DMBLK14
  1

  0
HATCH
  5
1EF
330
1EE
100
AcDbEntity
  8
Default
  6
Continuous
 62
     7
100
AcDbHatch
 10
0.0
 20
0.0
 30
0.0
210
0.0
220
0.0
230
1.0
  2
SOLID
 70
     1
 71
     0
 91
        1
 92
        1
 93
        3
 72
     1
 10
173.6091558152353
 20
94.05301794814216
 11
173.6091558152353
 21
95.21968465081997
 72
     1
 10
173.6091558152353
 20
95.21968465081997
 11
170.1091557072019
 21
94.63635129948106
 72
     1
 10
170.1091557072019
 20
94.63635129948106
 11
173.6091558152353
 21
94.05301794814216
 97
        0
 75
     0
 76
     1
 98
        0
  0
HATCH
  5
1F0
330
1EE
100
AcDbEntity
  8
Default
  6
Continuous
 62
     7
100
AcDbHatch
 10
0.0
 20
0.0
 30
0.0
210
0.0
220
0.0
230
1.0
  2
SOLID
 70
     1
 71
     0
 91
        1
 92
        1
 93
        3
 72
     1
 10
365.8346558251893
 20
94.05301794814216
 11
369.3346559332227
 21
94.63635129948106
 72
     1
 10
369.3346559332227
 20
94.63635129948106
 11
365.8346558251893
 21
95.21968465081997
 72
     1
 10
365.8346558251893
 20
95.21968465081997
 11
365.8346558251893
 21
94.05301794814216
 97
        0
 75
     0
 76
     1
 98
        0
  0
LINE
  5
1F1
330
1EE
100
AcDbEntity
  8
Default
  6
Continuous
 62
     7
100
AcDbLine
 10
170.1091557072
 20
167.997233999
 30
0.0
 11
170.1091557072
 21
92.8863512455
 31
0.0
  0
LINE
  5
1F2
330
1EE
100
AcDbEntity
  8
Default
  6
Continuous
 62
     7
100
AcDbLine
 10
369.3346599555
 20
174.5317693222
 30
0.0
 11
369.3346599555
 21
92.8863512455
 31
0.0
  0
LINE
  5
1F3
330
1EE
100
AcDbEntity
  8
Default
  6
Continuous
 62
     7
100
AcDbLine
 10
170.1091557072
 20
94.6363512995
 30
0.0
 11
369.3346559332
 21
94.6363512995
 31
0.0
  0
TEXT
  5
1F4
330
1EE
100
AcDbEntity
  8
Default
  6
Continuous
 62
     7
100
AcDbText
 10
265.466224002
 20
95.5113512995
 30
0.0
 40
3.5
  1
199,2
  7
SEACAD_Solid_Edge_ISO
 11
265.466224002
 21
99.0113512995
 31
0.0
100
AcDbText
 73
     3
  0
ENDBLK
  5
1F6
330
1EE
100
AcDbEntity
  8
0
100
AcDbBlockEnd
  0
BLOCK
  5
1FF
330
1F8
100
AcDbEntity
  8
0
100
AcDbBlockBegin
  2
DMBLK15
 70
     0
 10
0.0
 20
0.0
 30
0.0
  3
DMBLK15
  1

  0
HATCH
  5
1F9
330
1F8
100
AcDbEntity
  8
Default
  6
Continuous
 62
     7
100
AcDbHatch
 10
0.0
 20
0.0
 30
0.0
210
0.0
220
0.0
230
1.0
  2
SOLID
 70
     1
 71
     0
 91
        1
 92
        1
 93
        3
 72
     1
 10
365.8346598474274
 20
105.2715474075265
 11
369.3346599554608
 21
105.8548807588654
 72
     1
 10
369.3346599554608
 20
105.8548807588654
 11
365.8346598474274
 21
106.4382141102043
 72
     1
 10
365.8346598474274
 20
106.4382141102043
 11
365.8346598474274
 21
105.2715474075265
 97
        0
 75
     0
 76
     1
 98
        0
  0
HATCH
  5
1FA
330
1F8
100
AcDbEntity
  8
Default
  6
Continuous
 62
     7
100
AcDbHatch
 10
0.0
 20
0.0
 30
0.0
210
0.0
220
0.0
230
1.0
  2
SOLID
 70
     1
 71
     0
 91
        1
 92
        1
 93
        3
 72
     1
 10
287.5161170465836
 20
105.2715474075265
 11
287.5161170465836
 21
106.4382141102043
 72
     1
 10
287.5161170465836
 20
106.4382141102043
 11
284.0161169385502
 21
105.8548807588654
 72
     1
 10
284.0161169385502
 20
105.8548807588654
 11
287.5161170465836
 21
105.2715474075265
 97
        0
 75
     0
 76
     1
 98
        0
  0
LINE
  5
1FB
330
1F8
100
AcDbEntity
  8
Default
  6
Continuous
 62
     7
100
AcDbLine
 10
369.3346599555
 20
174.5317697016
 30
0.0
 11
369.3346599555
 21
104.1048807048
 31
0.0
  0
LINE
  5
1FC
330
1F8
100
AcDbEntity
  8
Default
  6
Continuous
 62
     7
100
AcDbLine
 10
284.0161183296
 20
132.1740042089
 30
0.0
 11
284.0161183296
 21
104.1048807048
 31
0.0
  0
LINE
  5
1FD
330
1F8
100
AcDbEntity
  8
Default
  6
Continuous
 62
     7
100
AcDbLine
 10
369.3346599555
 20
105.8548807589
 30
0.0
 11
284.0161169386
 21
105.8548807589
 31
0.0
  0
TEXT
  5
1FE
330
1F8
100
AcDbEntity
  8
Default
  6
Continuous
 62
     7
100
AcDbText
 10
323.3344793561
 20
106.7298807589
 30
0.0
 40
3.5
  1
85,3
  7
SEACAD_Solid_Edge_ISO
 11
323.3344793561
 21
110.2298807589
 31
0.0
100
AcDbText
 73
     3
  0
ENDBLK
  5
200
330
1F8
100
AcDbEntity
  8
0
100
AcDbBlockEnd
  0
BLOCK
  5
209
330
202
100
AcDbEntity
  8
0
100
AcDbBlockBegin
  2
DMBLK16
 70
     0
 10
0.0
 20
0.0
 30
0.0
  3
DMBLK16
  1

  0
HATCH
  5
203
330
202
100
AcDbEntity
  8
Default
  6
Continuous
 62
     7
100
AcDbHatch
 10
0.0
 20
0.0
 30
0.0
210
0.0
220
0.0
230
1.0
  2
SOLID
 70
     1
 71
     0
 91
        1
 92
        1
 93
        3
 72
     1
 10
280.5161182215833
 20
105.2715470529594
 11
284.0161183296167
 21
105.8548804042983
 72
     1
 10
284.0161183296167
 20
105.8548804042983
 11
280.5161182215833
 21
106.4382137556372
 72
     1
 10
280.5161182215833
 20
106.4382137556372
 11
280.5161182215833
 21
105.2715470529594
 97
        0
 75
     0
 76
     1
 98
        0
  0
HATCH
  5
204
330
202
100
AcDbEntity
  8
Default
  6
Continuous
 62
     7
100
AcDbHatch
 10
0.0
 20
0.0
 30
0.0
210
0.0
220
0.0
230
1.0
  2
SOLID
 70
     1
 71
     0
 91
        1
 92
        1
 93
        3
 72
     1
 10
232.5161187356734
 20
105.2715470529594
 11
232.5161187356734
 21
106.4382137556372
 72
     1
 10
232.5161187356734
 20
106.4382137556372
 11
229.0161186276399
 21
105.8548804042983
 72
     1
 10
229.0161186276399
 20
105.8548804042983
 11
232.5161187356734
 21
105.2715470529594
 97
        0
 75
     0
 76
     1
 98
        0
  0
LINE
  5
205
330
202
100
AcDbEntity
  8
Default
  6
Continuous
 62
     7
100
AcDbLine
 10
284.0161183296
 20
132.1740042089
 30
0.0
 11
284.0161183296
 21
104.1048803503
 31
0.0
  0
LINE
  5
206
330
202
100
AcDbEntity
  8
Default
  6
Continuous
 62
     7
100
AcDbLine
 10
229.0161183296
 20
138.7740750455
 30
0.0
 11
229.0161183296
 21
104.1048803503
 31
0.0
  0
LINE
  5
207
330
202
100
AcDbEntity
  8
Default
  6
Continuous
 62
     7
100
AcDbLine
 10
284.0161183296
 20
105.8548804043
 30
0.0
 11
229.0161186276
 21
105.8548804043
 31
0.0
  0
TEXT
  5
208
330
202
100
AcDbEntity
  8
Default
  6
Continuous
 62
     7
100
AcDbText
 10
254.527482115
 20
106.7298804043
 30
0.0
 40
3.5
  1
55
  7
SEACAD_Solid_Edge_ISO
 11
254.527482115
 21
110.2298804043
 31
0.0
100
AcDbText
 73
     3
  0
ENDBLK
  5
20A
330
202
100
AcDbEntity
  8
0
100
AcDbBlockEnd
  0
BLOCK
  5
213
330
20C
100
AcDbEntity
  8
0
100
AcDbBlockBegin
  2
DMBLK17
 70
     0
 10
0.0
 20
0.0
 30
0.0
  3
DMBLK17
  1

  0
HATCH
  5
20D
330
20C
100
AcDbEntity
  8
Default
  6
Continuous
 62
     7
100
AcDbHatch
 10
0.0
 20
0.0
 30
0.0
210
0.0
220
0.0
230
1.0
  2
SOLID
 70
     1
 71
     0
 91
        1
 92
        1
 93
        3
 72
     1
 10
225.5161182215833
 20
105.2715471448374
 11
229.0161183296167
 21
105.8548804961763
 72
     1
 10
229.0161183296167
 20
105.8548804961763
 11
225.5161182215833
 21
106.4382138475152
 72
     1
 10
225.5161182215833
 20
106.4382138475152
 11
225.5161182215833
 21
105.2715471448374
 97
        0
 75
     0
 76
     1
 98
        0
  0
HATCH
  5
20E
330
20C
100
AcDbEntity
  8
Default
  6
Continuous
 62
     7
100
AcDbHatch
 10
0.0
 20
0.0
 30
0.0
210
0.0
220
0.0
230
1.0
  2
SOLID
 70
     1
 71
     0
 91
        1
 92
        1
 93
        3
 72
     1
 10
173.6091572052264
 20
105.2715471448374
 11
173.6091572052264
 21
106.4382138475152
 72
     1
 10
173.6091572052264
 20
106.4382138475152
 11
170.1091570971929
 21
105.8548804961763
 72
     1
 10
170.1091570971929
 20
105.8548804961763
 11
173.6091572052264
 21
105.2715471448374
 97
        0
 75
     0
 76
     1
 98
        0
  0
LINE
  5
20F
330
20C
100
AcDbEntity
  8
Default
  6
Continuous
 62
     7
100
AcDbLine
 10
229.0161183296
 20
138.7740750455
 30
0.0
 11
229.0161183296
 21
104.1048804422
 31
0.0
  0
LINE
  5
210
330
20C
100
AcDbEntity
  8
Default
  6
Continuous
 62
     7
100
AcDbLine
 10
170.1091557072
 20
167.9972341492
 30
0.0
 11
170.1091557072
 21
104.1048804422
 31
0.0
  0
LINE
  5
211
330
20C
100
AcDbEntity
  8
Default
  6
Continuous
 62
     7
100
AcDbLine
 10
229.0161183296
 20
105.8548804962
 30
0.0
 11
170.1091570972
 21
105.8548804962
 31
0.0
  0
TEXT
  5
212
330
20C
100
AcDbEntity
  8
Default
  6
Continuous
 62
     7
100
AcDbText
 10
196.0626377134
 20
106.7298804962
 30
0.0
 40
3.5
  1
58,9
  7
SEACAD_Solid_Edge_ISO
 11
196.0626377134
 21
110.2298804962
 31
0.0
100
AcDbText
 73
     3
  0
ENDBLK
  5
214
330
20C
100
AcDbEntity
  8
0
100
AcDbBlockEnd
  0
BLOCK
  5
21B
330
216
100
AcDbEntity
  8
0
100
AcDbBlockBegin
  2
DMBLK18
 70
     0
 10
0.0
 20
0.0
 30
0.0
  3
DMBLK18
  1

  0
HATCH
  5
217
330
216
100
AcDbEntity
  8
Default
  6
Continuous
 62
     7
100
AcDbHatch
 10
0.0
 20
0.0
 30
0.0
210
0.0
220
0.0
230
1.0
  2
SOLID
 70
     1
 71
     0
 91
        1
 92
        1
 93
        3
 72
     1
 10
314.6598570990613
 20
149.41439104585
 11
315.2431904504002
 21
145.9143909378166
 72
     1
 10
315.2431904504002
 20
145.9143909378166
 11
315.8265238017391
 21
149.41439104585
 72
     1
 10
315.8265238017391
 20
149.41439104585
 11
314.6598570990613
 21
149.41439104585
 97
        0
 75
     0
 76
     1
 98
        0
  0
HATCH
  5
218
330
216
100
AcDbEntity
  8
Default
  6
Continuous
 62
     7
100
AcDbHatch
 10
0.0
 20
0.0
 30
0.0
210
0.0
220
0.0
230
1.0
  2
SOLID
 70
     1
 71
     0
 91
        1
 92
        1
 93
        3
 72
     1
 10
314.6598570990613
 20
232.9325003301913
 11
315.8265238017391
 21
232.9325003301913
 72
     1
 10
315.8265238017391
 20
232.9325003301913
 11
315.2431904504002
 21
236.4325004382247
 72
     1
 10
315.2431904504002
 20
236.4325004382247
 11
314.6598570990613
 21
232.9325003301913
 97
        0
 75
     0
 76
     1
 98
        0
  0
LINE
  5
219
330
216
100
AcDbEntity
  8
Default
  6
Continuous
 62
     7
100
AcDbLine
 10
315.2431904504
 20
145.9143909378
 30
0.0
 11
315.2431904504
 21
236.4325004382
 31
0.0
  0
TEXT
  5
21A
330
216
100
AcDbEntity
  8
Default
  6
Continuous
 62
     7
100
AcDbText
 10
314.3681904504
 20
187.7529911426
 30
0.0
 40
3.5
  1
90,5
 50
90.0
  7
SEACAD_Solid_Edge_ISO
 11
310.8681904504
 21
187.7529911426
 31
0.0
100
AcDbText
 73
     3
  0
ENDBLK
  5
21C
330
216
100
AcDbEntity
  8
0
100
AcDbBlockEnd
  0
BLOCK
  5
225
330
21E
100
AcDbEntity
  8
0
100
AcDbBlockBegin
  2
DMBLK19
 70
     0
 10
0.0
 20
0.0
 30
0.0
  3
DMBLK19
  1

  0
HATCH
  5
21F
330
21E
100
AcDbEntity
  8
Default
  6
Continuous
 62
     7
100
AcDbHatch
 10
0.0
 20
0.0
 30
0.0
210
0.0
220
0.0
230
1.0
  2
SOLID
 70
     1
 71
     0
 91
        1
 92
        1
 93
        3
 72
     1
 10
237.5161184376502
 20
270.8169960105632
 11
234.0161183296167
 21
270.2336626592243
 72
     1
 10
234.0161183296167
 20
270.2336626592243
 11
237.5161184376502
 21
269.6503293078854
 72
     1
 10
237.5161184376502
 20
269.6503293078854
 11
237.5161184376502
 21
270.8169960105632
 97
        0
 75
     0
 76
     1
 98
        0
  0
HATCH
  5
220
330
21E
100
AcDbEntity
  8
Default
  6
Continuous
 62
     7
100
AcDbHatch
 10
0.0
 20
0.0
 30
0.0
210
0.0
220
0.0
230
1.0
  2
SOLID
 70
     1
 71
     0
 91
        1
 92
        1
 93
        3
 72
     1
 10
253.016119115653
 20
270.8169960105632
 11
253.016119115653
 21
269.6503293078854
 72
     1
 10
253.016119115653
 20
269.6503293078854
 11
256.5161192236865
 21
270.2336626592243
 72
     1
 10
256.5161192236865
 20
270.2336626592243
 11
253.0161191156531
 21
270.8169960105632
 97
        0
 75
     0
 76
     1
 98
        0
  0
LINE
  5
221
330
21E
100
AcDbEntity
  8
Default
  6
Continuous
 62
     7
100
AcDbLine
 10
234.0161183296
 20
249.1722161415
 30
0.0
 11
234.0161183296
 21
271.9836627132
 31
0.0
  0
LINE
  5
222
330
21E
100
AcDbEntity
  8
Default
  6
Continuous
 62
     7
100
AcDbLine
 10
256.5161183296
 20
249.1722161415
 30
0.0
 11
256.5161183296
 21
271.9836627132
 31
0.0
  0
LINE
  5
223
330
21E
100
AcDbEntity
  8
Default
  6
Continuous
 62
     7
100
AcDbLine
 10
234.0161183296
 20
270.2336626592
 30
0.0
 11
256.5161192237
 21
270.2336626592
 31
0.0
  0
TEXT
  5
224
330
21E
100
AcDbEntity
  8
Default
  6
Continuous
 62
     7
100
AcDbText
 10
241.8058915039
 20
271.1086626592
 30
0.0
 40
3.5
  1
22,5
  7
SEACAD_Solid_Edge_ISO
 11
241.8058915039
 21
274.6086626592
 31
0.0
100
AcDbText
 73
     3
  0
ENDBLK
  5
226
330
21E
100
AcDbEntity
  8
0
100
AcDbBlockEnd
  0
BLOCK
  5
22F
330
228
100
AcDbEntity
  8
0
100
AcDbBlockBegin
  2
DMBLK20
 70
     0
 10
0.0
 20
0.0
 30
0.0
  3
DMBLK20
  1

  0
HATCH
  5
229
330
228
100
AcDbEntity
  8
Default
  6
Continuous
 62
     7
100
AcDbHatch
 10
0.0
 20
0.0
 30
0.0
210
0.0
220
0.0
230
1.0
  2
SOLID
 70
     1
 71
     0
 91
        1
 92
        1
 93
        3
 72
     1
 10
260.0161184376502
 20
270.8169960105632
 11
256.5161183296167
 21
270.2336626592243
 72
     1
 10
256.5161183296167
 20
270.2336626592243
 11
260.0161184376502
 21
269.6503293078854
 72
     1
 10
260.0161184376502
 20
269.6503293078854
 11
260.0161184376502
 21
270.8169960105632
 97
        0
 75
     0
 76
     1
 98
        0
  0
HATCH
  5
22A
330
228
100
AcDbEntity
  8
Default
  6
Continuous
 62
     7
100
AcDbHatch
 10
0.0
 20
0.0
 30
0.0
210
0.0
220
0.0
230
1.0
  2
SOLID
 70
     1
 71
     0
 91
        1
 92
        1
 93
        3
 72
     1
 10
275.516119115653
 20
270.8169960105632
 11
275.516119115653
 21
269.6503293078854
 72
     1
 10
275.516119115653
 20
269.6503293078854
 11
279.0161192236864
 21
270.2336626592243
 72
     1
 10
279.0161192236864
 20
270.2336626592243
 11
275.516119115653
 21
270.8169960105632
 97
        0
 75
     0
 76
     1
 98
        0
  0
LINE
  5
22B
330
228
100
AcDbEntity
  8
Default
  6
Continuous
 62
     7
100
AcDbLine
 10
256.5161183296
 20
249.1722161415
 30
0.0
 11
256.5161183296
 21
271.9836627132
 31
0.0
  0
LINE
  5
22C
330
228
100
AcDbEntity
  8
Default
  6
Continuous
 62
     7
100
AcDbLine
 10
279.0161183296
 20
249.1722161415
 30
0.0
 11
279.0161183296
 21
271.9836627132
 31
0.0
  0
LINE
  5
22D
330
228
100
AcDbEntity
  8
Default
  6
Continuous
 62
     7
100
AcDbLine
 10
256.5161183296
 20
270.2336626592
 30
0.0
 11
279.0161192237
 21
270.2336626592
 31
0.0
  0
TEXT
  5
22E
330
228
100
AcDbEntity
  8
Default
  6
Continuous
 62
     7
100
AcDbText
 10
264.3058915039
 20
271.1086626592
 30
0.0
 40
3.5
  1
22,5
  7
SEACAD_Solid_Edge_ISO
 11
264.3058915039
 21
274.6086626592
 31
0.0
100
AcDbText
 73
     3
  0
ENDBLK
  5
230
330
228
100
AcDbEntity
  8
0
100
AcDbBlockEnd
  0
BLOCK
  5
239
330
232
100
AcDbEntity
  8
0
100
AcDbBlockBegin
  2
DMBLK21
 70
     0
 10
0.0
 20
0.0
 30
0.0
  3
DMBLK21
  1

  0
HATCH
  5
233
330
232
100
AcDbEntity
  8
Default
  6
Continuous
 62
     7
100
AcDbHatch
 10
0.0
 20
0.0
 30
0.0
210
0.0
220
0.0
230
1.0
  2
SOLID
 70
     1
 71
     0
 91
        1
 92
        1
 93
        3
 72
     1
 10
219.247117940314
 20
245.672216033485
 11
220.4137846429918
 21
245.672216033485
 72
     1
 10
220.4137846429918
 20
245.672216033485
 11
219.8304512916529
 21
249.1722161415184
 72
     1
 10
219.8304512916529
 20
249.1722161415184
 11
219.247117940314
 21
245.672216033485
 97
        0
 75
     0
 76
     1
 98
        0
  0
HATCH
  5
234
330
232
100
AcDbEntity
  8
Default
  6
Continuous
 62
     7
100
AcDbHatch
 10
0.0
 20
0.0
 30
0.0
210
0.0
220
0.0
230
1.0
  2
SOLID
 70
     1
 71
     0
 91
        1
 92
        1
 93
        3
 72
     1
 10
219.247117940314
 20
136.674678279009
 11
219.8304512916529
 21
133.1746781709755
 72
     1
 10
219.8304512916529
 20
133.1746781709755
 11
220.4137846429918
 21
136.674678279009
 72
     1
 10
220.4137846429918
 20
136.674678279009
 11
219.247117940314
 21
136.674678279009
 97
        0
 75
     0
 76
     1
 98
        0
  0
LINE
  5
235
330
232
100
AcDbEntity
  8
Default
  6
Continuous
 62
     7
100
AcDbLine
 10
234.0161183296
 20
249.1722161415
 30
0.0
 11
218.0804512376
 21
249.1722161415
 31
0.0
  0
LINE
  5
236
330
232
100
AcDbEntity
  8
Default
  6
Continuous
 62
     7
100
AcDbLine
 10
234.0161183296
 20
133.1746757341
 30
0.0
 11
218.0804512376
 21
133.1746757341
 31
0.0
  0
LINE
  5
237
330
232
100
AcDbEntity
  8
Default
  6
Continuous
 62
     7
100
AcDbLine
 10
219.8304512917
 20
249.1722161415
 30
0.0
 11
219.8304512917
 21
133.174678171
 31
0.0
  0
TEXT
  5
238
330
232
100
AcDbEntity
  8
Default
  6
Continuous
 62
     7
100
AcDbText
 10
218.9554512917
 20
188.6677653381
 30
0.0
 40
3.5
  1
116
 50
90.0
  7
SEACAD_Solid_Edge_ISO
 11
215.4554512917
 21
188.6677653381
 31
0.0
100
AcDbText
 73
     3
  0
ENDBLK
  5
23A
330
232
100
AcDbEntity
  8
0
100
AcDbBlockEnd
  0
BLOCK
  5
25E
330
25C
100
AcDbEntity
  8
0
100
AcDbBlockBegin
  2
SEANNOT_GROUP
 70
     0
 10
0.0
 20
0.0
 30
0.0
  3
SEANNOT_GROUP
  1

  0
ENDBLK
  5
25F
330
25C
100
AcDbEntity
  8
0
100
AcDbBlockEnd
  0
BLOCK
  5
265
330
263
100
AcDbEntity
  8
0
100
AcDbBlockBegin
  2
SEANNOT_GROUP1
 70
     0
 10
0.0
 20
0.0
 30
0.0
  3
SEANNOT_GROUP1
  1

  0
ENDBLK
  5
266
330
263
100
AcDbEntity
  8
0
100
AcDbBlockEnd
  0
ENDSEC
  0
SECTION
  2
ENTITIES
  0
MTEXT
  5
6F
330
1F
100
AcDbEntity
  8
Default
100
AcDbMText
 10
341.91244398
 20
40.1430177704
 30
0.0
 40
3.5
 41
8.662511
 46
5.7272827273
 71
     1
 72
     1
  1
{\fSolid Edge ISO|b0||i0||c0|p34;\C7;\H3.5;\W1.;X120}
 73
     1
 44
1.0
1001
ACAD
1000
ACAD_MTEXT_DEFINED_HEIGHT_BEGIN
1070
    46
1040
5.7272827273
1000
ACAD_MTEXT_DEFINED_HEIGHT_END
  0
INSERT
  5
71
330
1F
100
AcDbEntity
  8
Default
100
AcDbBlockReference
  2
SE
 10
0.0
 20
0.0
 30
0.0
  0
INSERT
  5
CD
330
1F
100
AcDbEntity
  8
Default
100
AcDbBlockReference
  2
SE1
 10
0.0
 20
0.0
 30
0.0
  0
DIMENSION
  5
1ED
330
1F
100
AcDbEntity
  8
Default
  6
Continuous
 62
     7
100
AcDbDimension
  2
DMBLK14
 10
369.3346599555
 20
94.6363512995
 30
0.0
 11
269.7219058202
 21
94.6363512995
 31
0.0
 70
   160
  1
\A1;<>
 71
     5
 42
-1.0
 73
     0
 74
     0
 75
     0
  3
DIN_(mm)
100
AcDbAlignedDimension
 13
170.1091557072
 23
214.3496577265
 33
0.0
 14
369.3346599555
 24
207.815122174
 34
0.0
100
AcDbRotatedDimension
  0
DIMENSION
  5
1F7
330
1F
100
AcDbEntity
  8
Default
  6
Continuous
 62
     7
100
AcDbDimension
  2
DMBLK15
 10
284.0161183296
 20
105.8548807589
 30
0.0
 11
326.675388447
 21
105.8548807589
 31
0.0
 70
   160
  1
\A1;<>
 71
     5
 42
-1.0
 73
     0
 74
     0
 75
     0
  3
DIN_(mm)
100
AcDbAlignedDimension
 13
369.3346599555
 23
174.5317697016
 33
0.0
 14
284.0161183296
 24
132.1740042089
 34
0.0
100
AcDbRotatedDimension
  0
DIMENSION
  5
201
330
1F
100
AcDbEntity
  8
Default
  6
Continuous
 62
     7
100
AcDbDimension
  2
DMBLK16
 10
229.0161183296
 20
105.8548804043
 30
0.0
 11
256.5161184786
 21
105.8548804043
 31
0.0
 70
   160
  1
\A1;<>
 71
     5
 42
-1.0
 73
     0
 74
     0
 75
     0
  3
DIN_(mm)
100
AcDbAlignedDimension
 13
284.0161183296
 23
132.1740042089
 33
0.0
 14
229.0161183296
 24
138.7740750455
 34
0.0
100
AcDbRotatedDimension
  0
DIMENSION
  5
20B
330
1F
100
AcDbEntity
  8
Default
  6
Continuous
 62
     7
100
AcDbDimension
  2
DMBLK17
 10
170.1091557072
 20
105.8548804962
 30
0.0
 11
199.5626377134
 21
105.8548804962
 31
0.0
 70
   160
  1
\A1;<>
 71
     5
 42
-1.0
 73
     0
 74
     0
 75
     0
  3
DIN_(mm)
100
AcDbAlignedDimension
 13
229.0161183296
 23
138.7740750455
 33
0.0
 14
170.1091557072
 24
167.9972341492
 34
0.0
100
AcDbRotatedDimension
  0
DIMENSION
  5
215
330
1F
100
AcDbEntity
  8
Default
  6
Continuous
 62
     7
100
AcDbDimension
  2
DMBLK18
 10
315.2431904504
 20
145.9143909378
 30
0.0
 11
315.2431904504
 21
191.173445688
 31
0.0
 70
   161
  1
\A1;<>
 71
     5
 42
-1.0
 73
     0
 74
     0
 75
     0
  3
DIN_(mm)
100
AcDbAlignedDimension
 13
321.5622648762
 23
145.9143909378
 33
0.0
 14
321.5622648762
 24
236.4325009378
 34
0.0
  0
DIMENSION
  5
21D
330
1F
100
AcDbEntity
  8
Default
  6
Continuous
 62
     7
100
AcDbDimension
  2
DMBLK19
 10
234.0161183296
 20
270.2336626592
 30
0.0
 11
245.2661187767
 21
270.2336626592
 31
0.0
 70
   161
  1
\A1;<>
 71
     5
 42
-1.0
 73
     0
 74
     0
 75
     0
  3
DIN_(mm)
100
AcDbAlignedDimension
 13
234.0161183296
 23
249.1722161415
 33
0.0
 14
256.5161183296
 24
249.1722161415
 34
0.0
1001
ACAD
1000
DSTYLE
1002
{
1070
   271
1070
     2
1070
     0
1002
}
  0
DIMENSION
  5
227
330
1F
100
AcDbEntity
  8
Default
  6
Continuous
 62
     7
100
AcDbDimension
  2
DMBLK20
 10
256.5161183296
 20
270.2336626592
 30
0.0
 11
267.7661187767
 21
270.2336626592
 31
0.0
 70
   161
  1
\A1;<>
 71
     5
 42
-1.0
 73
     0
 74
     0
 75
     0
  3
DIN_(mm)
100
AcDbAlignedDimension
 13
256.5161183296
 23
249.1722161415
 33
0.0
 14
279.0161183296
 24
249.1722161415
 34
0.0
1001
ACAD
1000
DSTYLE
1002
{
1070
   271
1070
     2
1070
     0
1002
}
  0
DIMENSION
  5
231
330
1F
100
AcDbEntity
  8
Default
  6
Continuous
 62
     7
100
AcDbDimension
  2
DMBLK21
 10
219.8304512917
 20
249.1722161415
 30
0.0
 11
219.8304512917
 21
191.1734471562
 31
0.0
 70
   161
  1
\A1;<>
 71
     5
 42
-1.0
 73
     0
 74
     0
 75
     0
  3
DIN_(mm)
100
AcDbAlignedDimension
 13
234.0161183296
 23
249.1722161415
 33
0.0
 14
234.0161183296
 24
133.1746757341
 34
0.0
1001
ACAD
1000
DSTYLE
1002
{
1070
   271
1070
     2
1070
     0
1002
}
  0
LINE
  5
23B
330
1F
100
AcDbEntity
  8
Default
  6
Continuous
 62
     7
100
AcDbLine
 10
10.0
 20
10.0
 30
0.0
 11
410.0
 21
10.0
 31
0.0
  0
LINE
  5
23C
330
1F
100
AcDbEntity
  8
Default
  6
Continuous
 62
     7
100
AcDbLine
 10
410.0
 20
10.0
 30
0.0
 11
410.0
 21
287.0
 31
0.0
  0
LINE
  5
23D
330
1F
100
AcDbEntity
  8
Default
  6
Continuous
 62
     7
100
AcDbLine
 10
410.0
 20
287.0
 30
0.0
 11
10.0
 21
287.0
 31
0.0
  0
LINE
  5
23E
330
1F
100
AcDbEntity
  8
Default
  6
Continuous
 62
     7
100
AcDbLine
 10
10.0
 20
287.0
 30
0.0
 11
10.0
 21
10.0
 31
0.0
  0
LINE
  5
23F
330
1F
100
AcDbEntity
  8
Default
  6
Continuous
 62
     7
100
AcDbLine
 10
267.125
 20
10.0
 30
0.0
 11
267.125
 21
60.8
 31
0.0
  0
LINE
  5
240
330
1F
100
AcDbEntity
  8
Default
  6
Continuous
 62
     7
100
AcDbLine
 10
289.35
 20
32.225
 30
0.0
 11
289.35
 21
60.8
 31
0.0
  0
LINE
  5
241
330
1F
100
AcDbEntity
  8
Default
  6
Continuous
 62
     7
100
AcDbLine
 10
308.4
 20
32.225
 30
0.0
 11
308.4
 21
60.8
 31
0.0
  0
LINE
  5
242
330
1F
100
AcDbEntity
  8
Default
  6
Continuous
 62
     7
100
AcDbLine
 10
330.625
 20
10.0
 30
0.0
 11
330.625
 21
60.8
 31
0.0
  0
LINE
  5
243
330
1F
100
AcDbEntity
  8
Default
  6
Continuous
 62
     7
100
AcDbLine
 10
340.15
 20
22.7
 30
0.0
 11
340.15
 21
32.098
 31
0.0
  0
LINE
  5
244
330
1F
100
AcDbEntity
  8
Default
  6
Continuous
 62
     7
100
AcDbLine
 10
352.85
 20
10.0
 30
0.0
 11
352.85
 21
16.35
 31
0.0
  0
LINE
  5
245
330
1F
100
AcDbEntity
  8
Default
  6
Continuous
 62
     7
100
AcDbLine
 10
378.25
 20
10.0
 30
0.0
 11
378.25
 21
16.35
 31
0.0
  0
LINE
  5
246
330
1F
100
AcDbEntity
  8
Default
  6
Continuous
 62
     7
100
AcDbLine
 10
400.348
 20
22.7
 30
0.0
 11
400.348
 21
32.098
 31
0.0
  0
LINE
  5
247
330
1F
100
AcDbEntity
  8
Default
  6
Continuous
 62
     7
100
AcDbLine
 10
267.125
 20
60.8
 30
0.0
 11
410.0
 21
60.8
 31
0.0
  0
LINE
  5
248
330
1F
100
AcDbEntity
  8
Default
  6
Continuous
 62
     7
100
AcDbLine
 10
267.125
 20
55.085
 30
0.0
 11
330.625
 21
55.085
 31
0.0
  0
LINE
  5
249
330
1F
100
AcDbEntity
  8
Default
  6
Continuous
 62
     7
100
AcDbLine
 10
267.125
 20
49.37
 30
0.0
 11
330.625
 21
49.37
 31
0.0
  0
LINE
  5
24A
330
1F
100
AcDbEntity
  8
Default
  6
Continuous
 62
     7
100
AcDbLine
 10
330.625
 20
45.052
 30
0.0
 11
410.0
 21
45.052
 31
0.0
  0
LINE
  5
24B
330
1F
100
AcDbEntity
  8
Default
  6
Continuous
 62
     7
100
AcDbLine
 10
267.125
 20
43.655
 30
0.0
 11
330.625
 21
43.655
 31
0.0
  0
LINE
  5
24C
330
1F
100
AcDbEntity
  8
Default
  6
Continuous
 62
     7
100
AcDbLine
 10
267.125
 20
37.94
 30
0.0
 11
330.625
 21
37.94
 31
0.0
  0
LINE
  5
24D
330
1F
100
AcDbEntity
  8
Default
  6
Continuous
 62
     7
100
AcDbLine
 10
267.125
 20
32.225
 30
0.0
 11
410.0
 21
32.225
 31
0.0
  0
LINE
  5
24E
330
1F
100
AcDbEntity
  8
Default
  6
Continuous
 62
     7
100
AcDbLine
 10
330.625
 20
22.7
 30
0.0
 11
410.0
 21
22.7
 31
0.0
  0
LINE
  5
24F
330
1F
100
AcDbEntity
  8
Default
  6
Continuous
 62
     7
100
AcDbLine
 10
330.625
 20
16.35
 30
0.0
 11
410.0
 21
16.35
 31
0.0
  0
MTEXT
  5
250
330
1F
100
AcDbEntity
  8
Default
100
AcDbMText
 10
268.649
 20
52.2275
 30
0.0
 40
3.048
 41
20.701
 46
5.715
 71
     4
 72
     1
  1
{\fSolid Edge ISO|b0||i0||c0|p34;\C7;\H3.048;\W1.;DRAWN}
 73
     1
 44
1.0
1001
ACAD
1000
ACAD_MTEXT_DEFINED_HEIGHT_BEGIN
1070
    46
1040
5.715
1000
ACAD_MTEXT_DEFINED_HEIGHT_END
  0
MTEXT
  5
251
330
1F
100
AcDbEntity
  8
Default
100
AcDbMText
 10
268.649
 20
46.5125
 30
0.0
 40
3.048
 41
20.701
 46
5.715
 71
     4
 72
     1
  1
{\fSolid Edge ISO|b0||i0||c0|p34;\C7;\H3.048;\W1.;CHECKED}
 73
     1
 44
1.0
1001
ACAD
1000
ACAD_MTEXT_DEFINED_HEIGHT_BEGIN
1070
    46
1040
5.715
1000
ACAD_MTEXT_DEFINED_HEIGHT_END
  0
MTEXT
  5
252
330
1F
100
AcDbEntity
  8
Default
100
AcDbMText
 10
268.649
 20
40.7975
 30
0.0
 40
3.048
 41
20.701
 46
5.715
 71
     4
 72
     1
  1
{\fSolid Edge ISO|b0||i0||c0|p34;\C7;\H3.048;\W1.;ENG APPR}
 73
     1
 44
1.0
1001
ACAD
1000
ACAD_MTEXT_DEFINED_HEIGHT_BEGIN
1070
    46
1040
5.715
1000
ACAD_MTEXT_DEFINED_HEIGHT_END
  0
MTEXT
  5
253
330
1F
100
AcDbEntity
  8
Default
100
AcDbMText
 10
268.649
 20
35.0825
 30
0.0
 40
3.048
 41
20.701
 46
5.715
 71
     4
 72
     1
  1
{\fSolid Edge ISO|b0||i0||c0|p34;\C7;\H3.048;\W1.;MGR APPR}
 73
     1
 44
1.0
1001
ACAD
1000
ACAD_MTEXT_DEFINED_HEIGHT_BEGIN
1070
    46
1040
5.715
1000
ACAD_MTEXT_DEFINED_HEIGHT_END
  0
MTEXT
  5
254
330
1F
100
AcDbEntity
  8
Default
100
AcDbMText
 10
298.875
 20
21.1125
 30
0.0
 40
3.048
 41
63.5
 46
22.225
 71
     5
 72
     1
  3
{\fSolid Edge ISO|b0||i0||c0|p34;\C7;\H3.048;\W1.;UNLESS OTHERWISE SPECIFIED\P}{\fSolid Edge ISO|b0||i0||c0|p34;\C7;\H3.048;\W1.;DIMENSIONS ARE IN MILLIMETERS\P}{\fSolid Edge ISO|b0||i0||c0|p34;\C7;\H3.048;\W1.;ANGLES ±X.X°\P}{\fSolid Edge ISO|b0||i0
  1
||c0|p34;\C7;\H3.048;\W1.;2 PL ±X.XX 3 PL ±X.XXX}
 73
     1
 44
1.0
1001
ACAD
1000
ACAD_MTEXT_DEFINED_HEIGHT_BEGIN
1070
    46
1040
22.225
1000
ACAD_MTEXT_DEFINED_HEIGHT_END
  0
MTEXT
  5
255
330
1F
100
AcDbEntity
  8
Default
100
AcDbMText
 10
298.875
 20
57.9425
 30
0.0
 40
3.048
 41
19.05
 46
5.715
 71
     5
 72
     1
  1
{\fSolid Edge ISO|b0||i0||c0|p34;\C7;\H3.048;\W1.;NAME}
 73
     1
 44
1.0
1001
ACAD
1000
ACAD_MTEXT_DEFINED_HEIGHT_BEGIN
1070
    46
1040
5.715
1000
ACAD_MTEXT_DEFINED_HEIGHT_END
  0
MTEXT
  5
256
330
1F
100
AcDbEntity
  8
Default
100
AcDbMText
 10
319.5125
 20
57.9425
 30
0.0
 40
3.048
 41
22.225
 46
5.715
 71
     5
 72
     1
  1
{\fSolid Edge ISO|b0||i0||c0|p34;\C7;\H3.048;\W1.;DATE}
 73
     1
 44
1.0
1001
ACAD
1000
ACAD_MTEXT_DEFINED_HEIGHT_BEGIN
1070
    46
1040
5.715
1000
ACAD_MTEXT_DEFINED_HEIGHT_END
  0
MTEXT
  5
257
330
1F
100
AcDbEntity
  8
Default
100
AcDbMText
 10
331.895
 20
44.3015454545
 30
0.0
 40
2.54
 41
78.105
 46
4.1563736364
 71
     1
 72
     1
  1
{\fSolid Edge ISO|b0||i0||c0|p34;\C7;\H2.54;\W1.;TITLE}
 73
     1
 44
1.0
1001
ACAD
1000
ACAD_MTEXT_DEFINED_HEIGHT_BEGIN
1070
    46
1040
4.1563736364
1000
ACAD_MTEXT_DEFINED_HEIGHT_END
  0
MTEXT
  5
258
330
1F
100
AcDbEntity
  8
Default
100
AcDbMText
 10
335.3875
 20
31.4745454545
 30
0.0
 40
2.54
 41
9.525
 46
4.1563736364
 71
     2
 72
     1
  1
{\fSolid Edge ISO|b0||i0||c0|p34;\C7;\H2.54;\W1.;SIZE}
 73
     1
 44
1.0
1001
ACAD
1000
ACAD_MTEXT_DEFINED_HEIGHT_BEGIN
1070
    46
1040
4.1563736364
1000
ACAD_MTEXT_DEFINED_HEIGHT_END
  0
MTEXT
  5
259
330
1F
100
AcDbEntity
  8
Default
100
AcDbMText
 10
335.3875
 20
26.1925
 30
0.0
 40
3.048
 41
9.525
 46
6.985
 71
     5
 72
     1
  1
{\fSolid Edge ISO|b1||i0||c0|p34;\C7;\H3.048;\W1.;A3}
 73
     1
 44
1.0
1001
ACAD
1000
ACAD_MTEXT_DEFINED_HEIGHT_BEGIN
1070
    46
1040
6.985
1000
ACAD_MTEXT_DEFINED_HEIGHT_END
  0
MTEXT
  5
25A
330
1F
100
AcDbEntity
  8
Default
100
AcDbMText
 10
341.42
 20
31.4745454545
 30
0.0
 40
2.54
 41
58.928
 46
4.1563736364
 71
     1
 72
     1
  1
{\fSolid Edge ISO|b0||i0||c0|p34;\C7;\H2.54;\W1.;DWG NO}
 73
     1
 44
1.0
1001
ACAD
1000
ACAD_MTEXT_DEFINED_HEIGHT_BEGIN
1070
    46
1040
4.1563736364
1000
ACAD_MTEXT_DEFINED_HEIGHT_END
  0
MTEXT
  5
25B
330
1F
100
AcDbEntity
  8
Default
100
AcDbMText
 10
405.174
 20
31.4745454545
 30
0.0
 40
2.54
 41
9.652
 46
4.1563736364
 71
     2
 72
     1
  1
{\fSolid Edge ISO|b0||i0||c0|p34;\C7;\H2.54;\W1.;REV}
 73
     1
 44
1.0
1001
ACAD
1000
ACAD_MTEXT_DEFINED_HEIGHT_BEGIN
1070
    46
1040
4.1563736364
1000
ACAD_MTEXT_DEFINED_HEIGHT_END
  0
INSERT
  5
25D
330
1F
100
AcDbEntity
  8
Default
100
AcDbBlockReference
  2
SEANNOT_GROUP
 10
0.0
 20
0.0
 30
0.0
  0
MULTILEADER
  5
260
330
1F
100
AcDbEntity
  8
Default
  6
Continuous
 62
     7
 92
      256
310
00010000020000000C00000013000000993A0000EC00000026000000989F1B9AB2CF744063575A46EAFD3140000000000000000000000000000000000000000000000000000000000000F03F000000000000F03F00000000000000000000000000000000460049004C00450020004E0041004D0045003A0020005800310032
310
0030002E0064006600740000001300000001000000FCA9F1D24D620840000000000000F03F0000000000000000000000000000F03F00000000000000000000000000000000000000000000000000000000000000002200000053006F006C0069006400200045006400670065002000490053004F0000000000000000000000
310
0000
100
AcDbMLeader
300
CONTEXT_DATA{
 40
1.0
 10
331.2158
 20
19.50976
 30
0.0
 41
3.048
140
3.048
145
1.0668
174
     1
175
     1
176
     0
177
     0
290
     1
304
{\pxsm0.9;\fSolid Edge ISO|b0||i0||c0|p34;\W1.;FILE NAME: X120.dft\P}
 11
0.0
 21
0.0
 31
1.0
340
11
 12
333.2158
 22
21.049
 32
0.0
 13
1.0
 23
0.0
 33
0.0
 42
0.0
 43
0.0
 44
0.0
 45
1.0
170
     1
 90
-1073741824
171
     1
172
     1
 91
-939524096
141
1.5
 92
        0
291
     0
292
     0
173
     0
293
     0
142
0.0
143
0.0
294
     0
295
     0
296
     0
110
0.0
120
0.0
130
0.0
111
1.0
121
0.0
131
0.0
112
0.0
122
1.0
132
0.0
297
     0
301
}
340
6C
 90
 35052449
170
     0
 91
-1056964608
341
14
171
    -2
290
     1
291
     1
 41
0.0
342
1E1
 42
4.0
172
     2
343
11
173
     1
 95
        1
174
     1
175
     0
 92
-1073741824
292
     0
 93
-1023410169
 10
1.0
 20
1.0
 30
1.0
 43
0.0
176
     0
293
     0
294
     0
178
     0
179
     1
 45
1.0
1001
ACAD_MLEADERVER
1070
     2
  0
MTEXT
  5
261
330
1F
100
AcDbEntity
  8
Default
100
AcDbMText
 10
332.149
 20
13.175
 30
0.0
 40
3.048
 41
20.701
 46
6.35
 71
     4
 72
     1
  1
{\fSolid Edge ISO|b0||i0||c0|p34;\C7;\H3.048;\W1.;SCALE:}
 73
     1
 44
1.0
1001
ACAD
1000
ACAD_MTEXT_DEFINED_HEIGHT_BEGIN
1070
    46
1040
6.35
1000
ACAD_MTEXT_DEFINED_HEIGHT_END
  0
MTEXT
  5
262
330
1F
100
AcDbEntity
  8
Default
100
AcDbMText
 10
354.374
 20
13.175
 30
0.0
 40
3.048
 41
23.876
 46
6.35
 71
     4
 72
     1
  1
{\fSolid Edge ISO|b0||i0||c0|p34;\C7;\H3.048;\W1.;WEIGHT:}
 73
     1
 44
1.0
1001
ACAD
1000
ACAD_MTEXT_DEFINED_HEIGHT_BEGIN
1070
    46
1040
6.35
1000
ACAD_MTEXT_DEFINED_HEIGHT_END
  0
INSERT
  5
264
330
1F
100
AcDbEntity
  8
Default
100
AcDbBlockReference
  2
SEANNOT_GROUP1
 10
0.0
 20
0.0
 30
0.0
  0
MULTILEADER
  5
267
330
1F
100
AcDbEntity
  8
Default
  6
Continuous
 62
     7
 92
      248
310
F8000000020000000C00000013000000993A0000E4000000260000009B8713984ECB7740D092C7D3F2432740000000000000000000000000000000000000000000000000000000000000F03F000000000000F03F000000000000000000000000000000005300480045004500540020003200340020004F0046002000320034
310
00000000000E00000001000000FCA9F1D24D620840000000000000F03F0000000000000000000000000000F03F00000000000000000000000000000000000000000000000000000000000000002200000053006F006C0069006400200045006400670065002000490053004F00000000000000000000000000
100
AcDbMLeader
300
CONTEXT_DATA{
 40
1.0
 10
378.8408
 20
13.15976
 30
0.0
 41
3.048
140
3.048
145
1.0668
174
     1
175
     1
176
     0
177
     0
290
     1
304
{\pxsm0.9;\fSolid Edge ISO|b0||i0||c0|p34;\W1.;SHEET 24 OF 24\P}
 11
0.0
 21
0.0
 31
1.0
340
11
 12
380.8408
 22
14.699
 32
0.0
 13
1.0
 23
0.0
 33
0.0
 42
0.0
 43
0.0
 44
0.0
 45
1.0
170
     1
 90
-1073741824
171
     1
172
     1
 91
-939524096
141
1.5
 92
        0
291
     0
292
     0
173
     0
293
     0
142
0.0
143
0.0
294
     0
295
     0
296
     0
110
0.0
120
0.0
130
0.0
111
1.0
121
0.0
131
0.0
112
0.0
122
1.0
132
0.0
297
     0
301
}
340
6C
 90
 35052449
170
     0
 91
-1056964608
341
14
171
    -2
290
     1
291
     1
 41
0.0
342
1E1
 42
4.0
172
     2
343
11
173
     1
 95
        1
174
     1
175
     0
 92
-1073741824
292
     0
 93
-1023410169
 10
1.0
 20
1.0
 30
1.0
 43
0.0
176
     0
293
     0
294
     0
178
     0
179
     1
 45
1.0
1001
ACAD_MLEADERVER
1070
     2
  0
MTEXT
  5
268
330
1F
100
AcDbEntity
  8
Default
100
AcDbMText
 10
370.8443066259
 20
53.508688976
 30
0.0
 40
5.0
 41
79.375
 46
31.75
 71
     5
 72
     1
  1
{\fSolid Edge ANSI|b1||i0||c0|p34;\C7;\H5.;\W1.;xicoy \P}{\fSolid Edge ANSI|b1||i0||c0|p34;\C7;\H5.;\W1.;Turbines\P}
 73
     1
 44
1.0
1001
ACAD
1000
ACAD_MTEXT_DEFINED_HEIGHT_BEGIN
1070
    46
1040
31.75
1000
ACAD_MTEXT_DEFINED_HEIGHT_END
  0
MTEXT
  5
269
330
1F
100
AcDbEntity
  8
Default
100
AcDbMText
 10
292.0842353607
 20
54.1723192263
 30
0.0
 40
3.5
 41
12.775011
 46
5.7272827273
 71
     1
 72
     1
  1
{\fSolid Edge ISO|b0||i0||c0|p34;\C7;\H3.5;\W1.;Gaspar\P}
 73
     1
 44
1.0
1001
ACAD
1000
ACAD_MTEXT_DEFINED_HEIGHT_BEGIN
1070
    46
1040
5.7272827273
1000
ACAD_MTEXT_DEFINED_HEIGHT_END
  0
MTEXT
  5
26A
330
1F
100
AcDbEntity
  8
Default
100
AcDbMText
 10
311.1931114817
 20
54.1723192263
 30
0.0
 40
3.5
 41
16.800011
 46
5.7272827273
 71
     1
 72
     1
  1
{\fSolid Edge ISO|b0||i0||c0|p34;\C7;\H3.5;\W1.;1/11/2020\P}
 73
     1
 44
1.0
1001
ACAD
1000
ACAD_MTEXT_DEFINED_HEIGHT_BEGIN
1070
    46
1040
5.7272827273
1000
ACAD_MTEXT_DEFINED_HEIGHT_END
  0
ENDSEC
  0
SECTION
  2
OBJECTS
  0
DICTIONARY
  5
C
330
0
100
AcDbDictionary
281
     1
  3
ACAD_DETAILVIEWSTYLE
350
2A6
  3
ACAD_GROUP
350
D
  3
ACAD_LAYOUT
350
1A
  3
ACAD_MATERIAL
350
43
  3
ACAD_MLEADERSTYLE
350
6B
  3
ACAD_MLINESTYLE
350
17
  3
ACAD_PLOTSETTINGS
350
19
  3
ACAD_PLOTSTYLENAME
350
E
  3
ACAD_SCALELIST
350
47
  3
ACAD_SECTIONVIEWSTYLE
350
2A7
  3
ACAD_TABLESTYLE
350
69
  3
ACAD_VISUALSTYLE
350
2A
  3
ACDB_RECOMPOSE_DATA
350
2A3
  3
AcDbVariableDictionary
350
26C
  0
SUN
  5
6D
330
29
100
AcDbSun
 90
        1
290
     0
 63
     7
421
 16777215
 40
1.0
291
     1
 91
  2455826
 92
 54000000
292
     0
 70
     2
 71
   256
280
     1
  0
DICTIONARY
  5
2A6
102
{ACAD_REACTORS
330
C
102
}
330
C
100
AcDbDictionary
281
     1
  0
DICTIONARY
  5
D
102
{ACAD_REACTORS
330
C
102
}
330
C
100
AcDbDictionary
281
     1
  0
DICTIONARY
  5
1A
102
{ACAD_REACTORS
330
C
102
}
330
C
100
AcDbDictionary
281
     1
  3
Layout1
350
1E
  3
Model
350
22
  0
DICTIONARY
  5
43
102
{ACAD_REACTORS
330
C
102
}
330
C
100
AcDbDictionary
281
     1
  3
ByBlock
350
45
  3
ByLayer
350
44
  3
Global
350
46
  0
DICTIONARY
  5
6B
102
{ACAD_REACTORS
330
C
102
}
330
C
100
AcDbDictionary
281
     1
  3
Standard
350
6C
  0
DICTIONARY
  5
17
102
{ACAD_REACTORS
330
C
102
}
330
C
100
AcDbDictionary
281
     1
  3
Standard
350
18
  0
DICTIONARY
  5
19
102
{ACAD_REACTORS
330
C
102
}
330
C
100
AcDbDictionary
281
     1
  0
ACDBDICTIONARYWDFLT
  5
E
102
{ACAD_REACTORS
330
C
102
}
330
C
100
AcDbDictionary
281
     1
  3
Normal
350
F
100
AcDbDictionaryWithDefault
340
F
  0
DICTIONARY
  5
47
102
{ACAD_REACTORS
330
C
102
}
330
C
100
AcDbDictionary
281
     1
  3
A0
350
48
  3
A1
350
49
  3
A2
350
4A
  3
A3
350
4B
  3
A4
350
4C
  3
A5
350
4D
  3
A6
350
4E
  3
A7
350
4F
  3
A8
350
50
  3
A9
350
51
  3
B0
350
52
  3
B1
350
53
  3
B2
350
54
  3
B3
350
55
  3
B4
350
56
  3
B5
350
57
  3
B6
350
58
  3
B7
350
59
  3
B8
350
5A
  3
B9
350
5B
  3
C0
350
5C
  3
C1
350
5D
  3
C2
350
5E
  3
C3
350
5F
  3
C4
350
60
  3
C5
350
61
  3
C6
350
62
  3
C7
350
63
  3
C8
350
64
  3
C9
350
65
  3
D0
350
66
  3
D1
350
67
  3
D2
350
68
  0
DICTIONARY
  5
2A7
102
{ACAD_REACTORS
330
C
102
}
330
C
100
AcDbDictionary
281
     1
  0
DICTIONARY
  5
69
102
{ACAD_REACTORS
330
C
102
}
330
C
100
AcDbDictionary
281
     1
  3
Standard
350
6A
  0
DICTIONARY
  5
2A
102
{ACAD_REACTORS
330
C
102
}
330
C
100
AcDbDictionary
281
     1
  3
2dWireframe
350
2F
  3
Basic
350
32
  3
Brighten
350
36
  3
ColorChange
350
3A
  3
Conceptual
350
34
  3
Dim
350
35
  3
EdgeColorOff
350
3D
  3
Facepattern
350
39
  3
Flat
350
2B
  3
FlatWithEdges
350
2C
  3
Gouraud
350
2D
  3
GouraudWithEdges
350
2E
  3
Hidden
350
31
  3
JitterOff
350
3B
  3
Linepattern
350
38
  3
OverhangOff
350
3C
  3
Realistic
350
33
  3
Shaded
350
42
  3
Shaded with edges
350
41
  3
Shades of Gray
350
3E
  3
Sketchy
350
3F
  3
Thicken
350
37
  3
Wireframe
350
30
  3
X-Ray
350
40
  0
XRECORD
  5
2A3
102
{ACAD_REACTORS
330
C
102
}
330
C
100
AcDbXrecord
280
     1
 90
        1
330
6A
  0
DICTIONARY
  5
26C
102
{ACAD_REACTORS
330
C
102
}
330
C
100
AcDbDictionary
281
     1
  3
CANNOSCALE
350
26D
  3
CENTEREXE
350
2A8
  3
CENTERLTYPEFILE
350
2A9
  3
CMLEADERSTYLE
350
2A5
  3
CTABLESTYLE
350
2A4
  3
XCLIPFRAME
350
26E
  0
LAYOUT
  5
1E
102
{ACAD_REACTORS
330
1A
102
}
330
1A
100
AcDbPlotSettings
  1

  2
none_device
  4

  6

 40
0.0
 41
0.0
 42
0.0
 43
0.0
 44
0.0
 45
0.0
 46
0.0
 47
0.0
 48
0.0
 49
0.0
140
0.0
141
0.0
142
1.0
143
1.0
 70
   688
 72
     1
 73
     0
 74
     5
  7

 75
    16
 76
     0
 77
     2
 78
   300
147
1.0
148
0.0
149
0.0
100
AcDbLayout
  1
Layout1
 70
     1
 71
     1
 10
0.0
 20
0.0
 11
420.0
 21
297.0
 12
0.0
 22
0.0
 32
0.0
 14
0.0
 24
0.0
 34
0.0
 15
420.0
 25
297.0
 35
0.0
146
0.0
 13
0.0
 23
0.0
 33
0.0
 16
1.0
 26
0.0
 36
0.0
 17
0.0
 27
1.0
 37
0.0
 76
     0
330
1B
  0
LAYOUT
  5
22
102
{ACAD_REACTORS
330
1A
102
}
330
1A
100
AcDbPlotSettings
  1

  2
none_device
  4
Letter_(8.50_x_11.00_Inches)
  6

 40
6.35
 41
6.35
 42
6.35000508
 43
6.35000508
 44
215.9
 45
279.4
 46
0.0
 47
0.0
 48
0.0
 49
0.0
140
0.0
141
0.0
142
1.0
143
1.0
 70
  1712
 72
     1
 73
     0
 74
     0
  7

 75
     0
 76
     0
 77
     2
 78
   300
147
1.0
148
0.0
149
0.0
100
AcDbLayout
  1
Model
 70
     1
 71
     0
 10
0.0
 20
0.0
 11
420.0
 21
297.0
 12
0.0
 22
0.0
 32
0.0
 14
0.0
 24
0.0
 34
0.0
 15
420.0
 25
297.0
 35
0.0
146
0.0
 13
0.0
 23
0.0
 33
0.0
 16
1.0
 26
0.0
 36
0.0
 17
0.0
 27
1.0
 37
0.0
 76
     0
330
1F
331
29
  0
MATERIAL
  5
45
102
{ACAD_REACTORS
330
43
102
}
330
43
100
AcDbMaterial
  1
ByBlock
 72
     1
 94
      127
  0
MATERIAL
  5
44
102
{ACAD_REACTORS
330
43
102
}
330
43
100
AcDbMaterial
  1
ByLayer
 72
     1
 94
      127
  0
MATERIAL
  5
46
102
{ACAD_REACTORS
330
43
102
}
330
43
100
AcDbMaterial
  1
Global
 72
     1
 94
      127
  0
MLEADERSTYLE
  5
6C
102
{ACAD_REACTORS
330
6B
102
}
102
{ACAD_XDICTIONARY
360
2A1
102
}
330
6B
100
AcDbMLeaderStyle
170
     2
171
     1
172
     0
 90
        2
 40
0.0
 41
0.0
173
     1
 91
-1056964608
340
14
 92
       -2
290
     1
 42
2.0
291
     1
 43
8.0
  3
Standard
341
0
 44
4.0
300

342
11
174
     1
178
     6
175
     1
176
     0
 93
-1056964608
 45
4.0
292
     0
297
     0
 46
4.0
343
0
 94
-1056964608
 47
1.0
 49
1.0
140
1.0
293
     1
141
0.0
294
     1
177
     0
142
1.0
295
     0
296
     0
143
3.75
1001
ACAD_MLEADERVER
1070
     2
  0
MLINESTYLE
  5
18
102
{ACAD_REACTORS
330
17
102
}
330
17
100
AcDbMlineStyle
  2
Standard
 70
     0
  3

 62
   256
 51
90.0
 52
90.0
 71
     2
 49
0.5
 62
   256
  6
BYLAYER
 49
-0.5
 62
   256
  6
BYLAYER
  0
ACDBPLACEHOLDER
  5
F
102
{ACAD_REACTORS
330
E
102
}
330
E
  0
SCALE
  5
48
102
{ACAD_REACTORS
330
47
102
}
330
47
100
AcDbScale
 70
     0
300
1:1
140
1.0
141
1.0
290
     1
  0
SCALE
  5
49
102
{ACAD_REACTORS
330
47
102
}
330
47
100
AcDbScale
 70
     0
300
1:2
140
1.0
141
2.0
290
     0
  0
SCALE
  5
4A
102
{ACAD_REACTORS
330
47
102
}
330
47
100
AcDbScale
 70
     0
300
1:4
140
1.0
141
4.0
290
     0
  0
SCALE
  5
4B
102
{ACAD_REACTORS
330
47
102
}
330
47
100
AcDbScale
 70
     0
300
1:5
140
1.0
141
5.0
290
     0
  0
SCALE
  5
4C
102
{ACAD_REACTORS
330
47
102
}
330
47
100
AcDbScale
 70
     0
300
1:8
140
1.0
141
8.0
290
     0
  0
SCALE
  5
4D
102
{ACAD_REACTORS
330
47
102
}
330
47
100
AcDbScale
 70
     0
300
1:10
140
1.0
141
10.0
290
     0
  0
SCALE
  5
4E
102
{ACAD_REACTORS
330
47
102
}
330
47
100
AcDbScale
 70
     0
300
1:16
140
1.0
141
16.0
290
     0
  0
SCALE
  5
4F
102
{ACAD_REACTORS
330
47
102
}
330
47
100
AcDbScale
 70
     0
300
1:20
140
1.0
141
20.0
290
     0
  0
SCALE
  5
50
102
{ACAD_REACTORS
330
47
102
}
330
47
100
AcDbScale
 70
     0
300
1:30
140
1.0
141
30.0
290
     0
  0
SCALE
  5
51
102
{ACAD_REACTORS
330
47
102
}
330
47
100
AcDbScale
 70
     0
300
1:40
140
1.0
141
40.0
290
     0
  0
SCALE
  5
52
102
{ACAD_REACTORS
330
47
102
}
330
47
100
AcDbScale
 70
     0
300
1:50
140
1.0
141
50.0
290
     0
  0
SCALE
  5
53
102
{ACAD_REACTORS
330
47
102
}
330
47
100
AcDbScale
 70
     0
300
1:100
140
1.0
141
100.0
290
     0
  0
SCALE
  5
54
102
{ACAD_REACTORS
330
47
102
}
330
47
100
AcDbScale
 70
     0
300
2:1
140
2.0
141
1.0
290
     0
  0
SCALE
  5
55
102
{ACAD_REACTORS
330
47
102
}
330
47
100
AcDbScale
 70
     0
300
4:1
140
4.0
141
1.0
290
     0
  0
SCALE
  5
56
102
{ACAD_REACTORS
330
47
102
}
330
47
100
AcDbScale
 70
     0
300
8:1
140
8.0
141
1.0
290
     0
  0
SCALE
  5
57
102
{ACAD_REACTORS
330
47
102
}
330
47
100
AcDbScale
 70
     0
300
10:1
140
10.0
141
1.0
290
     0
  0
SCALE
  5
58
102
{ACAD_REACTORS
330
47
102
}
330
47
100
AcDbScale
 70
     0
300
100:1
140
100.0
141
1.0
290
     0
  0
SCALE
  5
59
102
{ACAD_REACTORS
330
47
102
}
330
47
100
AcDbScale
 70
     0
300
1/128" = 1'-0"
140
0.0078125
141
12.0
290
     0
  0
SCALE
  5
5A
102
{ACAD_REACTORS
330
47
102
}
330
47
100
AcDbScale
 70
     0
300
1/64" = 1'-0"
140
0.015625
141
12.0
290
     0
  0
SCALE
  5
5B
102
{ACAD_REACTORS
330
47
102
}
330
47
100
AcDbScale
 70
     0
300
1/32" = 1'-0"
140
0.03125
141
12.0
290
     0
  0
SCALE
  5
5C
102
{ACAD_REACTORS
330
47
102
}
330
47
100
AcDbScale
 70
     0
300
1/16" = 1'-0"
140
0.0625
141
12.0
290
     0
  0
SCALE
  5
5D
102
{ACAD_REACTORS
330
47
102
}
330
47
100
AcDbScale
 70
     0
300
3/32" = 1'-0"
140
0.09375
141
12.0
290
     0
  0
SCALE
  5
5E
102
{ACAD_REACTORS
330
47
102
}
330
47
100
AcDbScale
 70
     0
300
1/8" = 1'-0"
140
0.125
141
12.0
290
     0
  0
SCALE
  5
5F
102
{ACAD_REACTORS
330
47
102
}
330
47
100
AcDbScale
 70
     0
300
3/16" = 1'-0"
140
0.1875
141
12.0
290
     0
  0
SCALE
  5
60
102
{ACAD_REACTORS
330
47
102
}
330
47
100
AcDbScale
 70
     0
300
1/4" = 1'-0"
140
0.25
141
12.0
290
     0
  0
SCALE
  5
61
102
{ACAD_REACTORS
330
47
102
}
330
47
100
AcDbScale
 70
     0
300
3/8" = 1'-0"
140
0.375
141
12.0
290
     0
  0
SCALE
  5
62
102
{ACAD_REACTORS
330
47
102
}
330
47
100
AcDbScale
 70
     0
300
1/2" = 1'-0"
140
0.5
141
12.0
290
     0
  0
SCALE
  5
63
102
{ACAD_REACTORS
330
47
102
}
330
47
100
AcDbScale
 70
     0
300
3/4" = 1'-0"
140
0.75
141
12.0
290
     0
  0
SCALE
  5
64
102
{ACAD_REACTORS
330
47
102
}
330
47
100
AcDbScale
 70
     0
300
1" = 1'-0"
140
1.0
141
12.0
290
     0
  0
SCALE
  5
65
102
{ACAD_REACTORS
330
47
102
}
330
47
100
AcDbScale
 70
     0
300
1-1/2" = 1'-0"
140
1.5
141
12.0
290
     0
  0
SCALE
  5
66
102
{ACAD_REACTORS
330
47
102
}
330
47
100
AcDbScale
 70
     0
300
3" = 1'-0"
140
3.0
141
12.0
290
     0
  0
SCALE
  5
67
102
{ACAD_REACTORS
330
47
102
}
330
47
100
AcDbScale
 70
     0
300
6" = 1'-0"
140
6.0
141
12.0
290
     0
  0
SCALE
  5
68
102
{ACAD_REACTORS
330
47
102
}
330
47
100
AcDbScale
 70
     0
300
1'-0" = 1'-0"
140
12.0
141
12.0
290
     0
  0
TABLESTYLE
  5
6A
102
{ACAD_REACTORS
330
69
102
}
102
{ACAD_XDICTIONARY
360
29F
102
}
330
69
100
AcDbTableStyle
  3
Standard
 70
     0
 71
     0
 40
0.06
 41
0.06
280
     0
281
     0
  7
Standard
140
4.5
170
     2
 62
     0
 63
   257
283
     0
 90
        4
 91
        0
  1

274
    -2
284
     1
 64
     0
275
    -2
285
     1
 65
     0
276
    -2
286
     1
 66
     0
277
    -2
287
     1
 67
     0
278
    -2
288
     1
 68
     0
279
    -2
289
     1
 69
     0
  7
Standard
140
6.0
170
     5
 62
     0
 63
   257
283
     0
 90
        4
 91
        0
  1

274
    -2
284
     1
 64
     0
275
    -2
285
     1
 65
     0
276
    -2
286
     1
 66
     0
277
    -2
287
     1
 67
     0
278
    -2
288
     1
 68
     0
279
    -2
289
     1
 69
     0
  7
Standard
140
4.5
170
     5
 62
     0
 63
   257
283
     0
 90
        4
 91
        0
  1

274
    -2
284
     1
 64
     0
275
    -2
285
     1
 65
     0
276
    -2
286
     1
 66
     0
277
    -2
287
     1
 67
     0
278
    -2
288
     1
 68
     0
279
    -2
289
     1
 69
     0
  0
VISUALSTYLE
  5
2F
102
{ACAD_REACTORS
330
2A
102
}
102
{ACAD_XDICTIONARY
360
277
102
}
330
2A
100
AcDbVisualStyle
  2
2dWireframe
 70
     4
 71
     0
 72
     2
 73
     0
 90
        0
 40
0.6
 41
30.0
 62
     5
 63
     7
421
 16777215
 74
     1
 91
        4
 64
     7
 65
   257
 75
     1
175
     1
 42
1.0
 92
        0
 66
   257
 43
1.0
 76
     1
 77
     6
 78
     2
 67
     7
 79
     5
170
     0
171
     0
290
     0
174
     0
 93
        1
 44
0.0
173
     0
291
     0
 45
0.0
  0
VISUALSTYLE
  5
32
102
{ACAD_REACTORS
330
2A
102
}
102
{ACAD_XDICTIONARY
360
27D
102
}
330
2A
100
AcDbVisualStyle
  2
Basic
 70
     7
 71
     1
 72
     0
 73
     1
 90
        0
 40
0.6
 41
30.0
 62
     5
 63
     7
421
 16777215
 74
     0
 91
        4
 64
     7
 65
   257
 75
     1
175
     1
 42
1.0
 92
        8
 66
     7
 43
1.0
 76
     1
 77
     6
 78
     2
 67
     7
 79
     5
170
     0
171
     0
290
     0
174
     0
 93
        1
 44
0.0
173
     0
291
     1
 45
0.0
  0
VISUALSTYLE
  5
36
102
{ACAD_REACTORS
330
2A
102
}
102
{ACAD_XDICTIONARY
360
285
102
}
330
2A
100
AcDbVisualStyle
  2
Brighten
 70
    12
 71
     2
 72
     2
 73
     0
 90
        0
 40
0.6
 41
30.0
 62
     5
 63
     7
421
 16777215
 74
     1
 91
        4
 64
     7
 65
   257
 75
     1
175
     1
 42
1.0
 92
        8
 66
     7
 43
1.0
 76
     1
 77
     6
 78
     2
 67
     7
 79
     5
170
     0
171
     0
290
     0
174
     0
 93
        1
 44
50.0
173
     0
291
     1
 45
0.0
  0
VISUALSTYLE
  5
3A
102
{ACAD_REACTORS
330
2A
102
}
102
{ACAD_XDICTIONARY
360
28D
102
}
330
2A
100
AcDbVisualStyle
  2
ColorChange
 70
    16
 71
     2
 72
     2
 73
     3
 90
        0
 40
0.6
 41
30.0
 62
     5
 63
     8
421
  8421504
 74
     1
 91
        4
 64
     7
 65
   257
 75
     1
175
     1
 42
1.0
 92
        8
 66
     8
424
  8421504
 43
1.0
 76
     1
 77
     6
 78
     2
 67
     7
 79
     5
170
     0
171
     0
290
     0
174
     0
 93
        1
 44
0.0
173
     0
291
     1
 45
0.0
  0
VISUALSTYLE
  5
34
102
{ACAD_REACTORS
330
2A
102
}
102
{ACAD_XDICTIONARY
360
281
102
}
330
2A
100
AcDbVisualStyle
  2
Conceptual
 70
     9
 71
     3
 72
     2
 73
     0
 90
        0
 40
0.6
 41
30.0
 62
     5
 63
     7
421
 16777215
 74
     2
 91
        2
 64
     7
 65
   257
 75
     1
175
     1
 42
179.0
 92
        8
 66
     7
 43
1.0
 76
     1
 77
     6
 78
     2
 67
     7
 79
     3
170
     0
171
     0
290
     0
174
     0
 93
        1
 44
0.0
173
     0
291
     0
 45
0.0
  0
VISUALSTYLE
  5
35
102
{ACAD_REACTORS
330
2A
102
}
102
{ACAD_XDICTIONARY
360
283
102
}
330
2A
100
AcDbVisualStyle
  2
Dim
 70
    11
 71
     2
 72
     2
 73
     0
 90
        0
 40
0.6
 41
30.0
 62
     5
 63
     7
421
 16777215
 74
     1
 91
        4
 64
     7
 65
   257
 75
     1
175
     1
 42
1.0
 92
        8
 66
     7
 43
1.0
 76
     1
 77
     6
 78
     2
 67
     7
 79
     5
170
     0
171
     0
290
     0
174
     0
 93
        1
 44
-50.0
173
     0
291
     1
 45
0.0
  0
VISUALSTYLE
  5
3D
102
{ACAD_REACTORS
330
2A
102
}
102
{ACAD_XDICTIONARY
360
293
102
}
330
2A
100
AcDbVisualStyle
  2
EdgeColorOff
 70
    22
 71
     2
 72
     2
 73
     0
 90
        0
 40
0.6
 41
30.0
 62
     5
 63
     7
421
 16777215
 74
     1
 91
        4
 64
     7
 65
   257
 75
     1
175
     1
 42
1.0
 92
        8
 66
     7
 43
1.0
 76
     1
 77
     6
 78
     2
 67
     7
 79
     5
170
     0
171
     0
290
     0
174
     0
 93
        1
 44
0.0
173
     0
291
     1
 45
0.0
  0
VISUALSTYLE
  5
39
102
{ACAD_REACTORS
330
2A
102
}
102
{ACAD_XDICTIONARY
360
28B
102
}
330
2A
100
AcDbVisualStyle
  2
Facepattern
 70
    15
 71
     2
 72
     2
 73
     0
 90
        0
 40
0.6
 41
30.0
 62
     5
 63
     7
421
 16777215
 74
     1
 91
        4
 64
     7
 65
   257
 75
     1
175
     1
 42
1.0
 92
        8
 66
     7
 43
1.0
 76
     1
 77
     6
 78
     2
 67
     7
 79
     5
170
     0
171
     0
290
     0
174
     0
 93
        1
 44
0.0
173
     0
291
     1
 45
0.0
  0
VISUALSTYLE
  5
2B
102
{ACAD_REACTORS
330
2A
102
}
102
{ACAD_XDICTIONARY
360
26F
102
}
330
2A
100
AcDbVisualStyle
  2
Flat
 70
     0
 71
     2
 72
     1
 73
     1
 90
        2
 40
0.6
 41
30.0
 62
     5
 63
     7
421
 16777215
 74
     0
 91
        0
 64
     7
 65
   257
 75
     1
175
     1
 42
1.0
 92
        8
 66
     7
 43
1.0
 76
     1
 77
     6
 78
     2
 67
     7
 79
     5
170
     0
171
     0
290
     0
174
     0
 93
       13
 44
0.0
173
     0
291
     1
 45
0.0
  0
VISUALSTYLE
  5
2C
102
{ACAD_REACTORS
330
2A
102
}
102
{ACAD_XDICTIONARY
360
271
102
}
330
2A
100
AcDbVisualStyle
  2
FlatWithEdges
 70
     1
 71
     2
 72
     1
 73
     1
 90
        2
 40
0.6
 41
30.0
 62
     5
 63
     7
421
 16777215
 74
     1
 91
        0
 64
     7
 65
   257
 75
     1
175
     1
 42
1.0
 92
        0
 66
   257
 43
1.0
 76
     1
 77
     6
 78
     2
 67
     7
 79
     5
170
     0
171
     0
290
     0
174
     0
 93
       13
 44
0.0
173
     0
291
     1
 45
0.0
  0
VISUALSTYLE
  5
2D
102
{ACAD_REACTORS
330
2A
102
}
102
{ACAD_XDICTIONARY
360
273
102
}
330
2A
100
AcDbVisualStyle
  2
Gouraud
 70
     2
 71
     2
 72
     2
 73
     1
 90
        2
 40
0.6
 41
30.0
 62
     5
 63
     7
421
 16777215
 74
     0
 91
        0
 64
     7
 65
   257
 75
     1
175
     1
 42
1.0
 92
        0
 66
     7
 43
1.0
 76
     1
 77
     6
 78
     2
 67
     7
 79
     5
170
     0
171
     0
290
     0
174
     0
 93
       13
 44
0.0
173
     0
291
     1
 45
0.0
  0
VISUALSTYLE
  5
2E
102
{ACAD_REACTORS
330
2A
102
}
102
{ACAD_XDICTIONARY
360
275
102
}
330
2A
100
AcDbVisualStyle
  2
GouraudWithEdges
 70
     3
 71
     2
 72
     2
 73
     1
 90
        2
 40
0.6
 41
30.0
 62
     5
 63
     7
421
 16777215
 74
     1
 91
        0
 64
     7
 65
   257
 75
     1
175
     1
 42
1.0
 92
        0
 66
   257
 43
1.0
 76
     1
 77
     6
 78
     2
 67
     7
 79
     5
170
     0
171
     0
290
     0
174
     0
 93
       13
 44
0.0
173
     0
291
     1
 45
0.0
  0
VISUALSTYLE
  5
31
102
{ACAD_REACTORS
330
2A
102
}
102
{ACAD_XDICTIONARY
360
27B
102
}
330
2A
100
AcDbVisualStyle
  2
Hidden
 70
     6
 71
     1
 72
     2
 73
     2
 90
        0
 40
0.6
 41
30.0
 62
     5
 63
     7
421
 16777215
 74
     2
 91
        2
 64
     7
 65
   257
 75
     2
175
     1
 42
40.0
 92
        0
 66
   257
 43
1.0
 76
     1
 77
     6
 78
     2
 67
     7
 79
     3
170
     0
171
     0
290
     0
174
     0
 93
        1
 44
0.0
173
     0
291
     0
 45
0.0
  0
VISUALSTYLE
  5
3B
102
{ACAD_REACTORS
330
2A
102
}
102
{ACAD_XDICTIONARY
360
28F
102
}
330
2A
100
AcDbVisualStyle
  2
JitterOff
 70
    20
 71
     2
 72
     2
 73
     0
 90
        0
 40
0.6
 41
30.0
 62
     5
 63
     7
421
 16777215
 74
     1
 91
        4
 64
     7
 65
   257
 75
     1
175
     1
 42
1.0
 92
       10
 66
     7
 43
1.0
 76
     1
 77
     6
 78
     2
 67
     7
 79
     5
170
     0
171
     0
290
     0
174
     0
 93
        1
 44
0.0
173
     0
291
     1
 45
0.0
  0
VISUALSTYLE
  5
38
102
{ACAD_REACTORS
330
2A
102
}
102
{ACAD_XDICTIONARY
360
289
102
}
330
2A
100
AcDbVisualStyle
  2
Linepattern
 70
    14
 71
     2
 72
     2
 73
     0
 90
        0
 40
0.6
 41
30.0
 62
     5
 63
     7
421
 16777215
 74
     1
 91
        4
 64
     7
 65
   257
 75
     7
175
     7
 42
1.0
 92
        8
 66
     7
 43
1.0
 76
     1
 77
     6
 78
     2
 67
     7
 79
     5
170
     0
171
     0
290
     0
174
     0
 93
        1
 44
0.0
173
     0
291
     1
 45
0.0
  0
VISUALSTYLE
  5
3C
102
{ACAD_REACTORS
330
2A
102
}
102
{ACAD_XDICTIONARY
360
291
102
}
330
2A
100
AcDbVisualStyle
  2
OverhangOff
 70
    21
 71
     2
 72
     2
 73
     0
 90
        0
 40
0.6
 41
30.0
 62
     5
 63
     7
421
 16777215
 74
     1
 91
        4
 64
     7
 65
   257
 75
     1
175
     1
 42
1.0
 92
        9
 66
     7
 43
1.0
 76
     1
 77
     6
 78
     2
 67
     7
 79
     5
170
     0
171
     0
290
     0
174
     0
 93
        1
 44
0.0
173
     0
291
     1
 45
0.0
  0
VISUALSTYLE
  5
33
102
{ACAD_REACTORS
330
2A
102
}
102
{ACAD_XDICTIONARY
360
27F
102
}
330
2A
100
AcDbVisualStyle
  2
Realistic
 70
     8
 71
     2
 72
     3
 73
     0
 90
        2
 40
0.6
 41
30.0
 62
     5
 63
     7
421
 16777215
 74
     0
 91
        0
 64
     7
 65
   257
 75
     1
175
     1
 42
1.0
 92
        8
 66
   257
 43
1.0
 76
     1
 77
     6
 78
     2
 67
     7
 79
     3
170
     0
171
     0
290
     0
174
     0
 93
       13
 44
0.0
173
     0
291
     0
 45
0.0
  0
VISUALSTYLE
  5
42
102
{ACAD_REACTORS
330
2A
102
}
102
{ACAD_XDICTIONARY
360
29D
102
}
330
2A
100
AcDbVisualStyle
  2
Shaded
 70
    27
 71
     2
 72
     2
 73
     1
 90
        2
 40
0.6
 41
30.0
 62
     5
 63
     7
421
 16777215
 74
     0
 91
        4
 64
     7
 65
   257
 75
     1
175
     1
 42
1.0
 92
        8
 66
   257
 43
1.0
 76
     1
 77
     6
 78
     2
 67
     8
425
  7895160
 79
     3
170
     0
171
     0
290
     0
174
     0
 93
        5
 44
0.0
173
     0
291
     0
 45
0.0
  0
VISUALSTYLE
  5
41
102
{ACAD_REACTORS
330
2A
102
}
102
{ACAD_XDICTIONARY
360
29B
102
}
330
2A
100
AcDbVisualStyle
  2
Shaded with edges
 70
    26
 71
     2
 72
     2
 73
     1
 90
        2
 40
0.6
 41
30.0
 62
     5
 63
     7
421
 16777215
 74
     1
 91
       10
 64
     7
 65
   257
 75
     2
175
     1
 42
1.0
 92
        8
 66
   257
 43
1.0
 76
     1
 77
     6
 78
     2
 67
     7
 79
     3
170
     0
171
     0
290
     0
174
     0
 93
        5
 44
0.0
173
     0
291
     0
 45
0.0
  0
VISUALSTYLE
  5
3E
102
{ACAD_REACTORS
330
2A
102
}
102
{ACAD_XDICTIONARY
360
295
102
}
330
2A
100
AcDbVisualStyle
  2
Shades of Gray
 70
    23
 71
     2
 72
     2
 73
     3
 90
        0
 40
0.6
 41
30.0
 62
     5
 63
     7
421
 16777215
 74
     2
 91
        2
 64
     7
 65
     7
 75
     1
175
     1
 42
40.0
 92
        8
 66
     7
 43
1.0
 76
     1
 77
     6
 78
     2
 67
     7
 79
     3
170
     0
171
     0
290
     0
174
     0
 93
        1
 44
0.0
173
     0
291
     0
 45
0.0
  0
VISUALSTYLE
  5
3F
102
{ACAD_REACTORS
330
2A
102
}
102
{ACAD_XDICTIONARY
360
297
102
}
330
2A
100
AcDbVisualStyle
  2
Sketchy
 70
    24
 71
     1
 72
     2
 73
     2
 90
        0
 40
0.6
 41
30.0
 62
     5
 63
     7
421
 16777215
 74
     2
 91
        2
 64
     7
 65
     7
 75
     1
175
     1
 42
40.0
 92
       11
 66
     7
 43
1.0
 76
     1
 77
     6
 78
     2
 67
     7
 79
     6
170
     0
171
     0
290
     0
174
     0
 93
        1
 44
0.0
173
     0
291
     0
 45
0.0
  0
VISUALSTYLE
  5
37
102
{ACAD_REACTORS
330
2A
102
}
102
{ACAD_XDICTIONARY
360
287
102
}
330
2A
100
AcDbVisualStyle
  2
Thicken
 70
    13
 71
     2
 72
     2
 73
     0
 90
        0
 40
0.6
 41
30.0
 62
     5
 63
     7
421
 16777215
 74
     1
 91
        4
 64
     7
 65
   257
 75
     1
175
     1
 42
1.0
 92
       12
 66
     7
 43
1.0
 76
     1
 77
     6
 78
     2
 67
     7
 79
     5
170
     0
171
     0
290
     0
174
     0
 93
        1
 44
0.0
173
     0
291
     1
 45
0.0
  0
VISUALSTYLE
  5
30
102
{ACAD_REACTORS
330
2A
102
}
102
{ACAD_XDICTIONARY
360
279
102
}
330
2A
100
AcDbVisualStyle
  2
Wireframe
 70
     5
 71
     0
 72
     2
 73
     0
 90
        0
 40
0.6
 41
30.0
 62
     5
 63
     7
421
 16777215
 74
     1
 91
        4
 64
     7
 65
   257
 75
     1
175
     1
 42
1.0
 92
        0
 66
   257
 43
1.0
 76
     1
 77
     6
 78
     2
 67
     7
 79
     3
170
     0
171
     0
290
     0
174
     0
 93
        1
 44
0.0
173
     0
291
     0
 45
0.0
  0
VISUALSTYLE
  5
40
102
{ACAD_REACTORS
330
2A
102
}
102
{ACAD_XDICTIONARY
360
299
102
}
330
2A
100
AcDbVisualStyle
  2
X-Ray
 70
    25
 71
     2
 72
     2
 73
     1
 90
        1
 40
0.5
 41
30.0
 62
     5
 63
     7
421
 16777215
 74
     1
 91
        0
 64
     7
 65
   257
 75
     1
175
     1
 42
1.0
 92
        8
 66
     7
 43
1.0
 76
     1
 77
     6
 78
     2
 67
     7
 79
     3
170
     0
171
     0
290
     0
174
     0
 93
       13
 44
0.0
173
     0
291
     0
 45
0.0
  0
DICTIONARYVAR
  5
26D
102
{ACAD_REACTORS
330
26C
102
}
330
26C
100
DictionaryVariables
280
     0
  1
1:1
  0
DICTIONARYVAR
  5
2A8
102
{ACAD_REACTORS
330
26C
102
}
330
26C
100
DictionaryVariables
280
     0
  1
3.500000
  0
DICTIONARYVAR
  5
2A9
102
{ACAD_REACTORS
330
26C
102
}
330
26C
100
DictionaryVariables
280
     0
  1
acadiso.lin
  0
DICTIONARYVAR
  5
2A5
102
{ACAD_REACTORS
330
26C
102
}
330
26C
100
DictionaryVariables
280
     0
  1
Standard
  0
DICTIONARYVAR
  5
2A4
102
{ACAD_REACTORS
330
26C
102
}
330
26C
100
DictionaryVariables
280
     0
  1
Standard
  0
DICTIONARYVAR
  5
26E
102
{ACAD_REACTORS
330
26C
102
}
330
26C
100
DictionaryVariables
280
     0
  1
2
  0
DICTIONARY
  5
2A1
330
6C
100
AcDbDictionary
280
     1
281
     1
  3
ACAD_XREC_ROUNDTRIP
360
2A2
  0
DICTIONARY
  5
29F
330
6A
100
AcDbDictionary
280
     1
281
     1
  3
ACAD_ROUNDTRIP_2008_TABLESTYLE_CELLSTYLEMAP
360
2A0
  0
DICTIONARY
  5
277
330
2F
100
AcDbDictionary
280
     1
281
     1
  3
ACAD_XREC_ROUNDTRIP
360
278
  0
DICTIONARY
  5
27D
330
32
100
AcDbDictionary
280
     1
281
     1
  3
ACAD_XREC_ROUNDTRIP
360
27E
  0
DICTIONARY
  5
285
330
36
100
AcDbDictionary
280
     1
281
     1
  3
ACAD_XREC_ROUNDTRIP
360
286
  0
DICTIONARY
  5
28D
330
3A
100
AcDbDictionary
280
     1
281
     1
  3
ACAD_XREC_ROUNDTRIP
360
28E
  0
DICTIONARY
  5
281
330
34
100
AcDbDictionary
280
     1
281
     1
  3
ACAD_XREC_ROUNDTRIP
360
282
  0
DICTIONARY
  5
283
330
35
100
AcDbDictionary
280
     1
281
     1
  3
ACAD_XREC_ROUNDTRIP
360
284
  0
DICTIONARY
  5
293
330
3D
100
AcDbDictionary
280
     1
281
     1
  3
ACAD_XREC_ROUNDTRIP
360
294
  0
DICTIONARY
  5
28B
330
39
100
AcDbDictionary
280
     1
281
     1
  3
ACAD_XREC_ROUNDTRIP
360
28C
  0
DICTIONARY
  5
26F
330
2B
100
AcDbDictionary
280
     1
281
     1
  3
ACAD_XREC_ROUNDTRIP
360
270
  0
DICTIONARY
  5
271
330
2C
100
AcDbDictionary
280
     1
281
     1
  3
ACAD_XREC_ROUNDTRIP
360
272
  0
DICTIONARY
  5
273
330
2D
100
AcDbDictionary
280
     1
281
     1
  3
ACAD_XREC_ROUNDTRIP
360
274
  0
DICTIONARY
  5
275
330
2E
100
AcDbDictionary
280
     1
281
     1
  3
ACAD_XREC_ROUNDTRIP
360
276
  0
DICTIONARY
  5
27B
330
31
100
AcDbDictionary
280
     1
281
     1
  3
ACAD_XREC_ROUNDTRIP
360
27C
  0
DICTIONARY
  5
28F
330
3B
100
AcDbDictionary
280
     1
281
     1
  3
ACAD_XREC_ROUNDTRIP
360
290
  0
DICTIONARY
  5
289
330
38
100
AcDbDictionary
280
     1
281
     1
  3
ACAD_XREC_ROUNDTRIP
360
28A
  0
DICTIONARY
  5
291
330
3C
100
AcDbDictionary
280
     1
281
     1
  3
ACAD_XREC_ROUNDTRIP
360
292
  0
DICTIONARY
  5
27F
330
33
100
AcDbDictionary
280
     1
281
     1
  3
ACAD_XREC_ROUNDTRIP
360
280
  0
DICTIONARY
  5
29D
330
42
100
AcDbDictionary
280
     1
281
     1
  3
ACAD_XREC_ROUNDTRIP
360
29E
  0
DICTIONARY
  5
29B
330
41
100
AcDbDictionary
280
     1
281
     1
  3
ACAD_XREC_ROUNDTRIP
360
29C
  0
DICTIONARY
  5
295
330
3E
100
AcDbDictionary
280
     1
281
     1
  3
ACAD_XREC_ROUNDTRIP
360
296
  0
DICTIONARY
  5
297
330
3F
100
AcDbDictionary
280
     1
281
     1
  3
ACAD_XREC_ROUNDTRIP
360
298
  0
DICTIONARY
  5
287
330
37
100
AcDbDictionary
280
     1
281
     1
  3
ACAD_XREC_ROUNDTRIP
360
288
  0
DICTIONARY
  5
279
330
30
100
AcDbDictionary
280
     1
281
     1
  3
ACAD_XREC_ROUNDTRIP
360
27A
  0
DICTIONARY
  5
299
330
40
100
AcDbDictionary
280
     1
281
     1
  3
ACAD_XREC_ROUNDTRIP
360
29A
  0
XRECORD
  5
2A2
102
{ACAD_REACTORS
330
2A1
102
}
330
2A1
100
AcDbXrecord
280
     1
102
ACAD_ROUNDTRIP_2010_MLEADER_STYLE
  0
CELLSTYLEMAP
  5
2A0
102
{ACAD_REACTORS
330
29F
102
}
330
29F
100
AcDbCellStyleMap
 90
        3
300
CELLSTYLE
  1
TABLEFORMAT_BEGIN
 90
        5
170
     1
 91
        0
 92
    32768
 62
   257
 93
        1
300
CONTENTFORMAT
  1
CONTENTFORMAT_BEGIN
 90
        0
 91
        0
 92
        4
 93
        0
300

 40
0.0
140
1.0
 94
        5
 62
     0
340
11
144
6.0
309
CONTENTFORMAT_END
171
     1
301
MARGIN
  1
CELLMARGIN_BEGIN
 40
1.5
 40
1.5
 40
1.5
 40
1.5
 40
1.5
 40
1.5
309
CELLMARGIN_END
 94
        6
 95
        1
302
GRIDFORMAT
  1
GRIDFORMAT_BEGIN
 90
        0
 91
        1
 62
     0
 92
       -2
340
14
 93
        0
 40
0.045
309
GRIDFORMAT_END
 95
        2
302
GRIDFORMAT
  1
GRIDFORMAT_BEGIN
 90
        0
 91
        1
 62
     0
 92
       -2
340
14
 93
        0
 40
0.045
309
GRIDFORMAT_END
 95
        4
302
GRIDFORMAT
  1
GRIDFORMAT_BEGIN
 90
        0
 91
        1
 62
     0
 92
       -2
340
14
 93
        0
 40
0.045
309
GRIDFORMAT_END
 95
        8
302
GRIDFORMAT
  1
GRIDFORMAT_BEGIN
 90
        0
 91
        1
 62
     0
 92
       -2
340
14
 93
        0
 40
0.045
309
GRIDFORMAT_END
 95
       16
302
GRIDFORMAT
  1
GRIDFORMAT_BEGIN
 90
        0
 91
        1
 62
     0
 92
       -2
340
14
 93
        0
 40
0.045
309
GRIDFORMAT_END
 95
       32
302
GRIDFORMAT
  1
GRIDFORMAT_BEGIN
 90
        0
 91
        1
 62
     0
 92
       -2
340
14
 93
        0
 40
0.045
309
GRIDFORMAT_END
309
TABLEFORMAT_END
  1
CELLSTYLE_BEGIN
 90
        1
 91
        1
300
_TITLE
309
CELLSTYLE_END
300
CELLSTYLE
  1
TABLEFORMAT_BEGIN
 90
        5
170
     1
 91
        0
 92
        0
 62
   257
 93
        1
300
CONTENTFORMAT
  1
CONTENTFORMAT_BEGIN
 90
        0
 91
        0
 92
        4
 93
        0
300

 40
0.0
140
1.0
 94
        5
 62
     0
340
11
144
4.5
309
CONTENTFORMAT_END
171
     1
301
MARGIN
  1
CELLMARGIN_BEGIN
 40
1.5
 40
1.5
 40
1.5
 40
1.5
 40
1.5
 40
1.5
309
CELLMARGIN_END
 94
        6
 95
        1
302
GRIDFORMAT
  1
GRIDFORMAT_BEGIN
 90
        0
 91
        1
 62
     0
 92
       -2
340
14
 93
        0
 40
0.045
309
GRIDFORMAT_END
 95
        2
302
GRIDFORMAT
  1
GRIDFORMAT_BEGIN
 90
        0
 91
        1
 62
     0
 92
       -2
340
14
 93
        0
 40
0.045
309
GRIDFORMAT_END
 95
        4
302
GRIDFORMAT
  1
GRIDFORMAT_BEGIN
 90
        0
 91
        1
 62
     0
 92
       -2
340
14
 93
        0
 40
0.045
309
GRIDFORMAT_END
 95
        8
302
GRIDFORMAT
  1
GRIDFORMAT_BEGIN
 90
        0
 91
        1
 62
     0
 92
       -2
340
14
 93
        0
 40
0.045
309
GRIDFORMAT_END
 95
       16
302
GRIDFORMAT
  1
GRIDFORMAT_BEGIN
 90
        0
 91
        1
 62
     0
 92
       -2
340
14
 93
        0
 40
0.045
309
GRIDFORMAT_END
 95
       32
302
GRIDFORMAT
  1
GRIDFORMAT_BEGIN
 90
        0
 91
        1
 62
     0
 92
       -2
340
14
 93
        0
 40
0.045
309
GRIDFORMAT_END
309
TABLEFORMAT_END
  1
CELLSTYLE_BEGIN
 90
        2
 91
        1
300
_HEADER
309
CELLSTYLE_END
300
CELLSTYLE
  1
TABLEFORMAT_BEGIN
 90
        5
170
     1
 91
        0
 92
        0
 62
   257
 93
        1
300
CONTENTFORMAT
  1
CONTENTFORMAT_BEGIN
 90
        0
 91
        0
 92
        4
 93
        0
300

 40
0.0
140
1.0
 94
        2
 62
     0
340
11
144
4.5
309
CONTENTFORMAT_END
171
     1
301
MARGIN
  1
CELLMARGIN_BEGIN
 40
1.5
 40
1.5
 40
1.5
 40
1.5
 40
1.5
 40
1.5
309
CELLMARGIN_END
 94
        6
 95
        1
302
GRIDFORMAT
  1
GRIDFORMAT_BEGIN
 90
        0
 91
        1
 62
     0
 92
       -2
340
14
 93
        0
 40
0.045
309
GRIDFORMAT_END
 95
        2
302
GRIDFORMAT
  1
GRIDFORMAT_BEGIN
 90
        0
 91
        1
 62
     0
 92
       -2
340
14
 93
        0
 40
0.045
309
GRIDFORMAT_END
 95
        4
302
GRIDFORMAT
  1
GRIDFORMAT_BEGIN
 90
        0
 91
        1
 62
     0
 92
       -2
340
14
 93
        0
 40
0.045
309
GRIDFORMAT_END
 95
        8
302
GRIDFORMAT
  1
GRIDFORMAT_BEGIN
 90
        0
 91
        1
 62
     0
 92
       -2
340
14
 93
        0
 40
0.045
309
GRIDFORMAT_END
 95
       16
302
GRIDFORMAT
  1
GRIDFORMAT_BEGIN
 90
        0
 91
        1
 62
     0
 92
       -2
340
14
 93
        0
 40
0.045
309
GRIDFORMAT_END
 95
       32
302
GRIDFORMAT
  1
GRIDFORMAT_BEGIN
 90
        0
 91
        1
 62
     0
 92
       -2
340
14
 93
        0
 40
0.045
309
GRIDFORMAT_END
309
TABLEFORMAT_END
  1
CELLSTYLE_BEGIN
 90
        3
 91
        2
300
_DATA
309
CELLSTYLE_END
  0
XRECORD
  5
278
102
{ACAD_REACTORS
330
277
102
}
330
277
100
AcDbXrecord
280
     1
102
RTVSPropertyOp0
 70
     1
102
RTVSPropertyOp1
 70
     1
102
RTVSPropertyOp2
 70
     1
102
RTVSPropertyOp3
 70
     1
102
RTVSPropertyOp4
 70
     1
102
RTVSPropertyOp5
 70
     1
102
RTVSPropertyOp6
 70
     1
102
RTVSPropertyOp7
 70
     1
102
RTVSPropertyOp8
 70
     1
102
RTVSPropertyOp9
 70
     1
102
RTVSPropertyOp10
 70
     1
102
RTVSPropertyOp11
 70
     1
102
RTVSPropertyOp12
 70
     1
102
RTVSPropertyOp13
 70
     1
102
RTVSPropertyOp14
 70
     1
102
RTVSPropertyOp15
 70
     1
102
RTVSPropertyOp16
 70
     1
102
RTVSPropertyOp17
 70
     1
102
RTVSPropertyOp18
 70
     1
102
RTVSPropertyOp19
 70
     1
102
RTVSPropertyOp20
 70
     1
102
RTVSPropertyOp21
 70
     1
102
RTVSPropertyOp22
 70
     1
102
RTVSPropertyOp23
 70
     1
102
RTVSPropertyOp24
 70
     1
102
RTVSPropertyOp25
 70
     1
102
RTVSPropertyOp26
 70
     1
102
RTVSPropertyOp27
 70
     1
102
RTVSPropertyOp28
 70
     1
102
RTVSPropertyOp29
 70
     1
102
RTVSPropertyOp30
 70
     1
102
RTVSPropertyOp31
 70
     1
102
RTVSPropertyOp32
 70
     1
102
RTVSPropertyOp33
 70
     1
102
RTVSPropertyOp34
 70
     1
102
RTVSPropertyOp35
 70
     1
102
RTVSPropertyOp36
 70
     1
102
RTVSPropertyOp37
 70
     1
102
RTVSPropertyOp38
 70
     1
102
RTVSPropertyOp39
 70
     1
102
RTVSPropertyOp40
 70
     1
102
RTVSPropertyOp41
 70
     1
102
RTVSPropertyOp42
 70
     1
102
RTVSPropertyOp43
 70
     1
102
RTVSPropertyOp44
 70
     1
102
RTVSPropertyOp45
 70
     1
102
RTVSPropertyOp46
 70
     1
102
RTVSPropertyOp47
 70
     1
102
RTVSPropertyOp48
 70
     1
102
RTVSPropertyOp49
 70
     1
102
RTVSPropertyOp50
 70
     1
102
RTVSPropertyOp51
 70
     0
102
RTVSPropertyOp52
 70
     0
102
RTVSPropertyOp53
 70
     1
102
RTVSPropertyOp54
 70
     1
102
RTVSPropertyOp55
 70
     1
102
RTVSPropertyOp56
 70
     1
102
RTVSPropertyOp57
 70
     1
102
RTVSPost2010Prop28
280
     1
102
RTVSPost2010PropOp28
 70
     1
102
RTVSPost2010Prop29
280
     1
102
RTVSPost2010PropOp29
 70
     1
102
RTVSPost2010Prop30
280
     0
102
RTVSPost2010PropOp30
 70
     1
102
RTVSPost2010Prop31
280
     0
102
RTVSPost2010PropOp31
 70
     1
102
RTVSPost2010Prop32
280
     0
102
RTVSPost2010PropOp32
 70
     1
102
RTVSPost2010Prop33
280
     0
102
RTVSPost2010PropOp33
 70
     1
102
RTVSPost2010Prop34
280
     0
102
RTVSPost2010PropOp34
 70
     1
102
RTVSPost2010Prop35
280
     0
102
RTVSPost2010PropOp35
 70
     1
102
RTVSPost2010Prop36
280
     0
102
RTVSPost2010PropOp36
 70
     1
102
RTVSPost2010Prop37
 90
       50
102
RTVSPost2010PropOp37
 70
     1
102
RTVSPost2010Prop38
140
0.0
102
RTVSPost2010PropOp38
 70
     1
102
RTVSPost2010Prop39
140
1.0
102
RTVSPost2010PropOp39
 70
     1
102
RTVSPost2010Prop40
 90
        0
102
RTVSPost2010PropOp40
 70
     1
102
RTVSPost2010Prop41ColorIndex
 90
       18
102
RTVSPost2010Prop41ColorRGB
 90
        0
102
RTVSPost2010PropOp41
 70
     1
102
RTVSPost2010Prop42
 90
       50
102
RTVSPost2010PropOp42
 70
     1
102
RTVSPost2010Prop43
 90
        3
102
RTVSPost2010PropOp43
 70
     1
102
RTVSPost2010Prop44ColorIndex
 90
        5
102
RTVSPost2010Prop44ColorRGB
 90
      255
102
RTVSPost2010PropOp44
 70
     1
102
RTVSPost2010Prop45
280
     0
102
RTVSPost2010PropOp45
 70
     1
102
RTVSPost2010Prop46
 90
       50
102
RTVSPost2010PropOp46
 70
     1
102
RTVSPost2010Prop47
 90
       50
102
RTVSPost2010PropOp47
 70
     1
102
RTVSPost2010Prop48
 90
       50
102
RTVSPost2010PropOp48
 70
     1
102
RTVSPost2010Prop49
280
     0
102
RTVSPost2010PropOp49
 70
     1
102
RTVSPost2010Prop50
 90
       50
102
RTVSPost2010PropOp50
 70
     1
102
RTVSPost2010Prop51ColorIndex
 90
      256
102
RTVSPost2010Prop51ColorRGB
 90
-16777216
102
RTVSPost2010PropOp51
 70
     0
102
RTVSPost2010Prop52
140
1.0
102
RTVSPost2010PropOp52
 70
     0
102
RTVSPost2010Prop53
 90
        2
102
RTVSPost2010PropOp53
 70
     1
102
RTVSPost2010Prop54
  1
strokes_ogs.tif
102
RTVSPost2010PropOp54
 70
     1
102
RTVSPost2010Prop55
280
     0
102
RTVSPost2010PropOp55
 70
     1
102
RTVSPost2010Prop56
140
1.0
102
RTVSPost2010PropOp56
 70
     1
102
RTVSPost2010Prop57
140
1.0
102
RTVSPost2010PropOp57
 70
     1
  0
XRECORD
  5
27E
102
{ACAD_REACTORS
330
27D
102
}
330
27D
100
AcDbXrecord
280
     1
102
RTVSPropertyOp0
 70
     1
102
RTVSPropertyOp1
 70
     1
102
RTVSPropertyOp2
 70
     1
102
RTVSPropertyOp3
 70
     1
102
RTVSPropertyOp4
 70
     1
102
RTVSPropertyOp5
 70
     1
102
RTVSPropertyOp6
 70
     1
102
RTVSPropertyOp7
 70
     1
102
RTVSPropertyOp8
 70
     1
102
RTVSPropertyOp9
 70
     1
102
RTVSPropertyOp10
 70
     1
102
RTVSPropertyOp11
 70
     1
102
RTVSPropertyOp12
 70
     1
102
RTVSPropertyOp13
 70
     1
102
RTVSPropertyOp14
 70
     1
102
RTVSPropertyOp15
 70
     1
102
RTVSPropertyOp16
 70
     1
102
RTVSPropertyOp17
 70
     1
102
RTVSPropertyOp18
 70
     1
102
RTVSPropertyOp19
 70
     1
102
RTVSPropertyOp20
 70
     1
102
RTVSPropertyOp21
 70
     1
102
RTVSPropertyOp22
 70
     1
102
RTVSPropertyOp23
 70
     1
102
RTVSPropertyOp24
 70
     1
102
RTVSPropertyOp25
 70
     1
102
RTVSPropertyOp26
 70
     1
102
RTVSPropertyOp27
 70
     1
102
RTVSPropertyOp28
 70
     1
102
RTVSPropertyOp29
 70
     1
102
RTVSPropertyOp30
 70
     1
102
RTVSPropertyOp31
 70
     1
102
RTVSPropertyOp32
 70
     1
102
RTVSPropertyOp33
 70
     1
102
RTVSPropertyOp34
 70
     1
102
RTVSPropertyOp35
 70
     1
102
RTVSPropertyOp36
 70
     1
102
RTVSPropertyOp37
 70
     1
102
RTVSPropertyOp38
 70
     1
102
RTVSPropertyOp39
 70
     1
102
RTVSPropertyOp40
 70
     1
102
RTVSPropertyOp41
 70
     1
102
RTVSPropertyOp42
 70
     1
102
RTVSPropertyOp43
 70
     1
102
RTVSPropertyOp44
 70
     1
102
RTVSPropertyOp45
 70
     1
102
RTVSPropertyOp46
 70
     1
102
RTVSPropertyOp47
 70
     1
102
RTVSPropertyOp48
 70
     1
102
RTVSPropertyOp49
 70
     1
102
RTVSPropertyOp50
 70
     1
102
RTVSPropertyOp51
 70
     0
102
RTVSPropertyOp52
 70
     0
102
RTVSPropertyOp53
 70
     1
102
RTVSPropertyOp54
 70
     1
102
RTVSPropertyOp55
 70
     1
102
RTVSPropertyOp56
 70
     1
102
RTVSPropertyOp57
 70
     1
102
RTVSPost2010Prop28
280
     0
102
RTVSPost2010PropOp28
 70
     1
102
RTVSPost2010Prop29
280
     1
102
RTVSPost2010PropOp29
 70
     1
102
RTVSPost2010Prop30
280
     1
102
RTVSPost2010PropOp30
 70
     1
102
RTVSPost2010Prop31
280
     0
102
RTVSPost2010PropOp31
 70
     1
102
RTVSPost2010Prop32
280
     0
102
RTVSPost2010PropOp32
 70
     1
102
RTVSPost2010Prop33
280
     0
102
RTVSPost2010PropOp33
 70
     1
102
RTVSPost2010Prop34
280
     0
102
RTVSPost2010PropOp34
 70
     1
102
RTVSPost2010Prop35
280
     0
102
RTVSPost2010PropOp35
 70
     1
102
RTVSPost2010Prop36
280
     0
102
RTVSPost2010PropOp36
 70
     1
102
RTVSPost2010Prop37
 90
       50
102
RTVSPost2010PropOp37
 70
     1
102
RTVSPost2010Prop38
140
0.0
102
RTVSPost2010PropOp38
 70
     1
102
RTVSPost2010Prop39
140
1.0
102
RTVSPost2010PropOp39
 70
     1
102
RTVSPost2010Prop40
 90
        0
102
RTVSPost2010PropOp40
 70
     1
102
RTVSPost2010Prop41ColorIndex
 90
       18
102
RTVSPost2010Prop41ColorRGB
 90
        0
102
RTVSPost2010PropOp41
 70
     1
102
RTVSPost2010Prop42
 90
       50
102
RTVSPost2010PropOp42
 70
     1
102
RTVSPost2010Prop43
 90
        3
102
RTVSPost2010PropOp43
 70
     1
102
RTVSPost2010Prop44ColorIndex
 90
        5
102
RTVSPost2010Prop44ColorRGB
 90
      255
102
RTVSPost2010PropOp44
 70
     1
102
RTVSPost2010Prop45
280
     0
102
RTVSPost2010PropOp45
 70
     1
102
RTVSPost2010Prop46
 90
       50
102
RTVSPost2010PropOp46
 70
     1
102
RTVSPost2010Prop47
 90
       50
102
RTVSPost2010PropOp47
 70
     1
102
RTVSPost2010Prop48
 90
       50
102
RTVSPost2010PropOp48
 70
     1
102
RTVSPost2010Prop49
280
     0
102
RTVSPost2010PropOp49
 70
     1
102
RTVSPost2010Prop50
 90
       50
102
RTVSPost2010PropOp50
 70
     1
102
RTVSPost2010Prop51ColorIndex
 90
      256
102
RTVSPost2010Prop51ColorRGB
 90
-16777216
102
RTVSPost2010PropOp51
 70
     0
102
RTVSPost2010Prop52
140
1.0
102
RTVSPost2010PropOp52
 70
     0
102
RTVSPost2010Prop53
 90
        2
102
RTVSPost2010PropOp53
 70
     1
102
RTVSPost2010Prop54
  1
strokes_ogs.tif
102
RTVSPost2010PropOp54
 70
     1
102
RTVSPost2010Prop55
280
     0
102
RTVSPost2010PropOp55
 70
     1
102
RTVSPost2010Prop56
140
1.0
102
RTVSPost2010PropOp56
 70
     1
102
RTVSPost2010Prop57
140
1.0
102
RTVSPost2010PropOp57
 70
     1
  0
XRECORD
  5
286
102
{ACAD_REACTORS
330
285
102
}
330
285
100
AcDbXrecord
280
     1
102
RTVSPropertyOp0
 70
     1
102
RTVSPropertyOp1
 70
     1
102
RTVSPropertyOp2
 70
     1
102
RTVSPropertyOp3
 70
     1
102
RTVSPropertyOp4
 70
     1
102
RTVSPropertyOp5
 70
     1
102
RTVSPropertyOp6
 70
     1
102
RTVSPropertyOp7
 70
     1
102
RTVSPropertyOp8
 70
     1
102
RTVSPropertyOp9
 70
     1
102
RTVSPropertyOp10
 70
     1
102
RTVSPropertyOp11
 70
     1
102
RTVSPropertyOp12
 70
     1
102
RTVSPropertyOp13
 70
     1
102
RTVSPropertyOp14
 70
     1
102
RTVSPropertyOp15
 70
     1
102
RTVSPropertyOp16
 70
     1
102
RTVSPropertyOp17
 70
     1
102
RTVSPropertyOp18
 70
     1
102
RTVSPropertyOp19
 70
     1
102
RTVSPropertyOp20
 70
     1
102
RTVSPropertyOp21
 70
     1
102
RTVSPropertyOp22
 70
     1
102
RTVSPropertyOp23
 70
     1
102
RTVSPropertyOp24
 70
     1
102
RTVSPropertyOp25
 70
     1
102
RTVSPropertyOp26
 70
     1
102
RTVSPropertyOp27
 70
     1
102
RTVSPropertyOp28
 70
     1
102
RTVSPropertyOp29
 70
     1
102
RTVSPropertyOp30
 70
     1
102
RTVSPropertyOp31
 70
     1
102
RTVSPropertyOp32
 70
     1
102
RTVSPropertyOp33
 70
     1
102
RTVSPropertyOp34
 70
     1
102
RTVSPropertyOp35
 70
     1
102
RTVSPropertyOp36
 70
     1
102
RTVSPropertyOp37
 70
     1
102
RTVSPropertyOp38
 70
     1
102
RTVSPropertyOp39
 70
     1
102
RTVSPropertyOp40
 70
     1
102
RTVSPropertyOp41
 70
     1
102
RTVSPropertyOp42
 70
     1
102
RTVSPropertyOp43
 70
     1
102
RTVSPropertyOp44
 70
     1
102
RTVSPropertyOp45
 70
     1
102
RTVSPropertyOp46
 70
     1
102
RTVSPropertyOp47
 70
     1
102
RTVSPropertyOp48
 70
     1
102
RTVSPropertyOp49
 70
     1
102
RTVSPropertyOp50
 70
     1
102
RTVSPropertyOp51
 70
     0
102
RTVSPropertyOp52
 70
     0
102
RTVSPropertyOp53
 70
     1
102
RTVSPropertyOp54
 70
     1
102
RTVSPropertyOp55
 70
     1
102
RTVSPropertyOp56
 70
     1
102
RTVSPropertyOp57
 70
     1
102
RTVSPost2010Prop28
280
     0
102
RTVSPost2010PropOp28
 70
     1
102
RTVSPost2010Prop29
280
     1
102
RTVSPost2010PropOp29
 70
     1
102
RTVSPost2010Prop30
280
     1
102
RTVSPost2010PropOp30
 70
     1
102
RTVSPost2010Prop31
280
     0
102
RTVSPost2010PropOp31
 70
     1
102
RTVSPost2010Prop32
280
     0
102
RTVSPost2010PropOp32
 70
     1
102
RTVSPost2010Prop33
280
     0
102
RTVSPost2010PropOp33
 70
     1
102
RTVSPost2010Prop34
280
     0
102
RTVSPost2010PropOp34
 70
     1
102
RTVSPost2010Prop35
280
     0
102
RTVSPost2010PropOp35
 70
     1
102
RTVSPost2010Prop36
280
     0
102
RTVSPost2010PropOp36
 70
     1
102
RTVSPost2010Prop37
 90
       50
102
RTVSPost2010PropOp37
 70
     1
102
RTVSPost2010Prop38
140
0.0
102
RTVSPost2010PropOp38
 70
     1
102
RTVSPost2010Prop39
140
1.0
102
RTVSPost2010PropOp39
 70
     1
102
RTVSPost2010Prop40
 90
        0
102
RTVSPost2010PropOp40
 70
     1
102
RTVSPost2010Prop41ColorIndex
 90
       18
102
RTVSPost2010Prop41ColorRGB
 90
        0
102
RTVSPost2010PropOp41
 70
     1
102
RTVSPost2010Prop42
 90
       50
102
RTVSPost2010PropOp42
 70
     1
102
RTVSPost2010Prop43
 90
        3
102
RTVSPost2010PropOp43
 70
     1
102
RTVSPost2010Prop44ColorIndex
 90
        5
102
RTVSPost2010Prop44ColorRGB
 90
      255
102
RTVSPost2010PropOp44
 70
     1
102
RTVSPost2010Prop45
280
     0
102
RTVSPost2010PropOp45
 70
     1
102
RTVSPost2010Prop46
 90
       50
102
RTVSPost2010PropOp46
 70
     1
102
RTVSPost2010Prop47
 90
       50
102
RTVSPost2010PropOp47
 70
     1
102
RTVSPost2010Prop48
 90
       50
102
RTVSPost2010PropOp48
 70
     1
102
RTVSPost2010Prop49
280
     0
102
RTVSPost2010PropOp49
 70
     1
102
RTVSPost2010Prop50
 90
       50
102
RTVSPost2010PropOp50
 70
     1
102
RTVSPost2010Prop51ColorIndex
 90
      256
102
RTVSPost2010Prop51ColorRGB
 90
-16777216
102
RTVSPost2010PropOp51
 70
     0
102
RTVSPost2010Prop52
140
1.0
102
RTVSPost2010PropOp52
 70
     0
102
RTVSPost2010Prop53
 90
        2
102
RTVSPost2010PropOp53
 70
     1
102
RTVSPost2010Prop54
  1
strokes_ogs.tif
102
RTVSPost2010PropOp54
 70
     1
102
RTVSPost2010Prop55
280
     0
102
RTVSPost2010PropOp55
 70
     1
102
RTVSPost2010Prop56
140
1.0
102
RTVSPost2010PropOp56
 70
     1
102
RTVSPost2010Prop57
140
1.0
102
RTVSPost2010PropOp57
 70
     1
  0
XRECORD
  5
28E
102
{ACAD_REACTORS
330
28D
102
}
330
28D
100
AcDbXrecord
280
     1
102
RTVSPropertyOp0
 70
     1
102
RTVSPropertyOp1
 70
     1
102
RTVSPropertyOp2
 70
     1
102
RTVSPropertyOp3
 70
     1
102
RTVSPropertyOp4
 70
     1
102
RTVSPropertyOp5
 70
     1
102
RTVSPropertyOp6
 70
     1
102
RTVSPropertyOp7
 70
     1
102
RTVSPropertyOp8
 70
     1
102
RTVSPropertyOp9
 70
     1
102
RTVSPropertyOp10
 70
     1
102
RTVSPropertyOp11
 70
     1
102
RTVSPropertyOp12
 70
     1
102
RTVSPropertyOp13
 70
     1
102
RTVSPropertyOp14
 70
     1
102
RTVSPropertyOp15
 70
     1
102
RTVSPropertyOp16
 70
     1
102
RTVSPropertyOp17
 70
     1
102
RTVSPropertyOp18
 70
     1
102
RTVSPropertyOp19
 70
     1
102
RTVSPropertyOp20
 70
     1
102
RTVSPropertyOp21
 70
     1
102
RTVSPropertyOp22
 70
     1
102
RTVSPropertyOp23
 70
     1
102
RTVSPropertyOp24
 70
     1
102
RTVSPropertyOp25
 70
     1
102
RTVSPropertyOp26
 70
     1
102
RTVSPropertyOp27
 70
     1
102
RTVSPropertyOp28
 70
     1
102
RTVSPropertyOp29
 70
     1
102
RTVSPropertyOp30
 70
     1
102
RTVSPropertyOp31
 70
     1
102
RTVSPropertyOp32
 70
     1
102
RTVSPropertyOp33
 70
     1
102
RTVSPropertyOp34
 70
     1
102
RTVSPropertyOp35
 70
     1
102
RTVSPropertyOp36
 70
     1
102
RTVSPropertyOp37
 70
     1
102
RTVSPropertyOp38
 70
     1
102
RTVSPropertyOp39
 70
     1
102
RTVSPropertyOp40
 70
     1
102
RTVSPropertyOp41
 70
     1
102
RTVSPropertyOp42
 70
     1
102
RTVSPropertyOp43
 70
     1
102
RTVSPropertyOp44
 70
     1
102
RTVSPropertyOp45
 70
     1
102
RTVSPropertyOp46
 70
     1
102
RTVSPropertyOp47
 70
     1
102
RTVSPropertyOp48
 70
     1
102
RTVSPropertyOp49
 70
     1
102
RTVSPropertyOp50
 70
     1
102
RTVSPropertyOp51
 70
     0
102
RTVSPropertyOp52
 70
     0
102
RTVSPropertyOp53
 70
     1
102
RTVSPropertyOp54
 70
     1
102
RTVSPropertyOp55
 70
     1
102
RTVSPropertyOp56
 70
     1
102
RTVSPropertyOp57
 70
     1
102
RTVSPost2010Prop28
280
     0
102
RTVSPost2010PropOp28
 70
     1
102
RTVSPost2010Prop29
280
     1
102
RTVSPost2010PropOp29
 70
     1
102
RTVSPost2010Prop30
280
     1
102
RTVSPost2010PropOp30
 70
     1
102
RTVSPost2010Prop31
280
     0
102
RTVSPost2010PropOp31
 70
     1
102
RTVSPost2010Prop32
280
     0
102
RTVSPost2010PropOp32
 70
     1
102
RTVSPost2010Prop33
280
     0
102
RTVSPost2010PropOp33
 70
     1
102
RTVSPost2010Prop34
280
     0
102
RTVSPost2010PropOp34
 70
     1
102
RTVSPost2010Prop35
280
     0
102
RTVSPost2010PropOp35
 70
     1
102
RTVSPost2010Prop36
280
     0
102
RTVSPost2010PropOp36
 70
     1
102
RTVSPost2010Prop37
 90
       50
102
RTVSPost2010PropOp37
 70
     1
102
RTVSPost2010Prop38
140
0.0
102
RTVSPost2010PropOp38
 70
     1
102
RTVSPost2010Prop39
140
1.0
102
RTVSPost2010PropOp39
 70
     1
102
RTVSPost2010Prop40
 90
        0
102
RTVSPost2010PropOp40
 70
     1
102
RTVSPost2010Prop41ColorIndex
 90
       18
102
RTVSPost2010Prop41ColorRGB
 90
        0
102
RTVSPost2010PropOp41
 70
     1
102
RTVSPost2010Prop42
 90
       50
102
RTVSPost2010PropOp42
 70
     1
102
RTVSPost2010Prop43
 90
        3
102
RTVSPost2010PropOp43
 70
     1
102
RTVSPost2010Prop44ColorIndex
 90
        5
102
RTVSPost2010Prop44ColorRGB
 90
      255
102
RTVSPost2010PropOp44
 70
     1
102
RTVSPost2010Prop45
280
     0
102
RTVSPost2010PropOp45
 70
     1
102
RTVSPost2010Prop46
 90
       50
102
RTVSPost2010PropOp46
 70
     1
102
RTVSPost2010Prop47
 90
       50
102
RTVSPost2010PropOp47
 70
     1
102
RTVSPost2010Prop48
 90
       50
102
RTVSPost2010PropOp48
 70
     1
102
RTVSPost2010Prop49
280
     0
102
RTVSPost2010PropOp49
 70
     1
102
RTVSPost2010Prop50
 90
       50
102
RTVSPost2010PropOp50
 70
     1
102
RTVSPost2010Prop51ColorIndex
 90
      256
102
RTVSPost2010Prop51ColorRGB
 90
-16777216
102
RTVSPost2010PropOp51
 70
     0
102
RTVSPost2010Prop52
140
1.0
102
RTVSPost2010PropOp52
 70
     0
102
RTVSPost2010Prop53
 90
        2
102
RTVSPost2010PropOp53
 70
     1
102
RTVSPost2010Prop54
  1
strokes_ogs.tif
102
RTVSPost2010PropOp54
 70
     1
102
RTVSPost2010Prop55
280
     0
102
RTVSPost2010PropOp55
 70
     1
102
RTVSPost2010Prop56
140
1.0
102
RTVSPost2010PropOp56
 70
     1
102
RTVSPost2010Prop57
140
1.0
102
RTVSPost2010PropOp57
 70
     1
  0
XRECORD
  5
282
102
{ACAD_REACTORS
330
281
102
}
330
281
100
AcDbXrecord
280
     1
102
RTVSPropertyOp0
 70
     1
102
RTVSPropertyOp1
 70
     1
102
RTVSPropertyOp2
 70
     1
102
RTVSPropertyOp3
 70
     1
102
RTVSPropertyOp4
 70
     1
102
RTVSPropertyOp5
 70
     1
102
RTVSPropertyOp6
 70
     1
102
RTVSPropertyOp7
 70
     1
102
RTVSPropertyOp8
 70
     1
102
RTVSPropertyOp9
 70
     1
102
RTVSPropertyOp10
 70
     1
102
RTVSPropertyOp11
 70
     1
102
RTVSPropertyOp12
 70
     1
102
RTVSPropertyOp13
 70
     1
102
RTVSPropertyOp14
 70
     1
102
RTVSPropertyOp15
 70
     1
102
RTVSPropertyOp16
 70
     1
102
RTVSPropertyOp17
 70
     1
102
RTVSPropertyOp18
 70
     1
102
RTVSPropertyOp19
 70
     1
102
RTVSPropertyOp20
 70
     1
102
RTVSPropertyOp21
 70
     1
102
RTVSPropertyOp22
 70
     1
102
RTVSPropertyOp23
 70
     1
102
RTVSPropertyOp24
 70
     1
102
RTVSPropertyOp25
 70
     1
102
RTVSPropertyOp26
 70
     1
102
RTVSPropertyOp27
 70
     1
102
RTVSPropertyOp28
 70
     1
102
RTVSPropertyOp29
 70
     1
102
RTVSPropertyOp30
 70
     1
102
RTVSPropertyOp31
 70
     1
102
RTVSPropertyOp32
 70
     1
102
RTVSPropertyOp33
 70
     1
102
RTVSPropertyOp34
 70
     1
102
RTVSPropertyOp35
 70
     1
102
RTVSPropertyOp36
 70
     1
102
RTVSPropertyOp37
 70
     1
102
RTVSPropertyOp38
 70
     1
102
RTVSPropertyOp39
 70
     1
102
RTVSPropertyOp40
 70
     1
102
RTVSPropertyOp41
 70
     1
102
RTVSPropertyOp42
 70
     1
102
RTVSPropertyOp43
 70
     1
102
RTVSPropertyOp44
 70
     1
102
RTVSPropertyOp45
 70
     1
102
RTVSPropertyOp46
 70
     1
102
RTVSPropertyOp47
 70
     1
102
RTVSPropertyOp48
 70
     1
102
RTVSPropertyOp49
 70
     1
102
RTVSPropertyOp50
 70
     1
102
RTVSPropertyOp51
 70
     0
102
RTVSPropertyOp52
 70
     0
102
RTVSPropertyOp53
 70
     1
102
RTVSPropertyOp54
 70
     1
102
RTVSPropertyOp55
 70
     1
102
RTVSPropertyOp56
 70
     1
102
RTVSPropertyOp57
 70
     1
102
RTVSPost2010Prop28
280
     0
102
RTVSPost2010PropOp28
 70
     1
102
RTVSPost2010Prop29
280
     1
102
RTVSPost2010PropOp29
 70
     1
102
RTVSPost2010Prop30
280
     1
102
RTVSPost2010PropOp30
 70
     1
102
RTVSPost2010Prop31
280
     0
102
RTVSPost2010PropOp31
 70
     1
102
RTVSPost2010Prop32
280
     0
102
RTVSPost2010PropOp32
 70
     1
102
RTVSPost2010Prop33
280
     0
102
RTVSPost2010PropOp33
 70
     1
102
RTVSPost2010Prop34
280
     0
102
RTVSPost2010PropOp34
 70
     1
102
RTVSPost2010Prop35
280
     0
102
RTVSPost2010PropOp35
 70
     1
102
RTVSPost2010Prop36
280
     0
102
RTVSPost2010PropOp36
 70
     1
102
RTVSPost2010Prop37
 90
       50
102
RTVSPost2010PropOp37
 70
     1
102
RTVSPost2010Prop38
140
0.0
102
RTVSPost2010PropOp38
 70
     1
102
RTVSPost2010Prop39
140
1.0
102
RTVSPost2010PropOp39
 70
     1
102
RTVSPost2010Prop40
 90
        0
102
RTVSPost2010PropOp40
 70
     1
102
RTVSPost2010Prop41ColorIndex
 90
       18
102
RTVSPost2010Prop41ColorRGB
 90
        0
102
RTVSPost2010PropOp41
 70
     1
102
RTVSPost2010Prop42
 90
       50
102
RTVSPost2010PropOp42
 70
     1
102
RTVSPost2010Prop43
 90
        3
102
RTVSPost2010PropOp43
 70
     1
102
RTVSPost2010Prop44ColorIndex
 90
        5
102
RTVSPost2010Prop44ColorRGB
 90
      255
102
RTVSPost2010PropOp44
 70
     1
102
RTVSPost2010Prop45
280
     0
102
RTVSPost2010PropOp45
 70
     1
102
RTVSPost2010Prop46
 90
       50
102
RTVSPost2010PropOp46
 70
     1
102
RTVSPost2010Prop47
 90
       50
102
RTVSPost2010PropOp47
 70
     1
102
RTVSPost2010Prop48
 90
       50
102
RTVSPost2010PropOp48
 70
     1
102
RTVSPost2010Prop49
280
     0
102
RTVSPost2010PropOp49
 70
     1
102
RTVSPost2010Prop50
 90
       50
102
RTVSPost2010PropOp50
 70
     1
102
RTVSPost2010Prop51ColorIndex
 90
      256
102
RTVSPost2010Prop51ColorRGB
 90
-16777216
102
RTVSPost2010PropOp51
 70
     0
102
RTVSPost2010Prop52
140
1.0
102
RTVSPost2010PropOp52
 70
     0
102
RTVSPost2010Prop53
 90
        2
102
RTVSPost2010PropOp53
 70
     1
102
RTVSPost2010Prop54
  1
strokes_ogs.tif
102
RTVSPost2010PropOp54
 70
     1
102
RTVSPost2010Prop55
280
     0
102
RTVSPost2010PropOp55
 70
     1
102
RTVSPost2010Prop56
140
1.0
102
RTVSPost2010PropOp56
 70
     1
102
RTVSPost2010Prop57
140
1.0
102
RTVSPost2010PropOp57
 70
     1
  0
XRECORD
  5
284
102
{ACAD_REACTORS
330
283
102
}
330
283
100
AcDbXrecord
280
     1
102
RTVSPropertyOp0
 70
     1
102
RTVSPropertyOp1
 70
     1
102
RTVSPropertyOp2
 70
     1
102
RTVSPropertyOp3
 70
     1
102
RTVSPropertyOp4
 70
     1
102
RTVSPropertyOp5
 70
     1
102
RTVSPropertyOp6
 70
     1
102
RTVSPropertyOp7
 70
     1
102
RTVSPropertyOp8
 70
     1
102
RTVSPropertyOp9
 70
     1
102
RTVSPropertyOp10
 70
     1
102
RTVSPropertyOp11
 70
     1
102
RTVSPropertyOp12
 70
     1
102
RTVSPropertyOp13
 70
     1
102
RTVSPropertyOp14
 70
     1
102
RTVSPropertyOp15
 70
     1
102
RTVSPropertyOp16
 70
     1
102
RTVSPropertyOp17
 70
     1
102
RTVSPropertyOp18
 70
     1
102
RTVSPropertyOp19
 70
     1
102
RTVSPropertyOp20
 70
     1
102
RTVSPropertyOp21
 70
     1
102
RTVSPropertyOp22
 70
     1
102
RTVSPropertyOp23
 70
     1
102
RTVSPropertyOp24
 70
     1
102
RTVSPropertyOp25
 70
     1
102
RTVSPropertyOp26
 70
     1
102
RTVSPropertyOp27
 70
     1
102
RTVSPropertyOp28
 70
     1
102
RTVSPropertyOp29
 70
     1
102
RTVSPropertyOp30
 70
     1
102
RTVSPropertyOp31
 70
     1
102
RTVSPropertyOp32
 70
     1
102
RTVSPropertyOp33
 70
     1
102
RTVSPropertyOp34
 70
     1
102
RTVSPropertyOp35
 70
     1
102
RTVSPropertyOp36
 70
     1
102
RTVSPropertyOp37
 70
     1
102
RTVSPropertyOp38
 70
     1
102
RTVSPropertyOp39
 70
     1
102
RTVSPropertyOp40
 70
     1
102
RTVSPropertyOp41
 70
     1
102
RTVSPropertyOp42
 70
     1
102
RTVSPropertyOp43
 70
     1
102
RTVSPropertyOp44
 70
     1
102
RTVSPropertyOp45
 70
     1
102
RTVSPropertyOp46
 70
     1
102
RTVSPropertyOp47
 70
     1
102
RTVSPropertyOp48
 70
     1
102
RTVSPropertyOp49
 70
     1
102
RTVSPropertyOp50
 70
     1
102
RTVSPropertyOp51
 70
     0
102
RTVSPropertyOp52
 70
     0
102
RTVSPropertyOp53
 70
     1
102
RTVSPropertyOp54
 70
     1
102
RTVSPropertyOp55
 70
     1
102
RTVSPropertyOp56
 70
     1
102
RTVSPropertyOp57
 70
     1
102
RTVSPost2010Prop28
280
     0
102
RTVSPost2010PropOp28
 70
     1
102
RTVSPost2010Prop29
280
     1
102
RTVSPost2010PropOp29
 70
     1
102
RTVSPost2010Prop30
280
     1
102
RTVSPost2010PropOp30
 70
     1
102
RTVSPost2010Prop31
280
     0
102
RTVSPost2010PropOp31
 70
     1
102
RTVSPost2010Prop32
280
     0
102
RTVSPost2010PropOp32
 70
     1
102
RTVSPost2010Prop33
280
     0
102
RTVSPost2010PropOp33
 70
     1
102
RTVSPost2010Prop34
280
     0
102
RTVSPost2010PropOp34
 70
     1
102
RTVSPost2010Prop35
280
     0
102
RTVSPost2010PropOp35
 70
     1
102
RTVSPost2010Prop36
280
     0
102
RTVSPost2010PropOp36
 70
     1
102
RTVSPost2010Prop37
 90
       50
102
RTVSPost2010PropOp37
 70
     1
102
RTVSPost2010Prop38
140
0.0
102
RTVSPost2010PropOp38
 70
     1
102
RTVSPost2010Prop39
140
1.0
102
RTVSPost2010PropOp39
 70
     1
102
RTVSPost2010Prop40
 90
        0
102
RTVSPost2010PropOp40
 70
     1
102
RTVSPost2010Prop41ColorIndex
 90
       18
102
RTVSPost2010Prop41ColorRGB
 90
        0
102
RTVSPost2010PropOp41
 70
     1
102
RTVSPost2010Prop42
 90
       50
102
RTVSPost2010PropOp42
 70
     1
102
RTVSPost2010Prop43
 90
        3
102
RTVSPost2010PropOp43
 70
     1
102
RTVSPost2010Prop44ColorIndex
 90
        5
102
RTVSPost2010Prop44ColorRGB
 90
      255
102
RTVSPost2010PropOp44
 70
     1
102
RTVSPost2010Prop45
280
     0
102
RTVSPost2010PropOp45
 70
     1
102
RTVSPost2010Prop46
 90
       50
102
RTVSPost2010PropOp46
 70
     1
102
RTVSPost2010Prop47
 90
       50
102
RTVSPost2010PropOp47
 70
     1
102
RTVSPost2010Prop48
 90
       50
102
RTVSPost2010PropOp48
 70
     1
102
RTVSPost2010Prop49
280
     0
102
RTVSPost2010PropOp49
 70
     1
102
RTVSPost2010Prop50
 90
       50
102
RTVSPost2010PropOp50
 70
     1
102
RTVSPost2010Prop51ColorIndex
 90
      256
102
RTVSPost2010Prop51ColorRGB
 90
-16777216
102
RTVSPost2010PropOp51
 70
     0
102
RTVSPost2010Prop52
140
1.0
102
RTVSPost2010PropOp52
 70
     0
102
RTVSPost2010Prop53
 90
        2
102
RTVSPost2010PropOp53
 70
     1
102
RTVSPost2010Prop54
  1
strokes_ogs.tif
102
RTVSPost2010PropOp54
 70
     1
102
RTVSPost2010Prop55
280
     0
102
RTVSPost2010PropOp55
 70
     1
102
RTVSPost2010Prop56
140
1.0
102
RTVSPost2010PropOp56
 70
     1
102
RTVSPost2010Prop57
140
1.0
102
RTVSPost2010PropOp57
 70
     1
  0
XRECORD
  5
294
102
{ACAD_REACTORS
330
293
102
}
330
293
100
AcDbXrecord
280
     1
102
RTVSPropertyOp0
 70
     0
102
RTVSPropertyOp1
 70
     0
102
RTVSPropertyOp2
 70
     0
102
RTVSPropertyOp3
 70
     0
102
RTVSPropertyOp4
 70
     0
102
RTVSPropertyOp5
 70
     0
102
RTVSPropertyOp6
 70
     0
102
RTVSPropertyOp7
 70
     0
102
RTVSPropertyOp8
 70
     0
102
RTVSPropertyOp9
 70
     0
102
RTVSPropertyOp10
 70
     0
102
RTVSPropertyOp11
 70
     0
102
RTVSPropertyOp12
 70
     0
102
RTVSPropertyOp13
 70
     0
102
RTVSPropertyOp14
 70
     2
102
RTVSPropertyOp15
 70
     0
102
RTVSPropertyOp16
 70
     0
102
RTVSPropertyOp17
 70
     0
102
RTVSPropertyOp18
 70
     0
102
RTVSPropertyOp19
 70
     0
102
RTVSPropertyOp20
 70
     0
102
RTVSPropertyOp21
 70
     0
102
RTVSPropertyOp22
 70
     0
102
RTVSPropertyOp23
 70
     0
102
RTVSPropertyOp24
 70
     0
102
RTVSPropertyOp25
 70
     0
102
RTVSPropertyOp26
 70
     0
102
RTVSPropertyOp27
 70
     0
102
RTVSPropertyOp28
 70
     0
102
RTVSPropertyOp29
 70
     0
102
RTVSPropertyOp30
 70
     0
102
RTVSPropertyOp31
 70
     0
102
RTVSPropertyOp32
 70
     0
102
RTVSPropertyOp33
 70
     0
102
RTVSPropertyOp34
 70
     0
102
RTVSPropertyOp35
 70
     0
102
RTVSPropertyOp36
 70
     0
102
RTVSPropertyOp37
 70
     0
102
RTVSPropertyOp38
 70
     0
102
RTVSPropertyOp39
 70
     0
102
RTVSPropertyOp40
 70
     0
102
RTVSPropertyOp41
 70
     0
102
RTVSPropertyOp42
 70
     0
102
RTVSPropertyOp43
 70
     0
102
RTVSPropertyOp44
 70
     0
102
RTVSPropertyOp45
 70
     0
102
RTVSPropertyOp46
 70
     0
102
RTVSPropertyOp47
 70
     0
102
RTVSPropertyOp48
 70
     0
102
RTVSPropertyOp49
 70
     0
102
RTVSPropertyOp50
 70
     0
102
RTVSPropertyOp51
 70
     0
102
RTVSPropertyOp52
 70
     0
102
RTVSPropertyOp53
 70
     0
102
RTVSPropertyOp54
 70
     0
102
RTVSPropertyOp55
 70
     0
102
RTVSPropertyOp56
 70
     0
102
RTVSPropertyOp57
 70
     0
102
RTVSPost2010Prop28
280
     0
102
RTVSPost2010PropOp28
 70
     0
102
RTVSPost2010Prop29
280
     1
102
RTVSPost2010PropOp29
 70
     0
102
RTVSPost2010Prop30
280
     1
102
RTVSPost2010PropOp30
 70
     0
102
RTVSPost2010Prop31
280
     0
102
RTVSPost2010PropOp31
 70
     0
102
RTVSPost2010Prop32
280
     0
102
RTVSPost2010PropOp32
 70
     0
102
RTVSPost2010Prop33
280
     0
102
RTVSPost2010PropOp33
 70
     0
102
RTVSPost2010Prop34
280
     0
102
RTVSPost2010PropOp34
 70
     0
102
RTVSPost2010Prop35
280
     0
102
RTVSPost2010PropOp35
 70
     0
102
RTVSPost2010Prop36
280
     0
102
RTVSPost2010PropOp36
 70
     0
102
RTVSPost2010Prop37
 90
       50
102
RTVSPost2010PropOp37
 70
     0
102
RTVSPost2010Prop38
140
0.0
102
RTVSPost2010PropOp38
 70
     0
102
RTVSPost2010Prop39
140
1.0
102
RTVSPost2010PropOp39
 70
     0
102
RTVSPost2010Prop40
 90
        0
102
RTVSPost2010PropOp40
 70
     0
102
RTVSPost2010Prop41ColorIndex
 90
       18
102
RTVSPost2010Prop41ColorRGB
 90
        0
102
RTVSPost2010PropOp41
 70
     0
102
RTVSPost2010Prop42
 90
       50
102
RTVSPost2010PropOp42
 70
     0
102
RTVSPost2010Prop43
 90
        3
102
RTVSPost2010PropOp43
 70
     0
102
RTVSPost2010Prop44ColorIndex
 90
        5
102
RTVSPost2010Prop44ColorRGB
 90
      255
102
RTVSPost2010PropOp44
 70
     0
102
RTVSPost2010Prop45
280
     0
102
RTVSPost2010PropOp45
 70
     0
102
RTVSPost2010Prop46
 90
       50
102
RTVSPost2010PropOp46
 70
     0
102
RTVSPost2010Prop47
 90
       50
102
RTVSPost2010PropOp47
 70
     0
102
RTVSPost2010Prop48
 90
       50
102
RTVSPost2010PropOp48
 70
     0
102
RTVSPost2010Prop49
280
     0
102
RTVSPost2010PropOp49
 70
     0
102
RTVSPost2010Prop50
 90
       50
102
RTVSPost2010PropOp50
 70
     0
102
RTVSPost2010Prop51ColorIndex
 90
      256
102
RTVSPost2010Prop51ColorRGB
 90
-16777216
102
RTVSPost2010PropOp51
 70
     0
102
RTVSPost2010Prop52
140
1.0
102
RTVSPost2010PropOp52
 70
     0
102
RTVSPost2010Prop53
 90
        2
102
RTVSPost2010PropOp53
 70
     0
102
RTVSPost2010Prop54
  1
strokes_ogs.tif
102
RTVSPost2010PropOp54
 70
     0
102
RTVSPost2010Prop55
280
     0
102
RTVSPost2010PropOp55
 70
     0
102
RTVSPost2010Prop56
140
1.0
102
RTVSPost2010PropOp56
 70
     0
102
RTVSPost2010Prop57
140
1.0
102
RTVSPost2010PropOp57
 70
     0
  0
XRECORD
  5
28C
102
{ACAD_REACTORS
330
28B
102
}
330
28B
100
AcDbXrecord
280
     1
102
RTVSPropertyOp0
 70
     1
102
RTVSPropertyOp1
 70
     1
102
RTVSPropertyOp2
 70
     1
102
RTVSPropertyOp3
 70
     1
102
RTVSPropertyOp4
 70
     1
102
RTVSPropertyOp5
 70
     1
102
RTVSPropertyOp6
 70
     1
102
RTVSPropertyOp7
 70
     1
102
RTVSPropertyOp8
 70
     1
102
RTVSPropertyOp9
 70
     1
102
RTVSPropertyOp10
 70
     1
102
RTVSPropertyOp11
 70
     1
102
RTVSPropertyOp12
 70
     1
102
RTVSPropertyOp13
 70
     1
102
RTVSPropertyOp14
 70
     1
102
RTVSPropertyOp15
 70
     1
102
RTVSPropertyOp16
 70
     1
102
RTVSPropertyOp17
 70
     1
102
RTVSPropertyOp18
 70
     1
102
RTVSPropertyOp19
 70
     1
102
RTVSPropertyOp20
 70
     1
102
RTVSPropertyOp21
 70
     1
102
RTVSPropertyOp22
 70
     1
102
RTVSPropertyOp23
 70
     1
102
RTVSPropertyOp24
 70
     1
102
RTVSPropertyOp25
 70
     1
102
RTVSPropertyOp26
 70
     1
102
RTVSPropertyOp27
 70
     1
102
RTVSPropertyOp28
 70
     1
102
RTVSPropertyOp29
 70
     1
102
RTVSPropertyOp30
 70
     1
102
RTVSPropertyOp31
 70
     1
102
RTVSPropertyOp32
 70
     1
102
RTVSPropertyOp33
 70
     1
102
RTVSPropertyOp34
 70
     1
102
RTVSPropertyOp35
 70
     1
102
RTVSPropertyOp36
 70
     1
102
RTVSPropertyOp37
 70
     1
102
RTVSPropertyOp38
 70
     1
102
RTVSPropertyOp39
 70
     1
102
RTVSPropertyOp40
 70
     1
102
RTVSPropertyOp41
 70
     1
102
RTVSPropertyOp42
 70
     1
102
RTVSPropertyOp43
 70
     1
102
RTVSPropertyOp44
 70
     1
102
RTVSPropertyOp45
 70
     1
102
RTVSPropertyOp46
 70
     1
102
RTVSPropertyOp47
 70
     1
102
RTVSPropertyOp48
 70
     1
102
RTVSPropertyOp49
 70
     1
102
RTVSPropertyOp50
 70
     1
102
RTVSPropertyOp51
 70
     0
102
RTVSPropertyOp52
 70
     0
102
RTVSPropertyOp53
 70
     1
102
RTVSPropertyOp54
 70
     1
102
RTVSPropertyOp55
 70
     1
102
RTVSPropertyOp56
 70
     1
102
RTVSPropertyOp57
 70
     1
102
RTVSPost2010Prop28
280
     0
102
RTVSPost2010PropOp28
 70
     1
102
RTVSPost2010Prop29
280
     1
102
RTVSPost2010PropOp29
 70
     1
102
RTVSPost2010Prop30
280
     1
102
RTVSPost2010PropOp30
 70
     1
102
RTVSPost2010Prop31
280
     0
102
RTVSPost2010PropOp31
 70
     1
102
RTVSPost2010Prop32
280
     0
102
RTVSPost2010PropOp32
 70
     1
102
RTVSPost2010Prop33
280
     0
102
RTVSPost2010PropOp33
 70
     1
102
RTVSPost2010Prop34
280
     0
102
RTVSPost2010PropOp34
 70
     1
102
RTVSPost2010Prop35
280
     0
102
RTVSPost2010PropOp35
 70
     1
102
RTVSPost2010Prop36
280
     0
102
RTVSPost2010PropOp36
 70
     1
102
RTVSPost2010Prop37
 90
       50
102
RTVSPost2010PropOp37
 70
     1
102
RTVSPost2010Prop38
140
0.0
102
RTVSPost2010PropOp38
 70
     1
102
RTVSPost2010Prop39
140
1.0
102
RTVSPost2010PropOp39
 70
     1
102
RTVSPost2010Prop40
 90
        0
102
RTVSPost2010PropOp40
 70
     1
102
RTVSPost2010Prop41ColorIndex
 90
       18
102
RTVSPost2010Prop41ColorRGB
 90
        0
102
RTVSPost2010PropOp41
 70
     1
102
RTVSPost2010Prop42
 90
       50
102
RTVSPost2010PropOp42
 70
     1
102
RTVSPost2010Prop43
 90
        3
102
RTVSPost2010PropOp43
 70
     1
102
RTVSPost2010Prop44ColorIndex
 90
        5
102
RTVSPost2010Prop44ColorRGB
 90
      255
102
RTVSPost2010PropOp44
 70
     1
102
RTVSPost2010Prop45
280
     0
102
RTVSPost2010PropOp45
 70
     1
102
RTVSPost2010Prop46
 90
       50
102
RTVSPost2010PropOp46
 70
     1
102
RTVSPost2010Prop47
 90
       50
102
RTVSPost2010PropOp47
 70
     1
102
RTVSPost2010Prop48
 90
       50
102
RTVSPost2010PropOp48
 70
     1
102
RTVSPost2010Prop49
280
     0
102
RTVSPost2010PropOp49
 70
     1
102
RTVSPost2010Prop50
 90
       50
102
RTVSPost2010PropOp50
 70
     1
102
RTVSPost2010Prop51ColorIndex
 90
      256
102
RTVSPost2010Prop51ColorRGB
 90
-16777216
102
RTVSPost2010PropOp51
 70
     0
102
RTVSPost2010Prop52
140
1.0
102
RTVSPost2010PropOp52
 70
     0
102
RTVSPost2010Prop53
 90
        2
102
RTVSPost2010PropOp53
 70
     1
102
RTVSPost2010Prop54
  1
strokes_ogs.tif
102
RTVSPost2010PropOp54
 70
     1
102
RTVSPost2010Prop55
280
     0
102
RTVSPost2010PropOp55
 70
     1
102
RTVSPost2010Prop56
140
1.0
102
RTVSPost2010PropOp56
 70
     1
102
RTVSPost2010Prop57
140
1.0
102
RTVSPost2010PropOp57
 70
     1
  0
XRECORD
  5
270
102
{ACAD_REACTORS
330
26F
102
}
330
26F
100
AcDbXrecord
280
     1
102
RTVSPropertyOp0
 70
     1
102
RTVSPropertyOp1
 70
     1
102
RTVSPropertyOp2
 70
     1
102
RTVSPropertyOp3
 70
     1
102
RTVSPropertyOp4
 70
     1
102
RTVSPropertyOp5
 70
     1
102
RTVSPropertyOp6
 70
     1
102
RTVSPropertyOp7
 70
     1
102
RTVSPropertyOp8
 70
     1
102
RTVSPropertyOp9
 70
     1
102
RTVSPropertyOp10
 70
     1
102
RTVSPropertyOp11
 70
     1
102
RTVSPropertyOp12
 70
     1
102
RTVSPropertyOp13
 70
     1
102
RTVSPropertyOp14
 70
     1
102
RTVSPropertyOp15
 70
     1
102
RTVSPropertyOp16
 70
     1
102
RTVSPropertyOp17
 70
     1
102
RTVSPropertyOp18
 70
     1
102
RTVSPropertyOp19
 70
     1
102
RTVSPropertyOp20
 70
     1
102
RTVSPropertyOp21
 70
     1
102
RTVSPropertyOp22
 70
     1
102
RTVSPropertyOp23
 70
     1
102
RTVSPropertyOp24
 70
     1
102
RTVSPropertyOp25
 70
     1
102
RTVSPropertyOp26
 70
     1
102
RTVSPropertyOp27
 70
     1
102
RTVSPropertyOp28
 70
     1
102
RTVSPropertyOp29
 70
     1
102
RTVSPropertyOp30
 70
     1
102
RTVSPropertyOp31
 70
     1
102
RTVSPropertyOp32
 70
     1
102
RTVSPropertyOp33
 70
     1
102
RTVSPropertyOp34
 70
     1
102
RTVSPropertyOp35
 70
     1
102
RTVSPropertyOp36
 70
     1
102
RTVSPropertyOp37
 70
     1
102
RTVSPropertyOp38
 70
     1
102
RTVSPropertyOp39
 70
     1
102
RTVSPropertyOp40
 70
     1
102
RTVSPropertyOp41
 70
     1
102
RTVSPropertyOp42
 70
     1
102
RTVSPropertyOp43
 70
     1
102
RTVSPropertyOp44
 70
     1
102
RTVSPropertyOp45
 70
     1
102
RTVSPropertyOp46
 70
     1
102
RTVSPropertyOp47
 70
     1
102
RTVSPropertyOp48
 70
     1
102
RTVSPropertyOp49
 70
     1
102
RTVSPropertyOp50
 70
     1
102
RTVSPropertyOp51
 70
     0
102
RTVSPropertyOp52
 70
     0
102
RTVSPropertyOp53
 70
     1
102
RTVSPropertyOp54
 70
     1
102
RTVSPropertyOp55
 70
     1
102
RTVSPropertyOp56
 70
     1
102
RTVSPropertyOp57
 70
     1
102
RTVSPost2010Prop28
280
     0
102
RTVSPost2010PropOp28
 70
     1
102
RTVSPost2010Prop29
280
     1
102
RTVSPost2010PropOp29
 70
     1
102
RTVSPost2010Prop30
280
     1
102
RTVSPost2010PropOp30
 70
     1
102
RTVSPost2010Prop31
280
     0
102
RTVSPost2010PropOp31
 70
     1
102
RTVSPost2010Prop32
280
     0
102
RTVSPost2010PropOp32
 70
     1
102
RTVSPost2010Prop33
280
     0
102
RTVSPost2010PropOp33
 70
     1
102
RTVSPost2010Prop34
280
     0
102
RTVSPost2010PropOp34
 70
     1
102
RTVSPost2010Prop35
280
     0
102
RTVSPost2010PropOp35
 70
     1
102
RTVSPost2010Prop36
280
     0
102
RTVSPost2010PropOp36
 70
     1
102
RTVSPost2010Prop37
 90
       50
102
RTVSPost2010PropOp37
 70
     1
102
RTVSPost2010Prop38
140
0.0
102
RTVSPost2010PropOp38
 70
     1
102
RTVSPost2010Prop39
140
1.0
102
RTVSPost2010PropOp39
 70
     1
102
RTVSPost2010Prop40
 90
        0
102
RTVSPost2010PropOp40
 70
     1
102
RTVSPost2010Prop41ColorIndex
 90
       18
102
RTVSPost2010Prop41ColorRGB
 90
        0
102
RTVSPost2010PropOp41
 70
     1
102
RTVSPost2010Prop42
 90
       50
102
RTVSPost2010PropOp42
 70
     1
102
RTVSPost2010Prop43
 90
        3
102
RTVSPost2010PropOp43
 70
     1
102
RTVSPost2010Prop44ColorIndex
 90
        5
102
RTVSPost2010Prop44ColorRGB
 90
      255
102
RTVSPost2010PropOp44
 70
     1
102
RTVSPost2010Prop45
280
     0
102
RTVSPost2010PropOp45
 70
     1
102
RTVSPost2010Prop46
 90
       50
102
RTVSPost2010PropOp46
 70
     1
102
RTVSPost2010Prop47
 90
       50
102
RTVSPost2010PropOp47
 70
     1
102
RTVSPost2010Prop48
 90
       50
102
RTVSPost2010PropOp48
 70
     1
102
RTVSPost2010Prop49
280
     0
102
RTVSPost2010PropOp49
 70
     1
102
RTVSPost2010Prop50
 90
       50
102
RTVSPost2010PropOp50
 70
     1
102
RTVSPost2010Prop51ColorIndex
 90
      256
102
RTVSPost2010Prop51ColorRGB
 90
-16777216
102
RTVSPost2010PropOp51
 70
     0
102
RTVSPost2010Prop52
140
1.0
102
RTVSPost2010PropOp52
 70
     0
102
RTVSPost2010Prop53
 90
        2
102
RTVSPost2010PropOp53
 70
     1
102
RTVSPost2010Prop54
  1
strokes_ogs.tif
102
RTVSPost2010PropOp54
 70
     1
102
RTVSPost2010Prop55
280
     0
102
RTVSPost2010PropOp55
 70
     1
102
RTVSPost2010Prop56
140
1.0
102
RTVSPost2010PropOp56
 70
     1
102
RTVSPost2010Prop57
140
1.0
102
RTVSPost2010PropOp57
 70
     1
  0
XRECORD
  5
272
102
{ACAD_REACTORS
330
271
102
}
330
271
100
AcDbXrecord
280
     1
102
RTVSPropertyOp0
 70
     1
102
RTVSPropertyOp1
 70
     1
102
RTVSPropertyOp2
 70
     1
102
RTVSPropertyOp3
 70
     1
102
RTVSPropertyOp4
 70
     1
102
RTVSPropertyOp5
 70
     1
102
RTVSPropertyOp6
 70
     1
102
RTVSPropertyOp7
 70
     1
102
RTVSPropertyOp8
 70
     1
102
RTVSPropertyOp9
 70
     1
102
RTVSPropertyOp10
 70
     1
102
RTVSPropertyOp11
 70
     1
102
RTVSPropertyOp12
 70
     1
102
RTVSPropertyOp13
 70
     1
102
RTVSPropertyOp14
 70
     1
102
RTVSPropertyOp15
 70
     1
102
RTVSPropertyOp16
 70
     1
102
RTVSPropertyOp17
 70
     1
102
RTVSPropertyOp18
 70
     1
102
RTVSPropertyOp19
 70
     1
102
RTVSPropertyOp20
 70
     1
102
RTVSPropertyOp21
 70
     1
102
RTVSPropertyOp22
 70
     1
102
RTVSPropertyOp23
 70
     1
102
RTVSPropertyOp24
 70
     1
102
RTVSPropertyOp25
 70
     1
102
RTVSPropertyOp26
 70
     1
102
RTVSPropertyOp27
 70
     1
102
RTVSPropertyOp28
 70
     1
102
RTVSPropertyOp29
 70
     1
102
RTVSPropertyOp30
 70
     1
102
RTVSPropertyOp31
 70
     1
102
RTVSPropertyOp32
 70
     1
102
RTVSPropertyOp33
 70
     1
102
RTVSPropertyOp34
 70
     1
102
RTVSPropertyOp35
 70
     1
102
RTVSPropertyOp36
 70
     1
102
RTVSPropertyOp37
 70
     1
102
RTVSPropertyOp38
 70
     1
102
RTVSPropertyOp39
 70
     1
102
RTVSPropertyOp40
 70
     1
102
RTVSPropertyOp41
 70
     1
102
RTVSPropertyOp42
 70
     1
102
RTVSPropertyOp43
 70
     1
102
RTVSPropertyOp44
 70
     1
102
RTVSPropertyOp45
 70
     1
102
RTVSPropertyOp46
 70
     1
102
RTVSPropertyOp47
 70
     1
102
RTVSPropertyOp48
 70
     1
102
RTVSPropertyOp49
 70
     1
102
RTVSPropertyOp50
 70
     1
102
RTVSPropertyOp51
 70
     0
102
RTVSPropertyOp52
 70
     0
102
RTVSPropertyOp53
 70
     1
102
RTVSPropertyOp54
 70
     1
102
RTVSPropertyOp55
 70
     1
102
RTVSPropertyOp56
 70
     1
102
RTVSPropertyOp57
 70
     1
102
RTVSPost2010Prop28
280
     0
102
RTVSPost2010PropOp28
 70
     1
102
RTVSPost2010Prop29
280
     1
102
RTVSPost2010PropOp29
 70
     1
102
RTVSPost2010Prop30
280
     1
102
RTVSPost2010PropOp30
 70
     1
102
RTVSPost2010Prop31
280
     0
102
RTVSPost2010PropOp31
 70
     1
102
RTVSPost2010Prop32
280
     0
102
RTVSPost2010PropOp32
 70
     1
102
RTVSPost2010Prop33
280
     0
102
RTVSPost2010PropOp33
 70
     1
102
RTVSPost2010Prop34
280
     0
102
RTVSPost2010PropOp34
 70
     1
102
RTVSPost2010Prop35
280
     0
102
RTVSPost2010PropOp35
 70
     1
102
RTVSPost2010Prop36
280
     0
102
RTVSPost2010PropOp36
 70
     1
102
RTVSPost2010Prop37
 90
       50
102
RTVSPost2010PropOp37
 70
     1
102
RTVSPost2010Prop38
140
0.0
102
RTVSPost2010PropOp38
 70
     1
102
RTVSPost2010Prop39
140
1.0
102
RTVSPost2010PropOp39
 70
     1
102
RTVSPost2010Prop40
 90
        0
102
RTVSPost2010PropOp40
 70
     1
102
RTVSPost2010Prop41ColorIndex
 90
       18
102
RTVSPost2010Prop41ColorRGB
 90
        0
102
RTVSPost2010PropOp41
 70
     1
102
RTVSPost2010Prop42
 90
       50
102
RTVSPost2010PropOp42
 70
     1
102
RTVSPost2010Prop43
 90
        3
102
RTVSPost2010PropOp43
 70
     1
102
RTVSPost2010Prop44ColorIndex
 90
        5
102
RTVSPost2010Prop44ColorRGB
 90
      255
102
RTVSPost2010PropOp44
 70
     1
102
RTVSPost2010Prop45
280
     0
102
RTVSPost2010PropOp45
 70
     1
102
RTVSPost2010Prop46
 90
       50
102
RTVSPost2010PropOp46
 70
     1
102
RTVSPost2010Prop47
 90
       50
102
RTVSPost2010PropOp47
 70
     1
102
RTVSPost2010Prop48
 90
       50
102
RTVSPost2010PropOp48
 70
     1
102
RTVSPost2010Prop49
280
     0
102
RTVSPost2010PropOp49
 70
     1
102
RTVSPost2010Prop50
 90
       50
102
RTVSPost2010PropOp50
 70
     1
102
RTVSPost2010Prop51ColorIndex
 90
      256
102
RTVSPost2010Prop51ColorRGB
 90
-16777216
102
RTVSPost2010PropOp51
 70
     0
102
RTVSPost2010Prop52
140
1.0
102
RTVSPost2010PropOp52
 70
     0
102
RTVSPost2010Prop53
 90
        2
102
RTVSPost2010PropOp53
 70
     1
102
RTVSPost2010Prop54
  1
strokes_ogs.tif
102
RTVSPost2010PropOp54
 70
     1
102
RTVSPost2010Prop55
280
     0
102
RTVSPost2010PropOp55
 70
     1
102
RTVSPost2010Prop56
140
1.0
102
RTVSPost2010PropOp56
 70
     1
102
RTVSPost2010Prop57
140
1.0
102
RTVSPost2010PropOp57
 70
     1
  0
XRECORD
  5
274
102
{ACAD_REACTORS
330
273
102
}
330
273
100
AcDbXrecord
280
     1
102
RTVSPropertyOp0
 70
     1
102
RTVSPropertyOp1
 70
     1
102
RTVSPropertyOp2
 70
     1
102
RTVSPropertyOp3
 70
     1
102
RTVSPropertyOp4
 70
     1
102
RTVSPropertyOp5
 70
     1
102
RTVSPropertyOp6
 70
     1
102
RTVSPropertyOp7
 70
     1
102
RTVSPropertyOp8
 70
     1
102
RTVSPropertyOp9
 70
     1
102
RTVSPropertyOp10
 70
     1
102
RTVSPropertyOp11
 70
     1
102
RTVSPropertyOp12
 70
     1
102
RTVSPropertyOp13
 70
     1
102
RTVSPropertyOp14
 70
     1
102
RTVSPropertyOp15
 70
     1
102
RTVSPropertyOp16
 70
     1
102
RTVSPropertyOp17
 70
     1
102
RTVSPropertyOp18
 70
     1
102
RTVSPropertyOp19
 70
     1
102
RTVSPropertyOp20
 70
     1
102
RTVSPropertyOp21
 70
     1
102
RTVSPropertyOp22
 70
     1
102
RTVSPropertyOp23
 70
     1
102
RTVSPropertyOp24
 70
     1
102
RTVSPropertyOp25
 70
     1
102
RTVSPropertyOp26
 70
     1
102
RTVSPropertyOp27
 70
     1
102
RTVSPropertyOp28
 70
     1
102
RTVSPropertyOp29
 70
     1
102
RTVSPropertyOp30
 70
     1
102
RTVSPropertyOp31
 70
     1
102
RTVSPropertyOp32
 70
     1
102
RTVSPropertyOp33
 70
     1
102
RTVSPropertyOp34
 70
     1
102
RTVSPropertyOp35
 70
     1
102
RTVSPropertyOp36
 70
     1
102
RTVSPropertyOp37
 70
     1
102
RTVSPropertyOp38
 70
     1
102
RTVSPropertyOp39
 70
     1
102
RTVSPropertyOp40
 70
     1
102
RTVSPropertyOp41
 70
     1
102
RTVSPropertyOp42
 70
     1
102
RTVSPropertyOp43
 70
     1
102
RTVSPropertyOp44
 70
     1
102
RTVSPropertyOp45
 70
     1
102
RTVSPropertyOp46
 70
     1
102
RTVSPropertyOp47
 70
     1
102
RTVSPropertyOp48
 70
     1
102
RTVSPropertyOp49
 70
     1
102
RTVSPropertyOp50
 70
     1
102
RTVSPropertyOp51
 70
     0
102
RTVSPropertyOp52
 70
     0
102
RTVSPropertyOp53
 70
     1
102
RTVSPropertyOp54
 70
     1
102
RTVSPropertyOp55
 70
     1
102
RTVSPropertyOp56
 70
     1
102
RTVSPropertyOp57
 70
     1
102
RTVSPost2010Prop28
280
     0
102
RTVSPost2010PropOp28
 70
     1
102
RTVSPost2010Prop29
280
     1
102
RTVSPost2010PropOp29
 70
     1
102
RTVSPost2010Prop30
280
     1
102
RTVSPost2010PropOp30
 70
     1
102
RTVSPost2010Prop31
280
     0
102
RTVSPost2010PropOp31
 70
     1
102
RTVSPost2010Prop32
280
     0
102
RTVSPost2010PropOp32
 70
     1
102
RTVSPost2010Prop33
280
     0
102
RTVSPost2010PropOp33
 70
     1
102
RTVSPost2010Prop34
280
     0
102
RTVSPost2010PropOp34
 70
     1
102
RTVSPost2010Prop35
280
     0
102
RTVSPost2010PropOp35
 70
     1
102
RTVSPost2010Prop36
280
     0
102
RTVSPost2010PropOp36
 70
     1
102
RTVSPost2010Prop37
 90
       50
102
RTVSPost2010PropOp37
 70
     1
102
RTVSPost2010Prop38
140
0.0
102
RTVSPost2010PropOp38
 70
     1
102
RTVSPost2010Prop39
140
1.0
102
RTVSPost2010PropOp39
 70
     1
102
RTVSPost2010Prop40
 90
        0
102
RTVSPost2010PropOp40
 70
     1
102
RTVSPost2010Prop41ColorIndex
 90
       18
102
RTVSPost2010Prop41ColorRGB
 90
        0
102
RTVSPost2010PropOp41
 70
     1
102
RTVSPost2010Prop42
 90
       50
102
RTVSPost2010PropOp42
 70
     1
102
RTVSPost2010Prop43
 90
        3
102
RTVSPost2010PropOp43
 70
     1
102
RTVSPost2010Prop44ColorIndex
 90
        5
102
RTVSPost2010Prop44ColorRGB
 90
      255
102
RTVSPost2010PropOp44
 70
     1
102
RTVSPost2010Prop45
280
     0
102
RTVSPost2010PropOp45
 70
     1
102
RTVSPost2010Prop46
 90
       50
102
RTVSPost2010PropOp46
 70
     1
102
RTVSPost2010Prop47
 90
       50
102
RTVSPost2010PropOp47
 70
     1
102
RTVSPost2010Prop48
 90
       50
102
RTVSPost2010PropOp48
 70
     1
102
RTVSPost2010Prop49
280
     0
102
RTVSPost2010PropOp49
 70
     1
102
RTVSPost2010Prop50
 90
       50
102
RTVSPost2010PropOp50
 70
     1
102
RTVSPost2010Prop51ColorIndex
 90
      256
102
RTVSPost2010Prop51ColorRGB
 90
-16777216
102
RTVSPost2010PropOp51
 70
     0
102
RTVSPost2010Prop52
140
1.0
102
RTVSPost2010PropOp52
 70
     0
102
RTVSPost2010Prop53
 90
        2
102
RTVSPost2010PropOp53
 70
     1
102
RTVSPost2010Prop54
  1
strokes_ogs.tif
102
RTVSPost2010PropOp54
 70
     1
102
RTVSPost2010Prop55
280
     0
102
RTVSPost2010PropOp55
 70
     1
102
RTVSPost2010Prop56
140
1.0
102
RTVSPost2010PropOp56
 70
     1
102
RTVSPost2010Prop57
140
1.0
102
RTVSPost2010PropOp57
 70
     1
  0
XRECORD
  5
276
102
{ACAD_REACTORS
330
275
102
}
330
275
100
AcDbXrecord
280
     1
102
RTVSPropertyOp0
 70
     1
102
RTVSPropertyOp1
 70
     1
102
RTVSPropertyOp2
 70
     1
102
RTVSPropertyOp3
 70
     1
102
RTVSPropertyOp4
 70
     1
102
RTVSPropertyOp5
 70
     1
102
RTVSPropertyOp6
 70
     1
102
RTVSPropertyOp7
 70
     1
102
RTVSPropertyOp8
 70
     1
102
RTVSPropertyOp9
 70
     1
102
RTVSPropertyOp10
 70
     1
102
RTVSPropertyOp11
 70
     1
102
RTVSPropertyOp12
 70
     1
102
RTVSPropertyOp13
 70
     1
102
RTVSPropertyOp14
 70
     1
102
RTVSPropertyOp15
 70
     1
102
RTVSPropertyOp16
 70
     1
102
RTVSPropertyOp17
 70
     1
102
RTVSPropertyOp18
 70
     1
102
RTVSPropertyOp19
 70
     1
102
RTVSPropertyOp20
 70
     1
102
RTVSPropertyOp21
 70
     1
102
RTVSPropertyOp22
 70
     1
102
RTVSPropertyOp23
 70
     1
102
RTVSPropertyOp24
 70
     1
102
RTVSPropertyOp25
 70
     1
102
RTVSPropertyOp26
 70
     1
102
RTVSPropertyOp27
 70
     1
102
RTVSPropertyOp28
 70
     1
102
RTVSPropertyOp29
 70
     1
102
RTVSPropertyOp30
 70
     1
102
RTVSPropertyOp31
 70
     1
102
RTVSPropertyOp32
 70
     1
102
RTVSPropertyOp33
 70
     1
102
RTVSPropertyOp34
 70
     1
102
RTVSPropertyOp35
 70
     1
102
RTVSPropertyOp36
 70
     1
102
RTVSPropertyOp37
 70
     1
102
RTVSPropertyOp38
 70
     1
102
RTVSPropertyOp39
 70
     1
102
RTVSPropertyOp40
 70
     1
102
RTVSPropertyOp41
 70
     1
102
RTVSPropertyOp42
 70
     1
102
RTVSPropertyOp43
 70
     1
102
RTVSPropertyOp44
 70
     1
102
RTVSPropertyOp45
 70
     1
102
RTVSPropertyOp46
 70
     1
102
RTVSPropertyOp47
 70
     1
102
RTVSPropertyOp48
 70
     1
102
RTVSPropertyOp49
 70
     1
102
RTVSPropertyOp50
 70
     1
102
RTVSPropertyOp51
 70
     0
102
RTVSPropertyOp52
 70
     0
102
RTVSPropertyOp53
 70
     1
102
RTVSPropertyOp54
 70
     1
102
RTVSPropertyOp55
 70
     1
102
RTVSPropertyOp56
 70
     1
102
RTVSPropertyOp57
 70
     1
102
RTVSPost2010Prop28
280
     0
102
RTVSPost2010PropOp28
 70
     1
102
RTVSPost2010Prop29
280
     1
102
RTVSPost2010PropOp29
 70
     1
102
RTVSPost2010Prop30
280
     1
102
RTVSPost2010PropOp30
 70
     1
102
RTVSPost2010Prop31
280
     0
102
RTVSPost2010PropOp31
 70
     1
102
RTVSPost2010Prop32
280
     0
102
RTVSPost2010PropOp32
 70
     1
102
RTVSPost2010Prop33
280
     0
102
RTVSPost2010PropOp33
 70
     1
102
RTVSPost2010Prop34
280
     0
102
RTVSPost2010PropOp34
 70
     1
102
RTVSPost2010Prop35
280
     0
102
RTVSPost2010PropOp35
 70
     1
102
RTVSPost2010Prop36
280
     0
102
RTVSPost2010PropOp36
 70
     1
102
RTVSPost2010Prop37
 90
       50
102
RTVSPost2010PropOp37
 70
     1
102
RTVSPost2010Prop38
140
0.0
102
RTVSPost2010PropOp38
 70
     1
102
RTVSPost2010Prop39
140
1.0
102
RTVSPost2010PropOp39
 70
     1
102
RTVSPost2010Prop40
 90
        0
102
RTVSPost2010PropOp40
 70
     1
102
RTVSPost2010Prop41ColorIndex
 90
       18
102
RTVSPost2010Prop41ColorRGB
 90
        0
102
RTVSPost2010PropOp41
 70
     1
102
RTVSPost2010Prop42
 90
       50
102
RTVSPost2010PropOp42
 70
     1
102
RTVSPost2010Prop43
 90
        3
102
RTVSPost2010PropOp43
 70
     1
102
RTVSPost2010Prop44ColorIndex
 90
        5
102
RTVSPost2010Prop44ColorRGB
 90
      255
102
RTVSPost2010PropOp44
 70
     1
102
RTVSPost2010Prop45
280
     0
102
RTVSPost2010PropOp45
 70
     1
102
RTVSPost2010Prop46
 90
       50
102
RTVSPost2010PropOp46
 70
     1
102
RTVSPost2010Prop47
 90
       50
102
RTVSPost2010PropOp47
 70
     1
102
RTVSPost2010Prop48
 90
       50
102
RTVSPost2010PropOp48
 70
     1
102
RTVSPost2010Prop49
280
     0
102
RTVSPost2010PropOp49
 70
     1
102
RTVSPost2010Prop50
 90
       50
102
RTVSPost2010PropOp50
 70
     1
102
RTVSPost2010Prop51ColorIndex
 90
      256
102
RTVSPost2010Prop51ColorRGB
 90
-16777216
102
RTVSPost2010PropOp51
 70
     0
102
RTVSPost2010Prop52
140
1.0
102
RTVSPost2010PropOp52
 70
     0
102
RTVSPost2010Prop53
 90
        2
102
RTVSPost2010PropOp53
 70
     1
102
RTVSPost2010Prop54
  1
strokes_ogs.tif
102
RTVSPost2010PropOp54
 70
     1
102
RTVSPost2010Prop55
280
     0
102
RTVSPost2010PropOp55
 70
     1
102
RTVSPost2010Prop56
140
1.0
102
RTVSPost2010PropOp56
 70
     1
102
RTVSPost2010Prop57
140
1.0
102
RTVSPost2010PropOp57
 70
     1
  0
XRECORD
  5
27C
102
{ACAD_REACTORS
330
27B
102
}
330
27B
100
AcDbXrecord
280
     1
102
RTVSPropertyOp0
 70
     1
102
RTVSPropertyOp1
 70
     1
102
RTVSPropertyOp2
 70
     1
102
RTVSPropertyOp3
 70
     1
102
RTVSPropertyOp4
 70
     1
102
RTVSPropertyOp5
 70
     1
102
RTVSPropertyOp6
 70
     1
102
RTVSPropertyOp7
 70
     1
102
RTVSPropertyOp8
 70
     1
102
RTVSPropertyOp9
 70
     1
102
RTVSPropertyOp10
 70
     1
102
RTVSPropertyOp11
 70
     1
102
RTVSPropertyOp12
 70
     1
102
RTVSPropertyOp13
 70
     1
102
RTVSPropertyOp14
 70
     1
102
RTVSPropertyOp15
 70
     1
102
RTVSPropertyOp16
 70
     1
102
RTVSPropertyOp17
 70
     1
102
RTVSPropertyOp18
 70
     1
102
RTVSPropertyOp19
 70
     1
102
RTVSPropertyOp20
 70
     1
102
RTVSPropertyOp21
 70
     1
102
RTVSPropertyOp22
 70
     1
102
RTVSPropertyOp23
 70
     1
102
RTVSPropertyOp24
 70
     1
102
RTVSPropertyOp25
 70
     1
102
RTVSPropertyOp26
 70
     1
102
RTVSPropertyOp27
 70
     1
102
RTVSPropertyOp28
 70
     1
102
RTVSPropertyOp29
 70
     1
102
RTVSPropertyOp30
 70
     1
102
RTVSPropertyOp31
 70
     1
102
RTVSPropertyOp32
 70
     1
102
RTVSPropertyOp33
 70
     1
102
RTVSPropertyOp34
 70
     1
102
RTVSPropertyOp35
 70
     1
102
RTVSPropertyOp36
 70
     1
102
RTVSPropertyOp37
 70
     1
102
RTVSPropertyOp38
 70
     1
102
RTVSPropertyOp39
 70
     1
102
RTVSPropertyOp40
 70
     1
102
RTVSPropertyOp41
 70
     1
102
RTVSPropertyOp42
 70
     1
102
RTVSPropertyOp43
 70
     1
102
RTVSPropertyOp44
 70
     1
102
RTVSPropertyOp45
 70
     1
102
RTVSPropertyOp46
 70
     1
102
RTVSPropertyOp47
 70
     1
102
RTVSPropertyOp48
 70
     1
102
RTVSPropertyOp49
 70
     1
102
RTVSPropertyOp50
 70
     1
102
RTVSPropertyOp51
 70
     0
102
RTVSPropertyOp52
 70
     0
102
RTVSPropertyOp53
 70
     1
102
RTVSPropertyOp54
 70
     1
102
RTVSPropertyOp55
 70
     1
102
RTVSPropertyOp56
 70
     1
102
RTVSPropertyOp57
 70
     1
102
RTVSPost2010Prop28
280
     0
102
RTVSPost2010PropOp28
 70
     1
102
RTVSPost2010Prop29
280
     1
102
RTVSPost2010PropOp29
 70
     1
102
RTVSPost2010Prop30
280
     1
102
RTVSPost2010PropOp30
 70
     1
102
RTVSPost2010Prop31
280
     0
102
RTVSPost2010PropOp31
 70
     1
102
RTVSPost2010Prop32
280
     0
102
RTVSPost2010PropOp32
 70
     1
102
RTVSPost2010Prop33
280
     0
102
RTVSPost2010PropOp33
 70
     1
102
RTVSPost2010Prop34
280
     0
102
RTVSPost2010PropOp34
 70
     1
102
RTVSPost2010Prop35
280
     0
102
RTVSPost2010PropOp35
 70
     1
102
RTVSPost2010Prop36
280
     0
102
RTVSPost2010PropOp36
 70
     1
102
RTVSPost2010Prop37
 90
       50
102
RTVSPost2010PropOp37
 70
     1
102
RTVSPost2010Prop38
140
0.0
102
RTVSPost2010PropOp38
 70
     1
102
RTVSPost2010Prop39
140
1.0
102
RTVSPost2010PropOp39
 70
     1
102
RTVSPost2010Prop40
 90
        0
102
RTVSPost2010PropOp40
 70
     1
102
RTVSPost2010Prop41ColorIndex
 90
       18
102
RTVSPost2010Prop41ColorRGB
 90
        0
102
RTVSPost2010PropOp41
 70
     1
102
RTVSPost2010Prop42
 90
       50
102
RTVSPost2010PropOp42
 70
     1
102
RTVSPost2010Prop43
 90
        3
102
RTVSPost2010PropOp43
 70
     1
102
RTVSPost2010Prop44ColorIndex
 90
        5
102
RTVSPost2010Prop44ColorRGB
 90
      255
102
RTVSPost2010PropOp44
 70
     1
102
RTVSPost2010Prop45
280
     0
102
RTVSPost2010PropOp45
 70
     1
102
RTVSPost2010Prop46
 90
       50
102
RTVSPost2010PropOp46
 70
     1
102
RTVSPost2010Prop47
 90
       50
102
RTVSPost2010PropOp47
 70
     1
102
RTVSPost2010Prop48
 90
       50
102
RTVSPost2010PropOp48
 70
     1
102
RTVSPost2010Prop49
280
     0
102
RTVSPost2010PropOp49
 70
     1
102
RTVSPost2010Prop50
 90
       50
102
RTVSPost2010PropOp50
 70
     1
102
RTVSPost2010Prop51ColorIndex
 90
      256
102
RTVSPost2010Prop51ColorRGB
 90
-16777216
102
RTVSPost2010PropOp51
 70
     0
102
RTVSPost2010Prop52
140
1.0
102
RTVSPost2010PropOp52
 70
     0
102
RTVSPost2010Prop53
 90
        2
102
RTVSPost2010PropOp53
 70
     1
102
RTVSPost2010Prop54
  1
strokes_ogs.tif
102
RTVSPost2010PropOp54
 70
     1
102
RTVSPost2010Prop55
280
     0
102
RTVSPost2010PropOp55
 70
     1
102
RTVSPost2010Prop56
140
1.0
102
RTVSPost2010PropOp56
 70
     1
102
RTVSPost2010Prop57
140
1.0
102
RTVSPost2010PropOp57
 70
     1
  0
XRECORD
  5
290
102
{ACAD_REACTORS
330
28F
102
}
330
28F
100
AcDbXrecord
280
     1
102
RTVSPropertyOp0
 70
     0
102
RTVSPropertyOp1
 70
     0
102
RTVSPropertyOp2
 70
     0
102
RTVSPropertyOp3
 70
     0
102
RTVSPropertyOp4
 70
     0
102
RTVSPropertyOp5
 70
     0
102
RTVSPropertyOp6
 70
     0
102
RTVSPropertyOp7
 70
     0
102
RTVSPropertyOp8
 70
     0
102
RTVSPropertyOp9
 70
     0
102
RTVSPropertyOp10
 70
     0
102
RTVSPropertyOp11
 70
     0
102
RTVSPropertyOp12
 70
     0
102
RTVSPropertyOp13
 70
     0
102
RTVSPropertyOp14
 70
     2
102
RTVSPropertyOp15
 70
     0
102
RTVSPropertyOp16
 70
     0
102
RTVSPropertyOp17
 70
     0
102
RTVSPropertyOp18
 70
     0
102
RTVSPropertyOp19
 70
     0
102
RTVSPropertyOp20
 70
     0
102
RTVSPropertyOp21
 70
     0
102
RTVSPropertyOp22
 70
     0
102
RTVSPropertyOp23
 70
     0
102
RTVSPropertyOp24
 70
     0
102
RTVSPropertyOp25
 70
     0
102
RTVSPropertyOp26
 70
     0
102
RTVSPropertyOp27
 70
     0
102
RTVSPropertyOp28
 70
     0
102
RTVSPropertyOp29
 70
     0
102
RTVSPropertyOp30
 70
     0
102
RTVSPropertyOp31
 70
     0
102
RTVSPropertyOp32
 70
     0
102
RTVSPropertyOp33
 70
     0
102
RTVSPropertyOp34
 70
     0
102
RTVSPropertyOp35
 70
     0
102
RTVSPropertyOp36
 70
     0
102
RTVSPropertyOp37
 70
     0
102
RTVSPropertyOp38
 70
     0
102
RTVSPropertyOp39
 70
     0
102
RTVSPropertyOp40
 70
     0
102
RTVSPropertyOp41
 70
     0
102
RTVSPropertyOp42
 70
     0
102
RTVSPropertyOp43
 70
     0
102
RTVSPropertyOp44
 70
     0
102
RTVSPropertyOp45
 70
     0
102
RTVSPropertyOp46
 70
     0
102
RTVSPropertyOp47
 70
     0
102
RTVSPropertyOp48
 70
     0
102
RTVSPropertyOp49
 70
     0
102
RTVSPropertyOp50
 70
     0
102
RTVSPropertyOp51
 70
     0
102
RTVSPropertyOp52
 70
     0
102
RTVSPropertyOp53
 70
     0
102
RTVSPropertyOp54
 70
     0
102
RTVSPropertyOp55
 70
     0
102
RTVSPropertyOp56
 70
     0
102
RTVSPropertyOp57
 70
     0
102
RTVSPost2010Prop28
280
     0
102
RTVSPost2010PropOp28
 70
     0
102
RTVSPost2010Prop29
280
     1
102
RTVSPost2010PropOp29
 70
     0
102
RTVSPost2010Prop30
280
     1
102
RTVSPost2010PropOp30
 70
     0
102
RTVSPost2010Prop31
280
     0
102
RTVSPost2010PropOp31
 70
     0
102
RTVSPost2010Prop32
280
     0
102
RTVSPost2010PropOp32
 70
     0
102
RTVSPost2010Prop33
280
     0
102
RTVSPost2010PropOp33
 70
     0
102
RTVSPost2010Prop34
280
     0
102
RTVSPost2010PropOp34
 70
     0
102
RTVSPost2010Prop35
280
     0
102
RTVSPost2010PropOp35
 70
     0
102
RTVSPost2010Prop36
280
     0
102
RTVSPost2010PropOp36
 70
     0
102
RTVSPost2010Prop37
 90
       50
102
RTVSPost2010PropOp37
 70
     0
102
RTVSPost2010Prop38
140
0.0
102
RTVSPost2010PropOp38
 70
     0
102
RTVSPost2010Prop39
140
1.0
102
RTVSPost2010PropOp39
 70
     0
102
RTVSPost2010Prop40
 90
        0
102
RTVSPost2010PropOp40
 70
     0
102
RTVSPost2010Prop41ColorIndex
 90
       18
102
RTVSPost2010Prop41ColorRGB
 90
        0
102
RTVSPost2010PropOp41
 70
     0
102
RTVSPost2010Prop42
 90
       50
102
RTVSPost2010PropOp42
 70
     0
102
RTVSPost2010Prop43
 90
        3
102
RTVSPost2010PropOp43
 70
     0
102
RTVSPost2010Prop44ColorIndex
 90
        5
102
RTVSPost2010Prop44ColorRGB
 90
      255
102
RTVSPost2010PropOp44
 70
     0
102
RTVSPost2010Prop45
280
     0
102
RTVSPost2010PropOp45
 70
     0
102
RTVSPost2010Prop46
 90
       50
102
RTVSPost2010PropOp46
 70
     0
102
RTVSPost2010Prop47
 90
       50
102
RTVSPost2010PropOp47
 70
     0
102
RTVSPost2010Prop48
 90
       50
102
RTVSPost2010PropOp48
 70
     0
102
RTVSPost2010Prop49
280
     0
102
RTVSPost2010PropOp49
 70
     0
102
RTVSPost2010Prop50
 90
       50
102
RTVSPost2010PropOp50
 70
     0
102
RTVSPost2010Prop51ColorIndex
 90
      256
102
RTVSPost2010Prop51ColorRGB
 90
-16777216
102
RTVSPost2010PropOp51
 70
     0
102
RTVSPost2010Prop52
140
1.0
102
RTVSPost2010PropOp52
 70
     0
102
RTVSPost2010Prop53
 90
        2
102
RTVSPost2010PropOp53
 70
     0
102
RTVSPost2010Prop54
  1
strokes_ogs.tif
102
RTVSPost2010PropOp54
 70
     0
102
RTVSPost2010Prop55
280
     0
102
RTVSPost2010PropOp55
 70
     0
102
RTVSPost2010Prop56
140
1.0
102
RTVSPost2010PropOp56
 70
     0
102
RTVSPost2010Prop57
140
1.0
102
RTVSPost2010PropOp57
 70
     0
  0
XRECORD
  5
28A
102
{ACAD_REACTORS
330
289
102
}
330
289
100
AcDbXrecord
280
     1
102
RTVSPropertyOp0
 70
     1
102
RTVSPropertyOp1
 70
     1
102
RTVSPropertyOp2
 70
     1
102
RTVSPropertyOp3
 70
     1
102
RTVSPropertyOp4
 70
     1
102
RTVSPropertyOp5
 70
     1
102
RTVSPropertyOp6
 70
     1
102
RTVSPropertyOp7
 70
     1
102
RTVSPropertyOp8
 70
     1
102
RTVSPropertyOp9
 70
     1
102
RTVSPropertyOp10
 70
     1
102
RTVSPropertyOp11
 70
     1
102
RTVSPropertyOp12
 70
     1
102
RTVSPropertyOp13
 70
     1
102
RTVSPropertyOp14
 70
     1
102
RTVSPropertyOp15
 70
     1
102
RTVSPropertyOp16
 70
     1
102
RTVSPropertyOp17
 70
     1
102
RTVSPropertyOp18
 70
     1
102
RTVSPropertyOp19
 70
     1
102
RTVSPropertyOp20
 70
     1
102
RTVSPropertyOp21
 70
     1
102
RTVSPropertyOp22
 70
     1
102
RTVSPropertyOp23
 70
     1
102
RTVSPropertyOp24
 70
     1
102
RTVSPropertyOp25
 70
     1
102
RTVSPropertyOp26
 70
     1
102
RTVSPropertyOp27
 70
     1
102
RTVSPropertyOp28
 70
     1
102
RTVSPropertyOp29
 70
     1
102
RTVSPropertyOp30
 70
     1
102
RTVSPropertyOp31
 70
     1
102
RTVSPropertyOp32
 70
     1
102
RTVSPropertyOp33
 70
     1
102
RTVSPropertyOp34
 70
     1
102
RTVSPropertyOp35
 70
     1
102
RTVSPropertyOp36
 70
     1
102
RTVSPropertyOp37
 70
     1
102
RTVSPropertyOp38
 70
     1
102
RTVSPropertyOp39
 70
     1
102
RTVSPropertyOp40
 70
     1
102
RTVSPropertyOp41
 70
     1
102
RTVSPropertyOp42
 70
     1
102
RTVSPropertyOp43
 70
     1
102
RTVSPropertyOp44
 70
     1
102
RTVSPropertyOp45
 70
     1
102
RTVSPropertyOp46
 70
     1
102
RTVSPropertyOp47
 70
     1
102
RTVSPropertyOp48
 70
     1
102
RTVSPropertyOp49
 70
     1
102
RTVSPropertyOp50
 70
     1
102
RTVSPropertyOp51
 70
     0
102
RTVSPropertyOp52
 70
     0
102
RTVSPropertyOp53
 70
     1
102
RTVSPropertyOp54
 70
     1
102
RTVSPropertyOp55
 70
     1
102
RTVSPropertyOp56
 70
     1
102
RTVSPropertyOp57
 70
     1
102
RTVSPost2010Prop28
280
     0
102
RTVSPost2010PropOp28
 70
     1
102
RTVSPost2010Prop29
280
     1
102
RTVSPost2010PropOp29
 70
     1
102
RTVSPost2010Prop30
280
     1
102
RTVSPost2010PropOp30
 70
     1
102
RTVSPost2010Prop31
280
     0
102
RTVSPost2010PropOp31
 70
     1
102
RTVSPost2010Prop32
280
     0
102
RTVSPost2010PropOp32
 70
     1
102
RTVSPost2010Prop33
280
     0
102
RTVSPost2010PropOp33
 70
     1
102
RTVSPost2010Prop34
280
     0
102
RTVSPost2010PropOp34
 70
     1
102
RTVSPost2010Prop35
280
     0
102
RTVSPost2010PropOp35
 70
     1
102
RTVSPost2010Prop36
280
     0
102
RTVSPost2010PropOp36
 70
     1
102
RTVSPost2010Prop37
 90
       50
102
RTVSPost2010PropOp37
 70
     1
102
RTVSPost2010Prop38
140
0.0
102
RTVSPost2010PropOp38
 70
     1
102
RTVSPost2010Prop39
140
1.0
102
RTVSPost2010PropOp39
 70
     1
102
RTVSPost2010Prop40
 90
        0
102
RTVSPost2010PropOp40
 70
     1
102
RTVSPost2010Prop41ColorIndex
 90
       18
102
RTVSPost2010Prop41ColorRGB
 90
        0
102
RTVSPost2010PropOp41
 70
     1
102
RTVSPost2010Prop42
 90
       50
102
RTVSPost2010PropOp42
 70
     1
102
RTVSPost2010Prop43
 90
        3
102
RTVSPost2010PropOp43
 70
     1
102
RTVSPost2010Prop44ColorIndex
 90
        5
102
RTVSPost2010Prop44ColorRGB
 90
      255
102
RTVSPost2010PropOp44
 70
     1
102
RTVSPost2010Prop45
280
     0
102
RTVSPost2010PropOp45
 70
     1
102
RTVSPost2010Prop46
 90
       50
102
RTVSPost2010PropOp46
 70
     1
102
RTVSPost2010Prop47
 90
       50
102
RTVSPost2010PropOp47
 70
     1
102
RTVSPost2010Prop48
 90
       50
102
RTVSPost2010PropOp48
 70
     1
102
RTVSPost2010Prop49
280
     0
102
RTVSPost2010PropOp49
 70
     1
102
RTVSPost2010Prop50
 90
       50
102
RTVSPost2010PropOp50
 70
     1
102
RTVSPost2010Prop51ColorIndex
 90
      256
102
RTVSPost2010Prop51ColorRGB
 90
-16777216
102
RTVSPost2010PropOp51
 70
     0
102
RTVSPost2010Prop52
140
1.0
102
RTVSPost2010PropOp52
 70
     0
102
RTVSPost2010Prop53
 90
        2
102
RTVSPost2010PropOp53
 70
     1
102
RTVSPost2010Prop54
  1
strokes_ogs.tif
102
RTVSPost2010PropOp54
 70
     1
102
RTVSPost2010Prop55
280
     0
102
RTVSPost2010PropOp55
 70
     1
102
RTVSPost2010Prop56
140
1.0
102
RTVSPost2010PropOp56
 70
     1
102
RTVSPost2010Prop57
140
1.0
102
RTVSPost2010PropOp57
 70
     1
  0
XRECORD
  5
292
102
{ACAD_REACTORS
330
291
102
}
330
291
100
AcDbXrecord
280
     1
102
RTVSPropertyOp0
 70
     0
102
RTVSPropertyOp1
 70
     0
102
RTVSPropertyOp2
 70
     0
102
RTVSPropertyOp3
 70
     0
102
RTVSPropertyOp4
 70
     0
102
RTVSPropertyOp5
 70
     0
102
RTVSPropertyOp6
 70
     0
102
RTVSPropertyOp7
 70
     0
102
RTVSPropertyOp8
 70
     0
102
RTVSPropertyOp9
 70
     0
102
RTVSPropertyOp10
 70
     0
102
RTVSPropertyOp11
 70
     0
102
RTVSPropertyOp12
 70
     0
102
RTVSPropertyOp13
 70
     0
102
RTVSPropertyOp14
 70
     2
102
RTVSPropertyOp15
 70
     0
102
RTVSPropertyOp16
 70
     0
102
RTVSPropertyOp17
 70
     0
102
RTVSPropertyOp18
 70
     0
102
RTVSPropertyOp19
 70
     0
102
RTVSPropertyOp20
 70
     0
102
RTVSPropertyOp21
 70
     0
102
RTVSPropertyOp22
 70
     0
102
RTVSPropertyOp23
 70
     0
102
RTVSPropertyOp24
 70
     0
102
RTVSPropertyOp25
 70
     0
102
RTVSPropertyOp26
 70
     0
102
RTVSPropertyOp27
 70
     0
102
RTVSPropertyOp28
 70
     0
102
RTVSPropertyOp29
 70
     0
102
RTVSPropertyOp30
 70
     0
102
RTVSPropertyOp31
 70
     0
102
RTVSPropertyOp32
 70
     0
102
RTVSPropertyOp33
 70
     0
102
RTVSPropertyOp34
 70
     0
102
RTVSPropertyOp35
 70
     0
102
RTVSPropertyOp36
 70
     0
102
RTVSPropertyOp37
 70
     0
102
RTVSPropertyOp38
 70
     0
102
RTVSPropertyOp39
 70
     0
102
RTVSPropertyOp40
 70
     0
102
RTVSPropertyOp41
 70
     0
102
RTVSPropertyOp42
 70
     0
102
RTVSPropertyOp43
 70
     0
102
RTVSPropertyOp44
 70
     0
102
RTVSPropertyOp45
 70
     0
102
RTVSPropertyOp46
 70
     0
102
RTVSPropertyOp47
 70
     0
102
RTVSPropertyOp48
 70
     0
102
RTVSPropertyOp49
 70
     0
102
RTVSPropertyOp50
 70
     0
102
RTVSPropertyOp51
 70
     0
102
RTVSPropertyOp52
 70
     0
102
RTVSPropertyOp53
 70
     0
102
RTVSPropertyOp54
 70
     0
102
RTVSPropertyOp55
 70
     0
102
RTVSPropertyOp56
 70
     0
102
RTVSPropertyOp57
 70
     0
102
RTVSPost2010Prop28
280
     0
102
RTVSPost2010PropOp28
 70
     0
102
RTVSPost2010Prop29
280
     1
102
RTVSPost2010PropOp29
 70
     0
102
RTVSPost2010Prop30
280
     1
102
RTVSPost2010PropOp30
 70
     0
102
RTVSPost2010Prop31
280
     0
102
RTVSPost2010PropOp31
 70
     0
102
RTVSPost2010Prop32
280
     0
102
RTVSPost2010PropOp32
 70
     0
102
RTVSPost2010Prop33
280
     0
102
RTVSPost2010PropOp33
 70
     0
102
RTVSPost2010Prop34
280
     0
102
RTVSPost2010PropOp34
 70
     0
102
RTVSPost2010Prop35
280
     0
102
RTVSPost2010PropOp35
 70
     0
102
RTVSPost2010Prop36
280
     0
102
RTVSPost2010PropOp36
 70
     0
102
RTVSPost2010Prop37
 90
       50
102
RTVSPost2010PropOp37
 70
     0
102
RTVSPost2010Prop38
140
0.0
102
RTVSPost2010PropOp38
 70
     0
102
RTVSPost2010Prop39
140
1.0
102
RTVSPost2010PropOp39
 70
     0
102
RTVSPost2010Prop40
 90
        0
102
RTVSPost2010PropOp40
 70
     0
102
RTVSPost2010Prop41ColorIndex
 90
       18
102
RTVSPost2010Prop41ColorRGB
 90
        0
102
RTVSPost2010PropOp41
 70
     0
102
RTVSPost2010Prop42
 90
       50
102
RTVSPost2010PropOp42
 70
     0
102
RTVSPost2010Prop43
 90
        3
102
RTVSPost2010PropOp43
 70
     0
102
RTVSPost2010Prop44ColorIndex
 90
        5
102
RTVSPost2010Prop44ColorRGB
 90
      255
102
RTVSPost2010PropOp44
 70
     0
102
RTVSPost2010Prop45
280
     0
102
RTVSPost2010PropOp45
 70
     0
102
RTVSPost2010Prop46
 90
       50
102
RTVSPost2010PropOp46
 70
     0
102
RTVSPost2010Prop47
 90
       50
102
RTVSPost2010PropOp47
 70
     0
102
RTVSPost2010Prop48
 90
       50
102
RTVSPost2010PropOp48
 70
     0
102
RTVSPost2010Prop49
280
     0
102
RTVSPost2010PropOp49
 70
     0
102
RTVSPost2010Prop50
 90
       50
102
RTVSPost2010PropOp50
 70
     0
102
RTVSPost2010Prop51ColorIndex
 90
      256
102
RTVSPost2010Prop51ColorRGB
 90
-16777216
102
RTVSPost2010PropOp51
 70
     0
102
RTVSPost2010Prop52
140
1.0
102
RTVSPost2010PropOp52
 70
     0
102
RTVSPost2010Prop53
 90
        2
102
RTVSPost2010PropOp53
 70
     0
102
RTVSPost2010Prop54
  1
strokes_ogs.tif
102
RTVSPost2010PropOp54
 70
     0
102
RTVSPost2010Prop55
280
     0
102
RTVSPost2010PropOp55
 70
     0
102
RTVSPost2010Prop56
140
1.0
102
RTVSPost2010PropOp56
 70
     0
102
RTVSPost2010Prop57
140
1.0
102
RTVSPost2010PropOp57
 70
     0
  0
XRECORD
  5
280
102
{ACAD_REACTORS
330
27F
102
}
330
27F
100
AcDbXrecord
280
     1
102
RTVSPropertyOp0
 70
     1
102
RTVSPropertyOp1
 70
     1
102
RTVSPropertyOp2
 70
     1
102
RTVSPropertyOp3
 70
     1
102
RTVSPropertyOp4
 70
     1
102
RTVSPropertyOp5
 70
     1
102
RTVSPropertyOp6
 70
     1
102
RTVSPropertyOp7
 70
     1
102
RTVSPropertyOp8
 70
     1
102
RTVSPropertyOp9
 70
     1
102
RTVSPropertyOp10
 70
     1
102
RTVSPropertyOp11
 70
     1
102
RTVSPropertyOp12
 70
     1
102
RTVSPropertyOp13
 70
     1
102
RTVSPropertyOp14
 70
     1
102
RTVSPropertyOp15
 70
     1
102
RTVSPropertyOp16
 70
     1
102
RTVSPropertyOp17
 70
     1
102
RTVSPropertyOp18
 70
     1
102
RTVSPropertyOp19
 70
     1
102
RTVSPropertyOp20
 70
     1
102
RTVSPropertyOp21
 70
     1
102
RTVSPropertyOp22
 70
     1
102
RTVSPropertyOp23
 70
     1
102
RTVSPropertyOp24
 70
     1
102
RTVSPropertyOp25
 70
     1
102
RTVSPropertyOp26
 70
     1
102
RTVSPropertyOp27
 70
     1
102
RTVSPropertyOp28
 70
     1
102
RTVSPropertyOp29
 70
     1
102
RTVSPropertyOp30
 70
     1
102
RTVSPropertyOp31
 70
     1
102
RTVSPropertyOp32
 70
     1
102
RTVSPropertyOp33
 70
     1
102
RTVSPropertyOp34
 70
     1
102
RTVSPropertyOp35
 70
     1
102
RTVSPropertyOp36
 70
     1
102
RTVSPropertyOp37
 70
     1
102
RTVSPropertyOp38
 70
     1
102
RTVSPropertyOp39
 70
     1
102
RTVSPropertyOp40
 70
     1
102
RTVSPropertyOp41
 70
     1
102
RTVSPropertyOp42
 70
     1
102
RTVSPropertyOp43
 70
     1
102
RTVSPropertyOp44
 70
     1
102
RTVSPropertyOp45
 70
     1
102
RTVSPropertyOp46
 70
     1
102
RTVSPropertyOp47
 70
     1
102
RTVSPropertyOp48
 70
     1
102
RTVSPropertyOp49
 70
     1
102
RTVSPropertyOp50
 70
     1
102
RTVSPropertyOp51
 70
     0
102
RTVSPropertyOp52
 70
     0
102
RTVSPropertyOp53
 70
     1
102
RTVSPropertyOp54
 70
     1
102
RTVSPropertyOp55
 70
     1
102
RTVSPropertyOp56
 70
     1
102
RTVSPropertyOp57
 70
     1
102
RTVSPost2010Prop28
280
     0
102
RTVSPost2010PropOp28
 70
     1
102
RTVSPost2010Prop29
280
     1
102
RTVSPost2010PropOp29
 70
     1
102
RTVSPost2010Prop30
280
     1
102
RTVSPost2010PropOp30
 70
     1
102
RTVSPost2010Prop31
280
     0
102
RTVSPost2010PropOp31
 70
     1
102
RTVSPost2010Prop32
280
     0
102
RTVSPost2010PropOp32
 70
     1
102
RTVSPost2010Prop33
280
     0
102
RTVSPost2010PropOp33
 70
     1
102
RTVSPost2010Prop34
280
     0
102
RTVSPost2010PropOp34
 70
     1
102
RTVSPost2010Prop35
280
     0
102
RTVSPost2010PropOp35
 70
     1
102
RTVSPost2010Prop36
280
     0
102
RTVSPost2010PropOp36
 70
     1
102
RTVSPost2010Prop37
 90
       50
102
RTVSPost2010PropOp37
 70
     1
102
RTVSPost2010Prop38
140
0.0
102
RTVSPost2010PropOp38
 70
     1
102
RTVSPost2010Prop39
140
1.0
102
RTVSPost2010PropOp39
 70
     1
102
RTVSPost2010Prop40
 90
        0
102
RTVSPost2010PropOp40
 70
     1
102
RTVSPost2010Prop41ColorIndex
 90
       18
102
RTVSPost2010Prop41ColorRGB
 90
        0
102
RTVSPost2010PropOp41
 70
     1
102
RTVSPost2010Prop42
 90
       50
102
RTVSPost2010PropOp42
 70
     1
102
RTVSPost2010Prop43
 90
        3
102
RTVSPost2010PropOp43
 70
     1
102
RTVSPost2010Prop44ColorIndex
 90
        5
102
RTVSPost2010Prop44ColorRGB
 90
      255
102
RTVSPost2010PropOp44
 70
     1
102
RTVSPost2010Prop45
280
     0
102
RTVSPost2010PropOp45
 70
     1
102
RTVSPost2010Prop46
 90
       50
102
RTVSPost2010PropOp46
 70
     1
102
RTVSPost2010Prop47
 90
       50
102
RTVSPost2010PropOp47
 70
     1
102
RTVSPost2010Prop48
 90
       50
102
RTVSPost2010PropOp48
 70
     1
102
RTVSPost2010Prop49
280
     0
102
RTVSPost2010PropOp49
 70
     1
102
RTVSPost2010Prop50
 90
       50
102
RTVSPost2010PropOp50
 70
     1
102
RTVSPost2010Prop51ColorIndex
 90
      256
102
RTVSPost2010Prop51ColorRGB
 90
-16777216
102
RTVSPost2010PropOp51
 70
     0
102
RTVSPost2010Prop52
140
1.0
102
RTVSPost2010PropOp52
 70
     0
102
RTVSPost2010Prop53
 90
        2
102
RTVSPost2010PropOp53
 70
     1
102
RTVSPost2010Prop54
  1
strokes_ogs.tif
102
RTVSPost2010PropOp54
 70
     1
102
RTVSPost2010Prop55
280
     0
102
RTVSPost2010PropOp55
 70
     1
102
RTVSPost2010Prop56
140
1.0
102
RTVSPost2010PropOp56
 70
     1
102
RTVSPost2010Prop57
140
1.0
102
RTVSPost2010PropOp57
 70
     1
  0
XRECORD
  5
29E
102
{ACAD_REACTORS
330
29D
102
}
330
29D
100
AcDbXrecord
280
     1
102
RTVSPropertyOp0
 70
     1
102
RTVSPropertyOp1
 70
     1
102
RTVSPropertyOp2
 70
     1
102
RTVSPropertyOp3
 70
     1
102
RTVSPropertyOp4
 70
     1
102
RTVSPropertyOp5
 70
     1
102
RTVSPropertyOp6
 70
     1
102
RTVSPropertyOp7
 70
     1
102
RTVSPropertyOp8
 70
     1
102
RTVSPropertyOp9
 70
     1
102
RTVSPropertyOp10
 70
     1
102
RTVSPropertyOp11
 70
     1
102
RTVSPropertyOp12
 70
     1
102
RTVSPropertyOp13
 70
     1
102
RTVSPropertyOp14
 70
     1
102
RTVSPropertyOp15
 70
     1
102
RTVSPropertyOp16
 70
     1
102
RTVSPropertyOp17
 70
     1
102
RTVSPropertyOp18
 70
     1
102
RTVSPropertyOp19
 70
     1
102
RTVSPropertyOp20
 70
     1
102
RTVSPropertyOp21
 70
     1
102
RTVSPropertyOp22
 70
     1
102
RTVSPropertyOp23
 70
     1
102
RTVSPropertyOp24
 70
     1
102
RTVSPropertyOp25
 70
     1
102
RTVSPropertyOp26
 70
     1
102
RTVSPropertyOp27
 70
     1
102
RTVSPropertyOp28
 70
     1
102
RTVSPropertyOp29
 70
     1
102
RTVSPropertyOp30
 70
     1
102
RTVSPropertyOp31
 70
     1
102
RTVSPropertyOp32
 70
     1
102
RTVSPropertyOp33
 70
     1
102
RTVSPropertyOp34
 70
     1
102
RTVSPropertyOp35
 70
     1
102
RTVSPropertyOp36
 70
     1
102
RTVSPropertyOp37
 70
     1
102
RTVSPropertyOp38
 70
     1
102
RTVSPropertyOp39
 70
     1
102
RTVSPropertyOp40
 70
     1
102
RTVSPropertyOp41
 70
     1
102
RTVSPropertyOp42
 70
     1
102
RTVSPropertyOp43
 70
     1
102
RTVSPropertyOp44
 70
     1
102
RTVSPropertyOp45
 70
     1
102
RTVSPropertyOp46
 70
     1
102
RTVSPropertyOp47
 70
     1
102
RTVSPropertyOp48
 70
     1
102
RTVSPropertyOp49
 70
     1
102
RTVSPropertyOp50
 70
     1
102
RTVSPropertyOp51
 70
     0
102
RTVSPropertyOp52
 70
     0
102
RTVSPropertyOp53
 70
     1
102
RTVSPropertyOp54
 70
     1
102
RTVSPropertyOp55
 70
     1
102
RTVSPropertyOp56
 70
     1
102
RTVSPropertyOp57
 70
     1
102
RTVSPost2010Prop28
280
     0
102
RTVSPost2010PropOp28
 70
     1
102
RTVSPost2010Prop29
280
     1
102
RTVSPost2010PropOp29
 70
     1
102
RTVSPost2010Prop30
280
     1
102
RTVSPost2010PropOp30
 70
     1
102
RTVSPost2010Prop31
280
     0
102
RTVSPost2010PropOp31
 70
     1
102
RTVSPost2010Prop32
280
     0
102
RTVSPost2010PropOp32
 70
     1
102
RTVSPost2010Prop33
280
     0
102
RTVSPost2010PropOp33
 70
     1
102
RTVSPost2010Prop34
280
     0
102
RTVSPost2010PropOp34
 70
     1
102
RTVSPost2010Prop35
280
     0
102
RTVSPost2010PropOp35
 70
     1
102
RTVSPost2010Prop36
280
     0
102
RTVSPost2010PropOp36
 70
     1
102
RTVSPost2010Prop37
 90
       50
102
RTVSPost2010PropOp37
 70
     1
102
RTVSPost2010Prop38
140
0.0
102
RTVSPost2010PropOp38
 70
     1
102
RTVSPost2010Prop39
140
1.0
102
RTVSPost2010PropOp39
 70
     1
102
RTVSPost2010Prop40
 90
        0
102
RTVSPost2010PropOp40
 70
     1
102
RTVSPost2010Prop41ColorIndex
 90
       18
102
RTVSPost2010Prop41ColorRGB
 90
        0
102
RTVSPost2010PropOp41
 70
     1
102
RTVSPost2010Prop42
 90
       50
102
RTVSPost2010PropOp42
 70
     1
102
RTVSPost2010Prop43
 90
        3
102
RTVSPost2010PropOp43
 70
     1
102
RTVSPost2010Prop44ColorIndex
 90
        5
102
RTVSPost2010Prop44ColorRGB
 90
      255
102
RTVSPost2010PropOp44
 70
     1
102
RTVSPost2010Prop45
280
     0
102
RTVSPost2010PropOp45
 70
     1
102
RTVSPost2010Prop46
 90
       50
102
RTVSPost2010PropOp46
 70
     1
102
RTVSPost2010Prop47
 90
       50
102
RTVSPost2010PropOp47
 70
     1
102
RTVSPost2010Prop48
 90
       50
102
RTVSPost2010PropOp48
 70
     1
102
RTVSPost2010Prop49
280
     0
102
RTVSPost2010PropOp49
 70
     1
102
RTVSPost2010Prop50
 90
       50
102
RTVSPost2010PropOp50
 70
     1
102
RTVSPost2010Prop51ColorIndex
 90
      256
102
RTVSPost2010Prop51ColorRGB
 90
-16777216
102
RTVSPost2010PropOp51
 70
     0
102
RTVSPost2010Prop52
140
1.0
102
RTVSPost2010PropOp52
 70
     0
102
RTVSPost2010Prop53
 90
        2
102
RTVSPost2010PropOp53
 70
     1
102
RTVSPost2010Prop54
  1
strokes_ogs.tif
102
RTVSPost2010PropOp54
 70
     1
102
RTVSPost2010Prop55
280
     0
102
RTVSPost2010PropOp55
 70
     1
102
RTVSPost2010Prop56
140
1.0
102
RTVSPost2010PropOp56
 70
     1
102
RTVSPost2010Prop57
140
1.0
102
RTVSPost2010PropOp57
 70
     1
  0
XRECORD
  5
29C
102
{ACAD_REACTORS
330
29B
102
}
330
29B
100
AcDbXrecord
280
     1
102
RTVSPropertyOp0
 70
     1
102
RTVSPropertyOp1
 70
     1
102
RTVSPropertyOp2
 70
     1
102
RTVSPropertyOp3
 70
     1
102
RTVSPropertyOp4
 70
     1
102
RTVSPropertyOp5
 70
     1
102
RTVSPropertyOp6
 70
     1
102
RTVSPropertyOp7
 70
     1
102
RTVSPropertyOp8
 70
     1
102
RTVSPropertyOp9
 70
     1
102
RTVSPropertyOp10
 70
     1
102
RTVSPropertyOp11
 70
     1
102
RTVSPropertyOp12
 70
     1
102
RTVSPropertyOp13
 70
     1
102
RTVSPropertyOp14
 70
     1
102
RTVSPropertyOp15
 70
     1
102
RTVSPropertyOp16
 70
     1
102
RTVSPropertyOp17
 70
     1
102
RTVSPropertyOp18
 70
     1
102
RTVSPropertyOp19
 70
     1
102
RTVSPropertyOp20
 70
     1
102
RTVSPropertyOp21
 70
     1
102
RTVSPropertyOp22
 70
     1
102
RTVSPropertyOp23
 70
     1
102
RTVSPropertyOp24
 70
     1
102
RTVSPropertyOp25
 70
     1
102
RTVSPropertyOp26
 70
     1
102
RTVSPropertyOp27
 70
     1
102
RTVSPropertyOp28
 70
     1
102
RTVSPropertyOp29
 70
     1
102
RTVSPropertyOp30
 70
     1
102
RTVSPropertyOp31
 70
     1
102
RTVSPropertyOp32
 70
     1
102
RTVSPropertyOp33
 70
     1
102
RTVSPropertyOp34
 70
     1
102
RTVSPropertyOp35
 70
     1
102
RTVSPropertyOp36
 70
     1
102
RTVSPropertyOp37
 70
     1
102
RTVSPropertyOp38
 70
     1
102
RTVSPropertyOp39
 70
     1
102
RTVSPropertyOp40
 70
     1
102
RTVSPropertyOp41
 70
     1
102
RTVSPropertyOp42
 70
     1
102
RTVSPropertyOp43
 70
     1
102
RTVSPropertyOp44
 70
     1
102
RTVSPropertyOp45
 70
     1
102
RTVSPropertyOp46
 70
     1
102
RTVSPropertyOp47
 70
     1
102
RTVSPropertyOp48
 70
     1
102
RTVSPropertyOp49
 70
     1
102
RTVSPropertyOp50
 70
     1
102
RTVSPropertyOp51
 70
     0
102
RTVSPropertyOp52
 70
     0
102
RTVSPropertyOp53
 70
     1
102
RTVSPropertyOp54
 70
     1
102
RTVSPropertyOp55
 70
     1
102
RTVSPropertyOp56
 70
     1
102
RTVSPropertyOp57
 70
     1
102
RTVSPost2010Prop28
280
     0
102
RTVSPost2010PropOp28
 70
     1
102
RTVSPost2010Prop29
280
     1
102
RTVSPost2010PropOp29
 70
     1
102
RTVSPost2010Prop30
280
     1
102
RTVSPost2010PropOp30
 70
     1
102
RTVSPost2010Prop31
280
     0
102
RTVSPost2010PropOp31
 70
     1
102
RTVSPost2010Prop32
280
     0
102
RTVSPost2010PropOp32
 70
     1
102
RTVSPost2010Prop33
280
     0
102
RTVSPost2010PropOp33
 70
     1
102
RTVSPost2010Prop34
280
     0
102
RTVSPost2010PropOp34
 70
     1
102
RTVSPost2010Prop35
280
     0
102
RTVSPost2010PropOp35
 70
     1
102
RTVSPost2010Prop36
280
     0
102
RTVSPost2010PropOp36
 70
     1
102
RTVSPost2010Prop37
 90
       50
102
RTVSPost2010PropOp37
 70
     1
102
RTVSPost2010Prop38
140
0.0
102
RTVSPost2010PropOp38
 70
     1
102
RTVSPost2010Prop39
140
1.0
102
RTVSPost2010PropOp39
 70
     1
102
RTVSPost2010Prop40
 90
        0
102
RTVSPost2010PropOp40
 70
     1
102
RTVSPost2010Prop41ColorIndex
 90
       18
102
RTVSPost2010Prop41ColorRGB
 90
        0
102
RTVSPost2010PropOp41
 70
     1
102
RTVSPost2010Prop42
 90
       50
102
RTVSPost2010PropOp42
 70
     1
102
RTVSPost2010Prop43
 90
        3
102
RTVSPost2010PropOp43
 70
     1
102
RTVSPost2010Prop44ColorIndex
 90
        5
102
RTVSPost2010Prop44ColorRGB
 90
      255
102
RTVSPost2010PropOp44
 70
     1
102
RTVSPost2010Prop45
280
     0
102
RTVSPost2010PropOp45
 70
     1
102
RTVSPost2010Prop46
 90
       50
102
RTVSPost2010PropOp46
 70
     1
102
RTVSPost2010Prop47
 90
       50
102
RTVSPost2010PropOp47
 70
     1
102
RTVSPost2010Prop48
 90
       50
102
RTVSPost2010PropOp48
 70
     1
102
RTVSPost2010Prop49
280
     0
102
RTVSPost2010PropOp49
 70
     1
102
RTVSPost2010Prop50
 90
       50
102
RTVSPost2010PropOp50
 70
     1
102
RTVSPost2010Prop51ColorIndex
 90
      256
102
RTVSPost2010Prop51ColorRGB
 90
-16777216
102
RTVSPost2010PropOp51
 70
     0
102
RTVSPost2010Prop52
140
1.0
102
RTVSPost2010PropOp52
 70
     0
102
RTVSPost2010Prop53
 90
        2
102
RTVSPost2010PropOp53
 70
     1
102
RTVSPost2010Prop54
  1
strokes_ogs.tif
102
RTVSPost2010PropOp54
 70
     1
102
RTVSPost2010Prop55
280
     0
102
RTVSPost2010PropOp55
 70
     1
102
RTVSPost2010Prop56
140
1.0
102
RTVSPost2010PropOp56
 70
     1
102
RTVSPost2010Prop57
140
1.0
102
RTVSPost2010PropOp57
 70
     1
  0
XRECORD
  5
296
102
{ACAD_REACTORS
330
295
102
}
330
295
100
AcDbXrecord
280
     1
102
RTVSPropertyOp0
 70
     1
102
RTVSPropertyOp1
 70
     1
102
RTVSPropertyOp2
 70
     1
102
RTVSPropertyOp3
 70
     1
102
RTVSPropertyOp4
 70
     1
102
RTVSPropertyOp5
 70
     1
102
RTVSPropertyOp6
 70
     1
102
RTVSPropertyOp7
 70
     1
102
RTVSPropertyOp8
 70
     1
102
RTVSPropertyOp9
 70
     1
102
RTVSPropertyOp10
 70
     1
102
RTVSPropertyOp11
 70
     1
102
RTVSPropertyOp12
 70
     1
102
RTVSPropertyOp13
 70
     1
102
RTVSPropertyOp14
 70
     1
102
RTVSPropertyOp15
 70
     1
102
RTVSPropertyOp16
 70
     1
102
RTVSPropertyOp17
 70
     1
102
RTVSPropertyOp18
 70
     1
102
RTVSPropertyOp19
 70
     1
102
RTVSPropertyOp20
 70
     1
102
RTVSPropertyOp21
 70
     1
102
RTVSPropertyOp22
 70
     1
102
RTVSPropertyOp23
 70
     1
102
RTVSPropertyOp24
 70
     1
102
RTVSPropertyOp25
 70
     1
102
RTVSPropertyOp26
 70
     1
102
RTVSPropertyOp27
 70
     1
102
RTVSPropertyOp28
 70
     1
102
RTVSPropertyOp29
 70
     1
102
RTVSPropertyOp30
 70
     1
102
RTVSPropertyOp31
 70
     1
102
RTVSPropertyOp32
 70
     1
102
RTVSPropertyOp33
 70
     1
102
RTVSPropertyOp34
 70
     1
102
RTVSPropertyOp35
 70
     1
102
RTVSPropertyOp36
 70
     1
102
RTVSPropertyOp37
 70
     1
102
RTVSPropertyOp38
 70
     1
102
RTVSPropertyOp39
 70
     1
102
RTVSPropertyOp40
 70
     1
102
RTVSPropertyOp41
 70
     1
102
RTVSPropertyOp42
 70
     1
102
RTVSPropertyOp43
 70
     1
102
RTVSPropertyOp44
 70
     1
102
RTVSPropertyOp45
 70
     1
102
RTVSPropertyOp46
 70
     1
102
RTVSPropertyOp47
 70
     1
102
RTVSPropertyOp48
 70
     1
102
RTVSPropertyOp49
 70
     1
102
RTVSPropertyOp50
 70
     1
102
RTVSPropertyOp51
 70
     0
102
RTVSPropertyOp52
 70
     0
102
RTVSPropertyOp53
 70
     1
102
RTVSPropertyOp54
 70
     1
102
RTVSPropertyOp55
 70
     1
102
RTVSPropertyOp56
 70
     1
102
RTVSPropertyOp57
 70
     1
102
RTVSPost2010Prop28
280
     0
102
RTVSPost2010PropOp28
 70
     1
102
RTVSPost2010Prop29
280
     1
102
RTVSPost2010PropOp29
 70
     1
102
RTVSPost2010Prop30
280
     1
102
RTVSPost2010PropOp30
 70
     1
102
RTVSPost2010Prop31
280
     0
102
RTVSPost2010PropOp31
 70
     1
102
RTVSPost2010Prop32
280
     0
102
RTVSPost2010PropOp32
 70
     1
102
RTVSPost2010Prop33
280
     0
102
RTVSPost2010PropOp33
 70
     1
102
RTVSPost2010Prop34
280
     0
102
RTVSPost2010PropOp34
 70
     1
102
RTVSPost2010Prop35
280
     0
102
RTVSPost2010PropOp35
 70
     1
102
RTVSPost2010Prop36
280
     0
102
RTVSPost2010PropOp36
 70
     1
102
RTVSPost2010Prop37
 90
       50
102
RTVSPost2010PropOp37
 70
     1
102
RTVSPost2010Prop38
140
0.0
102
RTVSPost2010PropOp38
 70
     1
102
RTVSPost2010Prop39
140
1.0
102
RTVSPost2010PropOp39
 70
     1
102
RTVSPost2010Prop40
 90
        0
102
RTVSPost2010PropOp40
 70
     1
102
RTVSPost2010Prop41ColorIndex
 90
       18
102
RTVSPost2010Prop41ColorRGB
 90
        0
102
RTVSPost2010PropOp41
 70
     1
102
RTVSPost2010Prop42
 90
       50
102
RTVSPost2010PropOp42
 70
     1
102
RTVSPost2010Prop43
 90
        3
102
RTVSPost2010PropOp43
 70
     1
102
RTVSPost2010Prop44ColorIndex
 90
        5
102
RTVSPost2010Prop44ColorRGB
 90
      255
102
RTVSPost2010PropOp44
 70
     1
102
RTVSPost2010Prop45
280
     0
102
RTVSPost2010PropOp45
 70
     1
102
RTVSPost2010Prop46
 90
       50
102
RTVSPost2010PropOp46
 70
     1
102
RTVSPost2010Prop47
 90
       50
102
RTVSPost2010PropOp47
 70
     1
102
RTVSPost2010Prop48
 90
       50
102
RTVSPost2010PropOp48
 70
     1
102
RTVSPost2010Prop49
280
     0
102
RTVSPost2010PropOp49
 70
     1
102
RTVSPost2010Prop50
 90
       50
102
RTVSPost2010PropOp50
 70
     1
102
RTVSPost2010Prop51ColorIndex
 90
      256
102
RTVSPost2010Prop51ColorRGB
 90
-16777216
102
RTVSPost2010PropOp51
 70
     0
102
RTVSPost2010Prop52
140
1.0
102
RTVSPost2010PropOp52
 70
     0
102
RTVSPost2010Prop53
 90
        2
102
RTVSPost2010PropOp53
 70
     1
102
RTVSPost2010Prop54
  1
strokes_ogs.tif
102
RTVSPost2010PropOp54
 70
     1
102
RTVSPost2010Prop55
280
     0
102
RTVSPost2010PropOp55
 70
     1
102
RTVSPost2010Prop56
140
1.0
102
RTVSPost2010PropOp56
 70
     1
102
RTVSPost2010Prop57
140
1.0
102
RTVSPost2010PropOp57
 70
     1
  0
XRECORD
  5
298
102
{ACAD_REACTORS
330
297
102
}
330
297
100
AcDbXrecord
280
     1
102
RTVSPropertyOp0
 70
     1
102
RTVSPropertyOp1
 70
     1
102
RTVSPropertyOp2
 70
     1
102
RTVSPropertyOp3
 70
     1
102
RTVSPropertyOp4
 70
     1
102
RTVSPropertyOp5
 70
     1
102
RTVSPropertyOp6
 70
     1
102
RTVSPropertyOp7
 70
     1
102
RTVSPropertyOp8
 70
     1
102
RTVSPropertyOp9
 70
     1
102
RTVSPropertyOp10
 70
     1
102
RTVSPropertyOp11
 70
     1
102
RTVSPropertyOp12
 70
     1
102
RTVSPropertyOp13
 70
     1
102
RTVSPropertyOp14
 70
     1
102
RTVSPropertyOp15
 70
     1
102
RTVSPropertyOp16
 70
     1
102
RTVSPropertyOp17
 70
     1
102
RTVSPropertyOp18
 70
     1
102
RTVSPropertyOp19
 70
     1
102
RTVSPropertyOp20
 70
     1
102
RTVSPropertyOp21
 70
     1
102
RTVSPropertyOp22
 70
     1
102
RTVSPropertyOp23
 70
     1
102
RTVSPropertyOp24
 70
     1
102
RTVSPropertyOp25
 70
     1
102
RTVSPropertyOp26
 70
     1
102
RTVSPropertyOp27
 70
     1
102
RTVSPropertyOp28
 70
     1
102
RTVSPropertyOp29
 70
     1
102
RTVSPropertyOp30
 70
     1
102
RTVSPropertyOp31
 70
     1
102
RTVSPropertyOp32
 70
     1
102
RTVSPropertyOp33
 70
     1
102
RTVSPropertyOp34
 70
     1
102
RTVSPropertyOp35
 70
     1
102
RTVSPropertyOp36
 70
     1
102
RTVSPropertyOp37
 70
     1
102
RTVSPropertyOp38
 70
     1
102
RTVSPropertyOp39
 70
     1
102
RTVSPropertyOp40
 70
     1
102
RTVSPropertyOp41
 70
     1
102
RTVSPropertyOp42
 70
     1
102
RTVSPropertyOp43
 70
     1
102
RTVSPropertyOp44
 70
     1
102
RTVSPropertyOp45
 70
     1
102
RTVSPropertyOp46
 70
     1
102
RTVSPropertyOp47
 70
     1
102
RTVSPropertyOp48
 70
     1
102
RTVSPropertyOp49
 70
     1
102
RTVSPropertyOp50
 70
     1
102
RTVSPropertyOp51
 70
     0
102
RTVSPropertyOp52
 70
     0
102
RTVSPropertyOp53
 70
     1
102
RTVSPropertyOp54
 70
     1
102
RTVSPropertyOp55
 70
     1
102
RTVSPropertyOp56
 70
     1
102
RTVSPropertyOp57
 70
     1
102
RTVSPost2010Prop28
280
     0
102
RTVSPost2010PropOp28
 70
     1
102
RTVSPost2010Prop29
280
     1
102
RTVSPost2010PropOp29
 70
     1
102
RTVSPost2010Prop30
280
     1
102
RTVSPost2010PropOp30
 70
     1
102
RTVSPost2010Prop31
280
     0
102
RTVSPost2010PropOp31
 70
     1
102
RTVSPost2010Prop32
280
     0
102
RTVSPost2010PropOp32
 70
     1
102
RTVSPost2010Prop33
280
     0
102
RTVSPost2010PropOp33
 70
     1
102
RTVSPost2010Prop34
280
     0
102
RTVSPost2010PropOp34
 70
     1
102
RTVSPost2010Prop35
280
     0
102
RTVSPost2010PropOp35
 70
     1
102
RTVSPost2010Prop36
280
     0
102
RTVSPost2010PropOp36
 70
     1
102
RTVSPost2010Prop37
 90
       50
102
RTVSPost2010PropOp37
 70
     1
102
RTVSPost2010Prop38
140
0.0
102
RTVSPost2010PropOp38
 70
     1
102
RTVSPost2010Prop39
140
1.0
102
RTVSPost2010PropOp39
 70
     1
102
RTVSPost2010Prop40
 90
        0
102
RTVSPost2010PropOp40
 70
     1
102
RTVSPost2010Prop41ColorIndex
 90
       18
102
RTVSPost2010Prop41ColorRGB
 90
        0
102
RTVSPost2010PropOp41
 70
     1
102
RTVSPost2010Prop42
 90
       50
102
RTVSPost2010PropOp42
 70
     1
102
RTVSPost2010Prop43
 90
        3
102
RTVSPost2010PropOp43
 70
     1
102
RTVSPost2010Prop44ColorIndex
 90
        5
102
RTVSPost2010Prop44ColorRGB
 90
      255
102
RTVSPost2010PropOp44
 70
     1
102
RTVSPost2010Prop45
280
     0
102
RTVSPost2010PropOp45
 70
     1
102
RTVSPost2010Prop46
 90
       50
102
RTVSPost2010PropOp46
 70
     1
102
RTVSPost2010Prop47
 90
       50
102
RTVSPost2010PropOp47
 70
     1
102
RTVSPost2010Prop48
 90
       50
102
RTVSPost2010PropOp48
 70
     1
102
RTVSPost2010Prop49
280
     0
102
RTVSPost2010PropOp49
 70
     1
102
RTVSPost2010Prop50
 90
       50
102
RTVSPost2010PropOp50
 70
     1
102
RTVSPost2010Prop51ColorIndex
 90
      256
102
RTVSPost2010Prop51ColorRGB
 90
-16777216
102
RTVSPost2010PropOp51
 70
     0
102
RTVSPost2010Prop52
140
1.0
102
RTVSPost2010PropOp52
 70
     0
102
RTVSPost2010Prop53
 90
        2
102
RTVSPost2010PropOp53
 70
     1
102
RTVSPost2010Prop54
  1
strokes_ogs.tif
102
RTVSPost2010PropOp54
 70
     1
102
RTVSPost2010Prop55
280
     0
102
RTVSPost2010PropOp55
 70
     1
102
RTVSPost2010Prop56
140
1.0
102
RTVSPost2010PropOp56
 70
     1
102
RTVSPost2010Prop57
140
1.0
102
RTVSPost2010PropOp57
 70
     1
  0
XRECORD
  5
288
102
{ACAD_REACTORS
330
287
102
}
330
287
100
AcDbXrecord
280
     1
102
RTVSPropertyOp0
 70
     1
102
RTVSPropertyOp1
 70
     1
102
RTVSPropertyOp2
 70
     1
102
RTVSPropertyOp3
 70
     1
102
RTVSPropertyOp4
 70
     1
102
RTVSPropertyOp5
 70
     1
102
RTVSPropertyOp6
 70
     1
102
RTVSPropertyOp7
 70
     1
102
RTVSPropertyOp8
 70
     1
102
RTVSPropertyOp9
 70
     1
102
RTVSPropertyOp10
 70
     1
102
RTVSPropertyOp11
 70
     1
102
RTVSPropertyOp12
 70
     1
102
RTVSPropertyOp13
 70
     1
102
RTVSPropertyOp14
 70
     1
102
RTVSPropertyOp15
 70
     1
102
RTVSPropertyOp16
 70
     1
102
RTVSPropertyOp17
 70
     1
102
RTVSPropertyOp18
 70
     1
102
RTVSPropertyOp19
 70
     1
102
RTVSPropertyOp20
 70
     1
102
RTVSPropertyOp21
 70
     1
102
RTVSPropertyOp22
 70
     1
102
RTVSPropertyOp23
 70
     1
102
RTVSPropertyOp24
 70
     1
102
RTVSPropertyOp25
 70
     1
102
RTVSPropertyOp26
 70
     1
102
RTVSPropertyOp27
 70
     1
102
RTVSPropertyOp28
 70
     1
102
RTVSPropertyOp29
 70
     1
102
RTVSPropertyOp30
 70
     1
102
RTVSPropertyOp31
 70
     1
102
RTVSPropertyOp32
 70
     1
102
RTVSPropertyOp33
 70
     1
102
RTVSPropertyOp34
 70
     1
102
RTVSPropertyOp35
 70
     1
102
RTVSPropertyOp36
 70
     1
102
RTVSPropertyOp37
 70
     1
102
RTVSPropertyOp38
 70
     1
102
RTVSPropertyOp39
 70
     1
102
RTVSPropertyOp40
 70
     1
102
RTVSPropertyOp41
 70
     1
102
RTVSPropertyOp42
 70
     1
102
RTVSPropertyOp43
 70
     1
102
RTVSPropertyOp44
 70
     1
102
RTVSPropertyOp45
 70
     1
102
RTVSPropertyOp46
 70
     1
102
RTVSPropertyOp47
 70
     1
102
RTVSPropertyOp48
 70
     1
102
RTVSPropertyOp49
 70
     1
102
RTVSPropertyOp50
 70
     1
102
RTVSPropertyOp51
 70
     0
102
RTVSPropertyOp52
 70
     0
102
RTVSPropertyOp53
 70
     1
102
RTVSPropertyOp54
 70
     1
102
RTVSPropertyOp55
 70
     1
102
RTVSPropertyOp56
 70
     1
102
RTVSPropertyOp57
 70
     1
102
RTVSPost2010Prop28
280
     0
102
RTVSPost2010PropOp28
 70
     1
102
RTVSPost2010Prop29
280
     1
102
RTVSPost2010PropOp29
 70
     1
102
RTVSPost2010Prop30
280
     1
102
RTVSPost2010PropOp30
 70
     1
102
RTVSPost2010Prop31
280
     0
102
RTVSPost2010PropOp31
 70
     1
102
RTVSPost2010Prop32
280
     0
102
RTVSPost2010PropOp32
 70
     1
102
RTVSPost2010Prop33
280
     0
102
RTVSPost2010PropOp33
 70
     1
102
RTVSPost2010Prop34
280
     0
102
RTVSPost2010PropOp34
 70
     1
102
RTVSPost2010Prop35
280
     0
102
RTVSPost2010PropOp35
 70
     1
102
RTVSPost2010Prop36
280
     0
102
RTVSPost2010PropOp36
 70
     1
102
RTVSPost2010Prop37
 90
       50
102
RTVSPost2010PropOp37
 70
     1
102
RTVSPost2010Prop38
140
0.0
102
RTVSPost2010PropOp38
 70
     1
102
RTVSPost2010Prop39
140
1.0
102
RTVSPost2010PropOp39
 70
     1
102
RTVSPost2010Prop40
 90
        0
102
RTVSPost2010PropOp40
 70
     1
102
RTVSPost2010Prop41ColorIndex
 90
       18
102
RTVSPost2010Prop41ColorRGB
 90
        0
102
RTVSPost2010PropOp41
 70
     1
102
RTVSPost2010Prop42
 90
       50
102
RTVSPost2010PropOp42
 70
     1
102
RTVSPost2010Prop43
 90
        3
102
RTVSPost2010PropOp43
 70
     1
102
RTVSPost2010Prop44ColorIndex
 90
        5
102
RTVSPost2010Prop44ColorRGB
 90
      255
102
RTVSPost2010PropOp44
 70
     1
102
RTVSPost2010Prop45
280
     0
102
RTVSPost2010PropOp45
 70
     1
102
RTVSPost2010Prop46
 90
       50
102
RTVSPost2010PropOp46
 70
     1
102
RTVSPost2010Prop47
 90
       50
102
RTVSPost2010PropOp47
 70
     1
102
RTVSPost2010Prop48
 90
       50
102
RTVSPost2010PropOp48
 70
     1
102
RTVSPost2010Prop49
280
     0
102
RTVSPost2010PropOp49
 70
     1
102
RTVSPost2010Prop50
 90
       50
102
RTVSPost2010PropOp50
 70
     1
102
RTVSPost2010Prop51ColorIndex
 90
      256
102
RTVSPost2010Prop51ColorRGB
 90
-16777216
102
RTVSPost2010PropOp51
 70
     0
102
RTVSPost2010Prop52
140
1.0
102
RTVSPost2010PropOp52
 70
     0
102
RTVSPost2010Prop53
 90
        2
102
RTVSPost2010PropOp53
 70
     1
102
RTVSPost2010Prop54
  1
strokes_ogs.tif
102
RTVSPost2010PropOp54
 70
     1
102
RTVSPost2010Prop55
280
     0
102
RTVSPost2010PropOp55
 70
     1
102
RTVSPost2010Prop56
140
1.0
102
RTVSPost2010PropOp56
 70
     1
102
RTVSPost2010Prop57
140
1.0
102
RTVSPost2010PropOp57
 70
     1
  0
XRECORD
  5
27A
102
{ACAD_REACTORS
330
279
102
}
330
279
100
AcDbXrecord
280
     1
102
RTVSPropertyOp0
 70
     1
102
RTVSPropertyOp1
 70
     1
102
RTVSPropertyOp2
 70
     1
102
RTVSPropertyOp3
 70
     1
102
RTVSPropertyOp4
 70
     1
102
RTVSPropertyOp5
 70
     1
102
RTVSPropertyOp6
 70
     1
102
RTVSPropertyOp7
 70
     1
102
RTVSPropertyOp8
 70
     1
102
RTVSPropertyOp9
 70
     1
102
RTVSPropertyOp10
 70
     1
102
RTVSPropertyOp11
 70
     1
102
RTVSPropertyOp12
 70
     1
102
RTVSPropertyOp13
 70
     1
102
RTVSPropertyOp14
 70
     1
102
RTVSPropertyOp15
 70
     1
102
RTVSPropertyOp16
 70
     1
102
RTVSPropertyOp17
 70
     1
102
RTVSPropertyOp18
 70
     1
102
RTVSPropertyOp19
 70
     1
102
RTVSPropertyOp20
 70
     1
102
RTVSPropertyOp21
 70
     1
102
RTVSPropertyOp22
 70
     1
102
RTVSPropertyOp23
 70
     1
102
RTVSPropertyOp24
 70
     1
102
RTVSPropertyOp25
 70
     1
102
RTVSPropertyOp26
 70
     1
102
RTVSPropertyOp27
 70
     1
102
RTVSPropertyOp28
 70
     1
102
RTVSPropertyOp29
 70
     1
102
RTVSPropertyOp30
 70
     1
102
RTVSPropertyOp31
 70
     1
102
RTVSPropertyOp32
 70
     1
102
RTVSPropertyOp33
 70
     1
102
RTVSPropertyOp34
 70
     1
102
RTVSPropertyOp35
 70
     1
102
RTVSPropertyOp36
 70
     1
102
RTVSPropertyOp37
 70
     1
102
RTVSPropertyOp38
 70
     1
102
RTVSPropertyOp39
 70
     1
102
RTVSPropertyOp40
 70
     1
102
RTVSPropertyOp41
 70
     1
102
RTVSPropertyOp42
 70
     1
102
RTVSPropertyOp43
 70
     1
102
RTVSPropertyOp44
 70
     1
102
RTVSPropertyOp45
 70
     1
102
RTVSPropertyOp46
 70
     1
102
RTVSPropertyOp47
 70
     1
102
RTVSPropertyOp48
 70
     1
102
RTVSPropertyOp49
 70
     1
102
RTVSPropertyOp50
 70
     1
102
RTVSPropertyOp51
 70
     0
102
RTVSPropertyOp52
 70
     0
102
RTVSPropertyOp53
 70
     1
102
RTVSPropertyOp54
 70
     1
102
RTVSPropertyOp55
 70
     1
102
RTVSPropertyOp56
 70
     1
102
RTVSPropertyOp57
 70
     1
102
RTVSPost2010Prop28
280
     0
102
RTVSPost2010PropOp28
 70
     1
102
RTVSPost2010Prop29
280
     1
102
RTVSPost2010PropOp29
 70
     1
102
RTVSPost2010Prop30
280
     1
102
RTVSPost2010PropOp30
 70
     1
102
RTVSPost2010Prop31
280
     0
102
RTVSPost2010PropOp31
 70
     1
102
RTVSPost2010Prop32
280
     0
102
RTVSPost2010PropOp32
 70
     1
102
RTVSPost2010Prop33
280
     0
102
RTVSPost2010PropOp33
 70
     1
102
RTVSPost2010Prop34
280
     0
102
RTVSPost2010PropOp34
 70
     1
102
RTVSPost2010Prop35
280
     0
102
RTVSPost2010PropOp35
 70
     1
102
RTVSPost2010Prop36
280
     0
102
RTVSPost2010PropOp36
 70
     1
102
RTVSPost2010Prop37
 90
       50
102
RTVSPost2010PropOp37
 70
     1
102
RTVSPost2010Prop38
140
0.0
102
RTVSPost2010PropOp38
 70
     1
102
RTVSPost2010Prop39
140
1.0
102
RTVSPost2010PropOp39
 70
     1
102
RTVSPost2010Prop40
 90
        0
102
RTVSPost2010PropOp40
 70
     1
102
RTVSPost2010Prop41ColorIndex
 90
       18
102
RTVSPost2010Prop41ColorRGB
 90
        0
102
RTVSPost2010PropOp41
 70
     1
102
RTVSPost2010Prop42
 90
       50
102
RTVSPost2010PropOp42
 70
     1
102
RTVSPost2010Prop43
 90
        3
102
RTVSPost2010PropOp43
 70
     1
102
RTVSPost2010Prop44ColorIndex
 90
        5
102
RTVSPost2010Prop44ColorRGB
 90
      255
102
RTVSPost2010PropOp44
 70
     1
102
RTVSPost2010Prop45
280
     0
102
RTVSPost2010PropOp45
 70
     1
102
RTVSPost2010Prop46
 90
       50
102
RTVSPost2010PropOp46
 70
     1
102
RTVSPost2010Prop47
 90
       50
102
RTVSPost2010PropOp47
 70
     1
102
RTVSPost2010Prop48
 90
       50
102
RTVSPost2010PropOp48
 70
     1
102
RTVSPost2010Prop49
280
     0
102
RTVSPost2010PropOp49
 70
     1
102
RTVSPost2010Prop50
 90
       50
102
RTVSPost2010PropOp50
 70
     1
102
RTVSPost2010Prop51ColorIndex
 90
      256
102
RTVSPost2010Prop51ColorRGB
 90
-16777216
102
RTVSPost2010PropOp51
 70
     0
102
RTVSPost2010Prop52
140
1.0
102
RTVSPost2010PropOp52
 70
     0
102
RTVSPost2010Prop53
 90
        2
102
RTVSPost2010PropOp53
 70
     1
102
RTVSPost2010Prop54
  1
strokes_ogs.tif
102
RTVSPost2010PropOp54
 70
     1
102
RTVSPost2010Prop55
280
     0
102
RTVSPost2010PropOp55
 70
     1
102
RTVSPost2010Prop56
140
1.0
102
RTVSPost2010PropOp56
 70
     1
102
RTVSPost2010Prop57
140
1.0
102
RTVSPost2010PropOp57
 70
     1
  0
XRECORD
  5
29A
102
{ACAD_REACTORS
330
299
102
}
330
299
100
AcDbXrecord
280
     1
102
RTVSPropertyOp0
 70
     1
102
RTVSPropertyOp1
 70
     1
102
RTVSPropertyOp2
 70
     1
102
RTVSPropertyOp3
 70
     1
102
RTVSPropertyOp4
 70
     1
102
RTVSPropertyOp5
 70
     1
102
RTVSPropertyOp6
 70
     1
102
RTVSPropertyOp7
 70
     1
102
RTVSPropertyOp8
 70
     1
102
RTVSPropertyOp9
 70
     1
102
RTVSPropertyOp10
 70
     1
102
RTVSPropertyOp11
 70
     1
102
RTVSPropertyOp12
 70
     1
102
RTVSPropertyOp13
 70
     1
102
RTVSPropertyOp14
 70
     1
102
RTVSPropertyOp15
 70
     1
102
RTVSPropertyOp16
 70
     1
102
RTVSPropertyOp17
 70
     1
102
RTVSPropertyOp18
 70
     1
102
RTVSPropertyOp19
 70
     1
102
RTVSPropertyOp20
 70
     1
102
RTVSPropertyOp21
 70
     1
102
RTVSPropertyOp22
 70
     1
102
RTVSPropertyOp23
 70
     1
102
RTVSPropertyOp24
 70
     1
102
RTVSPropertyOp25
 70
     1
102
RTVSPropertyOp26
 70
     1
102
RTVSPropertyOp27
 70
     1
102
RTVSPropertyOp28
 70
     1
102
RTVSPropertyOp29
 70
     1
102
RTVSPropertyOp30
 70
     1
102
RTVSPropertyOp31
 70
     1
102
RTVSPropertyOp32
 70
     1
102
RTVSPropertyOp33
 70
     1
102
RTVSPropertyOp34
 70
     1
102
RTVSPropertyOp35
 70
     1
102
RTVSPropertyOp36
 70
     1
102
RTVSPropertyOp37
 70
     1
102
RTVSPropertyOp38
 70
     1
102
RTVSPropertyOp39
 70
     1
102
RTVSPropertyOp40
 70
     1
102
RTVSPropertyOp41
 70
     1
102
RTVSPropertyOp42
 70
     1
102
RTVSPropertyOp43
 70
     1
102
RTVSPropertyOp44
 70
     1
102
RTVSPropertyOp45
 70
     1
102
RTVSPropertyOp46
 70
     1
102
RTVSPropertyOp47
 70
     1
102
RTVSPropertyOp48
 70
     1
102
RTVSPropertyOp49
 70
     1
102
RTVSPropertyOp50
 70
     1
102
RTVSPropertyOp51
 70
     0
102
RTVSPropertyOp52
 70
     0
102
RTVSPropertyOp53
 70
     1
102
RTVSPropertyOp54
 70
     1
102
RTVSPropertyOp55
 70
     1
102
RTVSPropertyOp56
 70
     1
102
RTVSPropertyOp57
 70
     1
102
RTVSPost2010Prop28
280
     0
102
RTVSPost2010PropOp28
 70
     1
102
RTVSPost2010Prop29
280
     1
102
RTVSPost2010PropOp29
 70
     1
102
RTVSPost2010Prop30
280
     1
102
RTVSPost2010PropOp30
 70
     1
102
RTVSPost2010Prop31
280
     0
102
RTVSPost2010PropOp31
 70
     1
102
RTVSPost2010Prop32
280
     0
102
RTVSPost2010PropOp32
 70
     1
102
RTVSPost2010Prop33
280
     0
102
RTVSPost2010PropOp33
 70
     1
102
RTVSPost2010Prop34
280
     0
102
RTVSPost2010PropOp34
 70
     1
102
RTVSPost2010Prop35
280
     0
102
RTVSPost2010PropOp35
 70
     1
102
RTVSPost2010Prop36
280
     0
102
RTVSPost2010PropOp36
 70
     1
102
RTVSPost2010Prop37
 90
       50
102
RTVSPost2010PropOp37
 70
     1
102
RTVSPost2010Prop38
140
0.0
102
RTVSPost2010PropOp38
 70
     1
102
RTVSPost2010Prop39
140
1.0
102
RTVSPost2010PropOp39
 70
     1
102
RTVSPost2010Prop40
 90
        0
102
RTVSPost2010PropOp40
 70
     1
102
RTVSPost2010Prop41ColorIndex
 90
       18
102
RTVSPost2010Prop41ColorRGB
 90
        0
102
RTVSPost2010PropOp41
 70
     1
102
RTVSPost2010Prop42
 90
       50
102
RTVSPost2010PropOp42
 70
     1
102
RTVSPost2010Prop43
 90
        3
102
RTVSPost2010PropOp43
 70
     1
102
RTVSPost2010Prop44ColorIndex
 90
        5
102
RTVSPost2010Prop44ColorRGB
 90
      255
102
RTVSPost2010PropOp44
 70
     1
102
RTVSPost2010Prop45
280
     0
102
RTVSPost2010PropOp45
 70
     1
102
RTVSPost2010Prop46
 90
       50
102
RTVSPost2010PropOp46
 70
     1
102
RTVSPost2010Prop47
 90
       50
102
RTVSPost2010PropOp47
 70
     1
102
RTVSPost2010Prop48
 90
       50
102
RTVSPost2010PropOp48
 70
     1
102
RTVSPost2010Prop49
280
     0
102
RTVSPost2010PropOp49
 70
     1
102
RTVSPost2010Prop50
 90
       50
102
RTVSPost2010PropOp50
 70
     1
102
RTVSPost2010Prop51ColorIndex
 90
      256
102
RTVSPost2010Prop51ColorRGB
 90
-16777216
102
RTVSPost2010PropOp51
 70
     0
102
RTVSPost2010Prop52
140
1.0
102
RTVSPost2010PropOp52
 70
     0
102
RTVSPost2010Prop53
 90
        2
102
RTVSPost2010PropOp53
 70
     1
102
RTVSPost2010Prop54
  1
strokes_ogs.tif
102
RTVSPost2010PropOp54
 70
     1
102
RTVSPost2010Prop55
280
     0
102
RTVSPost2010PropOp55
 70
     1
102
RTVSPost2010Prop56
140
1.0
102
RTVSPost2010PropOp56
 70
     1
102
RTVSPost2010Prop57
140
1.0
102
RTVSPost2010PropOp57
 70
     1
  0
ENDSEC
  0
EOF
